999
DXF file: ass_bottom_all_prints_1.dxf
999
Pro/ENGINEER 2002310 by Parametric Technology Corporation
0
SECTION
2
HEADER
9
$ACADVER
1
AC1014
9
$HANDSEED
5
       76D
9
$EXTMAX
10
420.0000000000
20
297.0000000000
9
$EXTMIN
10
0.0000000000
20
0.0000000000
9
$LIMMIN
10
0.0000000000
20
0.0000000000
9
$LIMMAX
10
420.0000000000
20
297.0000000000
9
$VIEWCTR
10
210.0000000000
20
148.5000000000
9
$VIEWSIZE
40
297.0000000000
9
$CLAYER
8
0
9
$LTSCALE
40
23.1000000000
9
$CELTYPE
6
BYLAYER
9
$DIMSCALE
40
1
9
$DIMASZ
40
3.5000000000
9
$DIMEXO
40
2.6250000000
9
$DIMDLI
40
15.9600000000
9
$DIMEXE
40
7.5600000000
9
$DIMCEN
40
3.7800000000
9
$DIMLFAC
40
1.0000000000
9
$DIMTXT
40
3.5000000000
9
$DIMTOL
70
1
9
$DIMLIM
70
0
9
$DIMTFAC
40
1.0000000000
9
$DIMTP
40
0.0100000000
9
$DIMTM
40
0.0100000000
0
ENDSEC
0
SECTION
2
CLASSES
0
ENDSEC
0
SECTION
2
TABLES
0
TABLE
2
VPORT
5
8
100
AcDbSymbolTable
70
2
0
VPORT
5
1F4
100
AcDbSymbolTableRecord
100
AcDbViewportTableRecord
2
*ACTIVE
70
0
10
0.0
20
0.0
11
1.0
21
1.0
12
210.0000000000
22
148.5000000000
13
0.0
23
0.0
14
1.0
24
1.0
15
0.0
25
0.0
16
0.0
26
0.0
36
1.0
17
0.0
27
0.0
37
0.0
40
297.0000000000
41
1.4141414141
42
50.0
43
0.0
44
0.0
50
0.0
51
0.0
71
0
72
100
73
1
74
1
75
0
76
0
77
0
78
0
0
ENDTAB
0
TABLE
2
LTYPE
5
5
100
AcDbSymbolTable
70
6
0
LTYPE
5
14
100
AcDbSymbolTableRecord
100
AcDbLinetypeTableRecord
2
BYBLOCK
70
0
3

72
65
73
0
40
0.0
0
LTYPE
5
15
100
AcDbSymbolTableRecord
100
AcDbLinetypeTableRecord
2
BYLAYER
70
0
3

72
65
73
0
40
0.0
0
LTYPE
5
16
100
AcDbSymbolTableRecord
100
AcDbLinetypeTableRecord
2
CONTINUOUS
70
64
3
Solid line
72
65
73
0
40
0
0
LTYPE
5
1F5
100
AcDbSymbolTableRecord
100
AcDbLinetypeTableRecord
2
CENTER
70
64
3
____ _ ____ _ ____ _ ____ _ ____ _ ____ _ ____
72
65
73
4
40
0.6
49
0.375
74
0
49
-0.075
74
0
49
0.075
74
0
49
-0.075
74
0
0
LTYPE
5
1F6
100
AcDbSymbolTableRecord
100
AcDbLinetypeTableRecord
2
HIDDEN
70
64
3
- - - - - - - - - - - - - - - - - - - -
72
65
73
2
40
0.2
49
0.1
74
0
49
-0.1
74
0
0
LTYPE
5
1F7
100
AcDbSymbolTableRecord
100
AcDbLinetypeTableRecord
2
PHANTOM
70
64
3
_____ _ _ _____ _ _ _____ _ _ _____
72
65
73
6
40
0.8
49
0.45
74
0
49
-0.05
74
0
49
0.1
74
0
49
-0.05
74
0
49
0.1
74
0
49
-0.05
74
0
0
LTYPE
5
1F8
100
AcDbSymbolTableRecord
100
AcDbLinetypeTableRecord
2
DOT
70
64
3
. . . . . . . . . . . . . . . . . . . .
72
65
73
2
40
0.2
49
0.1
74
0
49
-0.1
74
0
0
LTYPE
5
1F9
100
AcDbSymbolTableRecord
100
AcDbLinetypeTableRecord
2
DASHED
70
64
3
- - - - - - - - - - - - - - - - - - - -
72
65
73
2
40
0.2
49
0.1
74
0
49
-0.1
74
0
0
ENDTAB
0
TABLE
2
LAYER
5
2
100
AcDbSymbolTable
70
36
0
LAYER
5
10
100
AcDbSymbolTableRecord
100
AcDbLayerTableRecord
2
0
70
0
62
7
6
CONTINUOUS
0
LAYER
5
1FA
100
AcDbSymbolTableRecord
100
AcDbLayerTableRecord
2
DEFAULT_1
70
0
62
7
6
CENTER
0
LAYER
5
1FB
100
AcDbSymbolTableRecord
100
AcDbLayerTableRecord
2
DEFAULT_2
70
0
62
8
6
HIDDEN
0
LAYER
5
1FC
100
AcDbSymbolTableRecord
100
AcDbLayerTableRecord
2
DEFAULT_3
70
0
62
7
6
PHANTOM
0
LAYER
5
1FD
100
AcDbSymbolTableRecord
100
AcDbLayerTableRecord
2
01_ALL_DTM_PLN
70
0
62
7
6
CONTINUOUS
0
LAYER
5
1FE
100
AcDbSymbolTableRecord
100
AcDbLayerTableRecord
2
01__ASM_ALL_DTM_PLN
70
0
62
7
6
CONTINUOUS
0
LAYER
5
1FF
100
AcDbSymbolTableRecord
100
AcDbLayerTableRecord
2
01__ASM_DEF_DTM_PLN
70
0
62
7
6
CONTINUOUS
0
LAYER
5
200
100
AcDbSymbolTableRecord
100
AcDbLayerTableRecord
2
01___PRT_ALL_DTM_PLN
70
0
62
7
6
CONTINUOUS
0
LAYER
5
201
100
AcDbSymbolTableRecord
100
AcDbLayerTableRecord
2
01___PRT_DEF_DTM_PLN
70
0
62
7
6
CONTINUOUS
0
LAYER
5
202
100
AcDbSymbolTableRecord
100
AcDbLayerTableRecord
2
02_ALL_AXES
70
0
62
7
6
CONTINUOUS
0
LAYER
5
203
100
AcDbSymbolTableRecord
100
AcDbLayerTableRecord
2
02__ASM_ALL_AXES
70
0
62
7
6
CONTINUOUS
0
LAYER
5
204
100
AcDbSymbolTableRecord
100
AcDbLayerTableRecord
2
02___PRT_ALL_AXES
70
0
62
7
6
CONTINUOUS
0
LAYER
5
205
100
AcDbSymbolTableRecord
100
AcDbLayerTableRecord
2
03_ALL_CURVES
70
0
62
7
6
CONTINUOUS
0
LAYER
5
206
100
AcDbSymbolTableRecord
100
AcDbLayerTableRecord
2
03__ASM_ALL_CURVES
70
0
62
7
6
CONTINUOUS
0
LAYER
5
207
100
AcDbSymbolTableRecord
100
AcDbLayerTableRecord
2
03___PRT_ALL_CURVES
70
0
62
7
6
CONTINUOUS
0
LAYER
5
208
100
AcDbSymbolTableRecord
100
AcDbLayerTableRecord
2
04_ALL_DTM_PNT
70
0
62
7
6
CONTINUOUS
0
LAYER
5
209
100
AcDbSymbolTableRecord
100
AcDbLayerTableRecord
2
04__ASM_ALL_DTM_PNT
70
0
62
7
6
CONTINUOUS
0
LAYER
5
20A
100
AcDbSymbolTableRecord
100
AcDbLayerTableRecord
2
04___PRT_ALL_DTM_PNT
70
0
62
7
6
CONTINUOUS
0
LAYER
5
20B
100
AcDbSymbolTableRecord
100
AcDbLayerTableRecord
2
05_ALL_DTM_CSYS
70
0
62
7
6
CONTINUOUS
0
LAYER
5
20C
100
AcDbSymbolTableRecord
100
AcDbLayerTableRecord
2
05__ASM_ALL_DTM_CSYS
70
0
62
7
6
CONTINUOUS
0
LAYER
5
20D
100
AcDbSymbolTableRecord
100
AcDbLayerTableRecord
2
05__ASM_DEF_DTM_CSYS
70
0
62
7
6
CONTINUOUS
0
LAYER
5
20E
100
AcDbSymbolTableRecord
100
AcDbLayerTableRecord
2
05___PRT_ALL_DTM_CSYS
70
0
62
7
6
CONTINUOUS
0
LAYER
5
20F
100
AcDbSymbolTableRecord
100
AcDbLayerTableRecord
2
05___PRT_DEF_DTM_CSYS
70
0
62
7
6
CONTINUOUS
0
LAYER
5
210
100
AcDbSymbolTableRecord
100
AcDbLayerTableRecord
2
06_ALL_SURFS
70
0
62
7
6
CONTINUOUS
0
LAYER
5
211
100
AcDbSymbolTableRecord
100
AcDbLayerTableRecord
2
06__ASM_ALL_SURFS
70
0
62
7
6
CONTINUOUS
0
LAYER
5
212
100
AcDbSymbolTableRecord
100
AcDbLayerTableRecord
2
06___PRT_ALL_SURFS
70
0
62
7
6
CONTINUOUS
0
LAYER
5
213
100
AcDbSymbolTableRecord
100
AcDbLayerTableRecord
2
07__ASM_ALL_SKELETONS
70
0
62
7
6
CONTINUOUS
0
ENDTAB
0
TABLE
2
STYLE
5
3
100
AcDbSymbolTable
70
1
0
STYLE
5
11
100
AcDbSymbolTableRecord
100
AcDbTextStyleTableRecord
2
STANDARD
70
0
40
0.0
41
0.8500000000
50
0.0
71
0
42
0.2
3
txt
4

0
STYLE
5
214
100
AcDbSymbolTableRecord
100
AcDbTextStyleTableRecord
2
TEXTSTYLE_1
70
0
40
0.0
41
0.8500000000
50
0.0
71
0
42
0.2
3
spart12b.ttf
4

0
STYLE
5
215
100
AcDbSymbolTableRecord
100
AcDbTextStyleTableRecord
2
TEXTSTYLE_2
70
0
40
0.0
41
0.8500000000
50
0.0
71
0
42
0.2
3
cgomg.ttf
4

0
ENDTAB
0
TABLE
2
VIEW
5
6
100
AcDbSymbolTable
70
0
0
ENDTAB
0
TABLE
2
UCS
5
7
100
AcDbSymbolTable
70
0
0
ENDTAB
0
TABLE
2
APPID
5
9
100
AcDbSymbolTable
70
1
0
APPID
5
216
100
AcDbSymbolTableRecord
100
AcDbRegAppTableRecord
2
ACAD
70
0
0
ENDTAB
0
TABLE
2
DIMSTYLE
5
A
100
AcDbSymbolTable
70
1
0
DIMSTYLE
105
217
100
AcDbSymbolTableRecord
100
AcDbDimStyleTableRecord
2
STANDARD
70
0
3

4

5

6

7

40
1.0
41
3.5000000000
42
0.0625
43
0.38
44
0.18
45
0.0
46
0.0
47
0.0100000000
48
0.0100000000
140
3.5000000000
141
0.09
142
0.0
143
25.4
144
1.0000000000
145
0.0
146
1.0000000000
147
0.09
71
1
72
0
73
0
74
0
75
0
76
0
77
1
78
8
170
0
171
2
172
0
173
0
174
0
175
0
176
0
177
0
178
0
270
2
271
2
272
2
273
2
274
2
340
11
275
0
280
0
281
0
282
0
283
1
284
8
285
0
286
0
287
3
288
0
0
DIMSTYLE
105
218
100
AcDbSymbolTableRecord
100
AcDbDimStyleTableRecord
2
DIMSTYLE_1
70
0
3

4

5

6

7

40
1.0
41
3.5000000000
42
0.0625
43
0.38
44
0.18
45
0.0
46
0.0
47
0.0100000000
48
0.0100000000
140
3.5000000000
141
0.09
142
0.0
143
25.4
144
1.0000000000
145
0.0
146
1.0000000000
147
0.09
71
0
72
0
73
0
74
0
75
0
76
0
77
1
78
8
170
0
171
2
172
0
173
0
174
0
175
0
176
0
177
0
178
0
270
2
271
2
272
2
273
2
274
2
340
11
275
0
280
0
281
0
282
0
283
1
284
8
285
0
286
0
287
3
288
0
0
ENDTAB
0
TABLE
2
BLOCK_RECORD
5
1
100
AcDbSymbolTable
70
0
0
BLOCK_RECORD
5
1B
100
AcDbSymbolTableRecord
100
AcDbBlockTableRecord
2
*MODEL_SPACE
0
BLOCK_RECORD
5
1C
100
AcDbSymbolTableRecord
100
AcDbBlockTableRecord
2
*PAPER_SPACE
0
BLOCK_RECORD
5
219
100
AcDbSymbolTableRecord
100
AcDbBlockTableRecord
2
*D0
0
BLOCK_RECORD
5
21A
100
AcDbSymbolTableRecord
100
AcDbBlockTableRecord
2
*D1
0
BLOCK_RECORD
5
21B
100
AcDbSymbolTableRecord
100
AcDbBlockTableRecord
2
*D2
0
BLOCK_RECORD
5
21C
100
AcDbSymbolTableRecord
100
AcDbBlockTableRecord
2
*D3
0
BLOCK_RECORD
5
21D
100
AcDbSymbolTableRecord
100
AcDbBlockTableRecord
2
*D4
0
BLOCK_RECORD
5
21E
100
AcDbSymbolTableRecord
100
AcDbBlockTableRecord
2
*D5
0
BLOCK_RECORD
5
21F
100
AcDbSymbolTableRecord
100
AcDbBlockTableRecord
2
*D6
0
BLOCK_RECORD
5
220
100
AcDbSymbolTableRecord
100
AcDbBlockTableRecord
2
*D7
0
BLOCK_RECORD
5
221
100
AcDbSymbolTableRecord
100
AcDbBlockTableRecord
2
*D8
0
BLOCK_RECORD
5
222
100
AcDbSymbolTableRecord
100
AcDbBlockTableRecord
2
*D9
0
BLOCK_RECORD
5
223
100
AcDbSymbolTableRecord
100
AcDbBlockTableRecord
2
*D10
0
BLOCK_RECORD
5
224
100
AcDbSymbolTableRecord
100
AcDbBlockTableRecord
2
*D11
0
BLOCK_RECORD
5
225
100
AcDbSymbolTableRecord
100
AcDbBlockTableRecord
2
*D12
0
BLOCK_RECORD
5
226
100
AcDbSymbolTableRecord
100
AcDbBlockTableRecord
2
*D13
0
BLOCK_RECORD
5
227
100
AcDbSymbolTableRecord
100
AcDbBlockTableRecord
2
*D14
0
BLOCK_RECORD
5
228
100
AcDbSymbolTableRecord
100
AcDbBlockTableRecord
2
*D15
0
BLOCK_RECORD
5
229
100
AcDbSymbolTableRecord
100
AcDbBlockTableRecord
2
*D16
0
BLOCK_RECORD
5
22A
100
AcDbSymbolTableRecord
100
AcDbBlockTableRecord
2
*D17
0
BLOCK_RECORD
5
22B
100
AcDbSymbolTableRecord
100
AcDbBlockTableRecord
2
*D18
0
BLOCK_RECORD
5
22C
100
AcDbSymbolTableRecord
100
AcDbBlockTableRecord
2
*D19
0
BLOCK_RECORD
5
22D
100
AcDbSymbolTableRecord
100
AcDbBlockTableRecord
2
*D20
0
BLOCK_RECORD
5
22E
100
AcDbSymbolTableRecord
100
AcDbBlockTableRecord
2
*D21
0
BLOCK_RECORD
5
22F
100
AcDbSymbolTableRecord
100
AcDbBlockTableRecord
2
*D22
0
ENDTAB
0
ENDSEC
0
SECTION
2
BLOCKS
0
BLOCK
5
1E
100
AcDbEntity
8
0
100
AcDbBlockBegin
2
*MODEL_SPACE
70
0
10
0.0
20
0.0
30
0.0
3
*MODEL_SPACE
1

0
ENDBLK
5
1F
100
AcDbEntity
8
0
100
AcDbBlockEnd
0
BLOCK
5
20
100
AcDbEntity
8
0
100
AcDbBlockBegin
2
*PAPER_SPACE
70
0
10
0.0
20
0.0
30
0.0
3
*PAPER_SPACE
1

0
ENDBLK
5
21
100
AcDbEntity
8
0
100
AcDbBlockEnd
0
BLOCK
5
230
100
AcDbEntity
8
0
100
AcDbBlockBegin
62
2
6
CONTINUOUS
2
*D0
70
65
10
0.0000000000
20
0.0000000000
3
*D0
1

0
TEXT
5
231
100
AcDbEntity
8
0
100
AcDbText
62
2
6
CONTINUOUS
10
281.7187211054
20
205.4993581196
7
STANDARD
40
3.5000000000
1
18.05
50
90.0000000000
41
0.8500000000
72
5
11
281.7187211054
21
220.3743581196
100
AcDbText
0
LINE
5
232
100
AcDbEntity
8
0
100
AcDbLine
62
2
6
CONTINUOUS
10
252.2937210720
20
203.2406479448
11
284.0937210720
21
203.2406479448
0
LINE
5
233
100
AcDbEntity
8
0
100
AcDbLine
62
2
6
CONTINUOUS
10
257.8437210720
20
221.2906479448
11
284.0937210720
21
221.2906479448
0
LINE
5
234
100
AcDbEntity
8
0
100
AcDbLine
62
2
6
CONTINUOUS
10
282.5937210720
20
203.2406479448
11
282.5937210720
21
212.2656479448
0
LINE
5
235
100
AcDbEntity
8
0
100
AcDbLine
62
2
6
CONTINUOUS
10
282.5937210720
20
221.2906479448
11
282.5937210720
21
212.2656479448
0
SOLID
5
236
100
AcDbEntity
8
0
100
AcDbTrace
62
2
6
CONTINUOUS
10
281.8437210720
20
206.7406479448
11
282.5937210720
21
203.2406479448
12
283.3437210720
22
206.7406479448
13
283.3437210720
23
206.7406479448
0
SOLID
5
237
100
AcDbEntity
8
0
100
AcDbTrace
62
2
6
CONTINUOUS
10
283.3437210720
20
217.7906479448
11
282.5937210720
21
221.2906479448
12
281.8437210720
22
217.7906479448
13
281.8437210720
23
217.7906479448
0
ENDBLK
5
238
100
AcDbEntity
8
0
100
AcDbBlockEnd
0
BLOCK
5
239
100
AcDbEntity
8
0
100
AcDbBlockBegin
62
2
6
CONTINUOUS
2
*D1
70
65
10
0.0000000000
20
0.0000000000
3
*D1
1

0
TEXT
5
23A
100
AcDbEntity
8
0
100
AcDbText
62
2
6
CONTINUOUS
10
166.9169263318
20
268.4656479448
7
STANDARD
40
3.5000000000
1
11.5
41
0.8500000000
72
5
11
178.8169263318
21
268.4656479448
100
AcDbText
0
LINE
5
23B
100
AcDbEntity
8
0
100
AcDbLine
62
2
6
CONTINUOUS
10
153.5937210720
20
244.6906479448
11
153.5937210720
21
269.0906479448
0
LINE
5
23C
100
AcDbEntity
8
0
100
AcDbLine
62
2
6
CONTINUOUS
10
165.0937210720
20
249.5906479448
11
165.0937210720
21
269.0906479448
0
LINE
5
23D
100
AcDbEntity
8
0
100
AcDbLine
62
2
6
CONTINUOUS
10
153.5937210720
20
267.5906479448
11
159.3437210720
21
267.5906479448
0
LINE
5
23E
100
AcDbEntity
8
0
100
AcDbLine
62
2
6
CONTINUOUS
10
165.0937210720
20
267.5906479448
11
159.3437210720
21
267.5906479448
0
LINE
5
23F
100
AcDbEntity
8
0
100
AcDbLine
62
2
6
CONTINUOUS
10
159.3437210720
20
267.5906479448
11
178.8169263318
21
267.5906479448
0
SOLID
5
240
100
AcDbEntity
8
0
100
AcDbTrace
62
2
6
CONTINUOUS
10
157.0937210720
20
268.3406479448
11
153.5937210720
21
267.5906479448
12
157.0937210720
22
266.8406479448
13
157.0937210720
23
266.8406479448
0
SOLID
5
241
100
AcDbEntity
8
0
100
AcDbTrace
62
2
6
CONTINUOUS
10
161.5937210720
20
266.8406479448
11
165.0937210720
21
267.5906479448
12
161.5937210720
22
268.3406479448
13
161.5937210720
23
268.3406479448
0
ENDBLK
5
242
100
AcDbEntity
8
0
100
AcDbBlockEnd
0
BLOCK
5
243
100
AcDbEntity
8
0
100
AcDbBlockBegin
62
2
6
CONTINUOUS
2
*D2
70
65
10
0.0000000000
20
0.0000000000
3
*D2
1

0
TEXT
5
244
100
AcDbEntity
8
0
100
AcDbText
62
2
6
CONTINUOUS
10
164.9100568870
20
258.4656479448
7
STANDARD
40
3.5000000000
1
14.75
41
0.8500000000
72
5
11
179.7850568870
21
258.4656479448
100
AcDbText
0
LINE
5
245
100
AcDbEntity
8
0
100
AcDbLine
62
2
6
CONTINUOUS
10
165.0937210720
20
249.5906479448
11
165.0937210720
21
259.0906479448
0
LINE
5
246
100
AcDbEntity
8
0
100
AcDbLine
62
2
6
CONTINUOUS
10
179.8437210720
20
249.5906479448
11
179.8437210720
21
259.0906479448
0
LINE
5
247
100
AcDbEntity
8
0
100
AcDbLine
62
2
6
CONTINUOUS
10
165.0937210720
20
257.5906479448
11
172.4687210720
21
257.5906479448
0
LINE
5
248
100
AcDbEntity
8
0
100
AcDbLine
62
2
6
CONTINUOUS
10
179.8437210720
20
257.5906479448
11
172.4687210720
21
257.5906479448
0
SOLID
5
249
100
AcDbEntity
8
0
100
AcDbTrace
62
2
6
CONTINUOUS
10
168.5937210720
20
258.3406479448
11
165.0937210720
21
257.5906479448
12
168.5937210720
22
256.8406479448
13
168.5937210720
23
256.8406479448
0
SOLID
5
24A
100
AcDbEntity
8
0
100
AcDbTrace
62
2
6
CONTINUOUS
10
176.3437210720
20
256.8406479448
11
179.8437210720
21
257.5906479448
12
176.3437210720
22
258.3406479448
13
176.3437210720
23
258.3406479448
0
ENDBLK
5
24B
100
AcDbEntity
8
0
100
AcDbBlockEnd
0
BLOCK
5
24C
100
AcDbEntity
8
0
100
AcDbBlockBegin
62
2
6
CONTINUOUS
2
*D3
70
65
10
0.0000000000
20
0.0000000000
3
*D3
1

0
TEXT
5
24D
100
AcDbEntity
8
0
100
AcDbText
62
2
6
CONTINUOUS
10
202.5878088873
20
258.4656479448
7
STANDARD
40
3.5000000000
1
23
41
0.8500000000
72
5
11
208.5378088873
21
258.4656479448
100
AcDbText
0
LINE
5
24E
100
AcDbEntity
8
0
100
AcDbLine
62
2
6
CONTINUOUS
10
194.5937210720
20
249.5906479448
11
194.5937210720
21
259.0906479448
0
LINE
5
24F
100
AcDbEntity
8
0
100
AcDbLine
62
2
6
CONTINUOUS
10
217.5937210720
20
249.5906479448
11
217.5937210720
21
259.0906479448
0
LINE
5
250
100
AcDbEntity
8
0
100
AcDbLine
62
2
6
CONTINUOUS
10
194.5937210720
20
257.5906479448
11
206.0937210720
21
257.5906479448
0
LINE
5
251
100
AcDbEntity
8
0
100
AcDbLine
62
2
6
CONTINUOUS
10
217.5937210720
20
257.5906479448
11
206.0937210720
21
257.5906479448
0
SOLID
5
252
100
AcDbEntity
8
0
100
AcDbTrace
62
2
6
CONTINUOUS
10
198.0937210720
20
258.3406479448
11
194.5937210720
21
257.5906479448
12
198.0937210720
22
256.8406479448
13
198.0937210720
23
256.8406479448
0
SOLID
5
253
100
AcDbEntity
8
0
100
AcDbTrace
62
2
6
CONTINUOUS
10
214.0937210720
20
256.8406479448
11
217.5937210720
21
257.5906479448
12
214.0937210720
22
258.3406479448
13
214.0937210720
23
258.3406479448
0
ENDBLK
5
254
100
AcDbEntity
8
0
100
AcDbBlockEnd
0
BLOCK
5
255
100
AcDbEntity
8
0
100
AcDbBlockBegin
62
2
6
CONTINUOUS
2
*D4
70
65
10
0.0000000000
20
0.0000000000
3
*D4
1

0
TEXT
5
256
100
AcDbEntity
8
0
100
AcDbText
62
2
6
CONTINUOUS
10
98.1428910003
20
258.4656479448
7
STANDARD
40
3.5000000000
1
23
41
0.8500000000
72
5
11
104.0928910003
21
258.4656479448
100
AcDbText
0
LINE
5
257
100
AcDbEntity
8
0
100
AcDbLine
62
2
6
CONTINUOUS
10
89.5937210720
20
243.5906479448
11
89.5937210720
21
259.0906479448
0
LINE
5
258
100
AcDbEntity
8
0
100
AcDbLine
62
2
6
CONTINUOUS
10
112.5937210720
20
243.5906479448
11
112.5937210720
21
259.0906479448
0
LINE
5
259
100
AcDbEntity
8
0
100
AcDbLine
62
2
6
CONTINUOUS
10
89.5937210720
20
257.5906479448
11
101.0937210720
21
257.5906479448
0
LINE
5
25A
100
AcDbEntity
8
0
100
AcDbLine
62
2
6
CONTINUOUS
10
112.5937210720
20
257.5906479448
11
101.0937210720
21
257.5906479448
0
SOLID
5
25B
100
AcDbEntity
8
0
100
AcDbTrace
62
2
6
CONTINUOUS
10
93.0937210720
20
258.3406479448
11
89.5937210720
21
257.5906479448
12
93.0937210720
22
256.8406479448
13
93.0937210720
23
256.8406479448
0
SOLID
5
25C
100
AcDbEntity
8
0
100
AcDbTrace
62
2
6
CONTINUOUS
10
109.0937210720
20
256.8406479448
11
112.5937210720
21
257.5906479448
12
109.0937210720
22
258.3406479448
13
109.0937210720
23
258.3406479448
0
ENDBLK
5
25D
100
AcDbEntity
8
0
100
AcDbBlockEnd
0
BLOCK
5
25E
100
AcDbEntity
8
0
100
AcDbBlockBegin
62
2
6
CONTINUOUS
2
*D5
70
65
10
0.0000000000
20
0.0000000000
3
*D5
1

0
TEXT
5
25F
100
AcDbEntity
8
0
100
AcDbText
62
2
6
CONTINUOUS
10
128.8741234266
20
268.4656479448
7
STANDARD
40
3.5000000000
1
11.5
41
0.8500000000
72
5
11
140.7741234266
21
268.4656479448
100
AcDbText
0
LINE
5
260
100
AcDbEntity
8
0
100
AcDbLine
62
2
6
CONTINUOUS
10
153.5937210720
20
244.6906479448
11
153.5937210720
21
269.0906479448
0
LINE
5
261
100
AcDbEntity
8
0
100
AcDbLine
62
2
6
CONTINUOUS
10
142.0937210720
20
243.5906479448
11
142.0937210720
21
269.0906479448
0
LINE
5
262
100
AcDbEntity
8
0
100
AcDbLine
62
2
6
CONTINUOUS
10
153.5937210720
20
267.5906479448
11
147.8437210720
21
267.5906479448
0
LINE
5
263
100
AcDbEntity
8
0
100
AcDbLine
62
2
6
CONTINUOUS
10
142.0937210720
20
267.5906479448
11
147.8437210720
21
267.5906479448
0
LINE
5
264
100
AcDbEntity
8
0
100
AcDbLine
62
2
6
CONTINUOUS
10
147.8437210720
20
267.5906479448
11
128.8741234266
21
267.5906479448
0
SOLID
5
265
100
AcDbEntity
8
0
100
AcDbTrace
62
2
6
CONTINUOUS
10
150.0937210720
20
266.8406479448
11
153.5937210720
21
267.5906479448
12
150.0937210720
22
268.3406479448
13
150.0937210720
23
268.3406479448
0
SOLID
5
266
100
AcDbEntity
8
0
100
AcDbTrace
62
2
6
CONTINUOUS
10
145.5937210720
20
268.3406479448
11
142.0937210720
21
267.5906479448
12
145.5937210720
22
266.8406479448
13
145.5937210720
23
266.8406479448
0
ENDBLK
5
267
100
AcDbEntity
8
0
100
AcDbBlockEnd
0
BLOCK
5
268
100
AcDbEntity
8
0
100
AcDbBlockBegin
62
2
6
CONTINUOUS
2
*D6
70
65
10
0.0000000000
20
0.0000000000
3
*D6
1

0
TEXT
5
269
100
AcDbEntity
8
0
100
AcDbText
62
2
6
CONTINUOUS
10
179.6864237465
20
258.4656479448
7
STANDARD
40
3.5000000000
1
14.75
41
0.8500000000
72
5
11
194.5614237465
21
258.4656479448
100
AcDbText
0
LINE
5
26A
100
AcDbEntity
8
0
100
AcDbLine
62
2
6
CONTINUOUS
10
179.8437210720
20
249.5906479448
11
179.8437210720
21
259.0906479448
0
LINE
5
26B
100
AcDbEntity
8
0
100
AcDbLine
62
2
6
CONTINUOUS
10
194.5937210720
20
249.5906479448
11
194.5937210720
21
259.0906479448
0
LINE
5
26C
100
AcDbEntity
8
0
100
AcDbLine
62
2
6
CONTINUOUS
10
179.8437210720
20
257.5906479448
11
187.2187210720
21
257.5906479448
0
LINE
5
26D
100
AcDbEntity
8
0
100
AcDbLine
62
2
6
CONTINUOUS
10
194.5937210720
20
257.5906479448
11
187.2187210720
21
257.5906479448
0
SOLID
5
26E
100
AcDbEntity
8
0
100
AcDbTrace
62
2
6
CONTINUOUS
10
183.3437210720
20
258.3406479448
11
179.8437210720
21
257.5906479448
12
183.3437210720
22
256.8406479448
13
183.3437210720
23
256.8406479448
0
SOLID
5
26F
100
AcDbEntity
8
0
100
AcDbTrace
62
2
6
CONTINUOUS
10
191.0937210720
20
256.8406479448
11
194.5937210720
21
257.5906479448
12
191.0937210720
22
258.3406479448
13
191.0937210720
23
258.3406479448
0
ENDBLK
5
270
100
AcDbEntity
8
0
100
AcDbBlockEnd
0
BLOCK
5
271
100
AcDbEntity
8
0
100
AcDbBlockBegin
62
2
6
CONTINUOUS
2
*D7
70
65
10
0.0000000000
20
0.0000000000
3
*D7
1

0
TEXT
5
272
100
AcDbEntity
8
0
100
AcDbText
62
2
6
CONTINUOUS
10
217.4482501651
20
258.4656479448
7
STANDARD
40
3.5000000000
1
14.75
41
0.8500000000
72
5
11
232.3232501651
21
258.4656479448
100
AcDbText
0
LINE
5
273
100
AcDbEntity
8
0
100
AcDbLine
62
2
6
CONTINUOUS
10
217.5937210720
20
249.5906479448
11
217.5937210720
21
259.0906479448
0
LINE
5
274
100
AcDbEntity
8
0
100
AcDbLine
62
2
6
CONTINUOUS
10
232.3437210720
20
249.5906479448
11
232.3437210720
21
259.0906479448
0
LINE
5
275
100
AcDbEntity
8
0
100
AcDbLine
62
2
6
CONTINUOUS
10
217.5937210720
20
257.5906479448
11
224.9687210720
21
257.5906479448
0
LINE
5
276
100
AcDbEntity
8
0
100
AcDbLine
62
2
6
CONTINUOUS
10
232.3437210720
20
257.5906479448
11
224.9687210720
21
257.5906479448
0
SOLID
5
277
100
AcDbEntity
8
0
100
AcDbTrace
62
2
6
CONTINUOUS
10
221.0937210720
20
258.3406479448
11
217.5937210720
21
257.5906479448
12
221.0937210720
22
256.8406479448
13
221.0937210720
23
256.8406479448
0
SOLID
5
278
100
AcDbEntity
8
0
100
AcDbTrace
62
2
6
CONTINUOUS
10
228.8437210720
20
256.8406479448
11
232.3437210720
21
257.5906479448
12
228.8437210720
22
258.3406479448
13
228.8437210720
23
258.3406479448
0
ENDBLK
5
279
100
AcDbEntity
8
0
100
AcDbBlockEnd
0
BLOCK
5
27A
100
AcDbEntity
8
0
100
AcDbBlockBegin
62
2
6
CONTINUOUS
2
*D8
70
65
10
0.0000000000
20
0.0000000000
3
*D8
1

0
TEXT
5
27B
100
AcDbEntity
8
0
100
AcDbText
62
2
6
CONTINUOUS
10
232.3509107584
20
258.4656479448
7
STANDARD
40
3.5000000000
1
14.75
41
0.8500000000
72
5
11
247.2259107584
21
258.4656479448
100
AcDbText
0
LINE
5
27C
100
AcDbEntity
8
0
100
AcDbLine
62
2
6
CONTINUOUS
10
232.3437210720
20
249.5906479448
11
232.3437210720
21
259.0906479448
0
LINE
5
27D
100
AcDbEntity
8
0
100
AcDbLine
62
2
6
CONTINUOUS
10
247.0937210720
20
249.5906479448
11
247.0937210720
21
259.0906479448
0
LINE
5
27E
100
AcDbEntity
8
0
100
AcDbLine
62
2
6
CONTINUOUS
10
232.3437210720
20
257.5906479448
11
239.7187210720
21
257.5906479448
0
LINE
5
27F
100
AcDbEntity
8
0
100
AcDbLine
62
2
6
CONTINUOUS
10
247.0937210720
20
257.5906479448
11
239.7187210720
21
257.5906479448
0
SOLID
5
280
100
AcDbEntity
8
0
100
AcDbTrace
62
2
6
CONTINUOUS
10
235.8437210720
20
258.3406479448
11
232.3437210720
21
257.5906479448
12
235.8437210720
22
256.8406479448
13
235.8437210720
23
256.8406479448
0
SOLID
5
281
100
AcDbEntity
8
0
100
AcDbTrace
62
2
6
CONTINUOUS
10
243.5937210720
20
256.8406479448
11
247.0937210720
21
257.5906479448
12
243.5937210720
22
258.3406479448
13
243.5937210720
23
258.3406479448
0
ENDBLK
5
282
100
AcDbEntity
8
0
100
AcDbBlockEnd
0
BLOCK
5
283
100
AcDbEntity
8
0
100
AcDbBlockBegin
62
2
6
CONTINUOUS
2
*D9
70
65
10
0.0000000000
20
0.0000000000
3
*D9
1

0
TEXT
5
284
100
AcDbEntity
8
0
100
AcDbText
62
2
6
CONTINUOUS
10
127.1482304683
20
258.4656479448
7
STANDARD
40
3.5000000000
1
14.75
41
0.8500000000
72
5
11
142.0232304683
21
258.4656479448
100
AcDbText
0
LINE
5
285
100
AcDbEntity
8
0
100
AcDbLine
62
2
6
CONTINUOUS
10
142.0937210720
20
243.5906479448
11
142.0937210720
21
259.0906479448
0
LINE
5
286
100
AcDbEntity
8
0
100
AcDbLine
62
2
6
CONTINUOUS
10
127.3437210720
20
243.5906479448
11
127.3437210720
21
259.0906479448
0
LINE
5
287
100
AcDbEntity
8
0
100
AcDbLine
62
2
6
CONTINUOUS
10
142.0937210720
20
257.5906479448
11
134.7187210720
21
257.5906479448
0
LINE
5
288
100
AcDbEntity
8
0
100
AcDbLine
62
2
6
CONTINUOUS
10
127.3437210720
20
257.5906479448
11
134.7187210720
21
257.5906479448
0
SOLID
5
289
100
AcDbEntity
8
0
100
AcDbTrace
62
2
6
CONTINUOUS
10
138.5937210720
20
256.8406479448
11
142.0937210720
21
257.5906479448
12
138.5937210720
22
258.3406479448
13
138.5937210720
23
258.3406479448
0
SOLID
5
28A
100
AcDbEntity
8
0
100
AcDbTrace
62
2
6
CONTINUOUS
10
130.8437210720
20
258.3406479448
11
127.3437210720
21
257.5906479448
12
130.8437210720
22
256.8406479448
13
130.8437210720
23
256.8406479448
0
ENDBLK
5
28B
100
AcDbEntity
8
0
100
AcDbBlockEnd
0
BLOCK
5
28C
100
AcDbEntity
8
0
100
AcDbBlockBegin
62
2
6
CONTINUOUS
2
*D10
70
65
10
0.0000000000
20
0.0000000000
3
*D10
1

0
TEXT
5
28D
100
AcDbEntity
8
0
100
AcDbText
62
2
6
CONTINUOUS
10
112.3718636089
20
258.4656479448
7
STANDARD
40
3.5000000000
1
14.75
41
0.8500000000
72
5
11
127.2468636089
21
258.4656479448
100
AcDbText
0
LINE
5
28E
100
AcDbEntity
8
0
100
AcDbLine
62
2
6
CONTINUOUS
10
127.3437210720
20
243.5906479448
11
127.3437210720
21
259.0906479448
0
LINE
5
28F
100
AcDbEntity
8
0
100
AcDbLine
62
2
6
CONTINUOUS
10
112.5937210720
20
243.5906479448
11
112.5937210720
21
259.0906479448
0
LINE
5
290
100
AcDbEntity
8
0
100
AcDbLine
62
2
6
CONTINUOUS
10
127.3437210720
20
257.5906479448
11
119.9687210720
21
257.5906479448
0
LINE
5
291
100
AcDbEntity
8
0
100
AcDbLine
62
2
6
CONTINUOUS
10
112.5937210720
20
257.5906479448
11
119.9687210720
21
257.5906479448
0
SOLID
5
292
100
AcDbEntity
8
0
100
AcDbTrace
62
2
6
CONTINUOUS
10
123.8437210720
20
256.8406479448
11
127.3437210720
21
257.5906479448
12
123.8437210720
22
258.3406479448
13
123.8437210720
23
258.3406479448
0
SOLID
5
293
100
AcDbEntity
8
0
100
AcDbTrace
62
2
6
CONTINUOUS
10
116.0937210720
20
258.3406479448
11
112.5937210720
21
257.5906479448
12
116.0937210720
22
256.8406479448
13
116.0937210720
23
256.8406479448
0
ENDBLK
5
294
100
AcDbEntity
8
0
100
AcDbBlockEnd
0
BLOCK
5
295
100
AcDbEntity
8
0
100
AcDbBlockBegin
62
2
6
CONTINUOUS
2
*D11
70
65
10
0.0000000000
20
0.0000000000
3
*D11
1

0
TEXT
5
296
100
AcDbEntity
8
0
100
AcDbText
62
2
6
CONTINUOUS
10
74.9889183917
20
258.4656479448
7
STANDARD
40
3.5000000000
1
14.75
41
0.8500000000
72
5
11
89.8639183917
21
258.4656479448
100
AcDbText
0
LINE
5
297
100
AcDbEntity
8
0
100
AcDbLine
62
2
6
CONTINUOUS
10
89.5937210720
20
243.5906479448
11
89.5937210720
21
259.0906479448
0
LINE
5
298
100
AcDbEntity
8
0
100
AcDbLine
62
2
6
CONTINUOUS
10
74.8437210720
20
243.5906479448
11
74.8437210720
21
259.0906479448
0
LINE
5
299
100
AcDbEntity
8
0
100
AcDbLine
62
2
6
CONTINUOUS
10
89.5937210720
20
257.5906479448
11
82.2187210720
21
257.5906479448
0
LINE
5
29A
100
AcDbEntity
8
0
100
AcDbLine
62
2
6
CONTINUOUS
10
74.8437210720
20
257.5906479448
11
82.2187210720
21
257.5906479448
0
SOLID
5
29B
100
AcDbEntity
8
0
100
AcDbTrace
62
2
6
CONTINUOUS
10
86.0937210720
20
256.8406479448
11
89.5937210720
21
257.5906479448
12
86.0937210720
22
258.3406479448
13
86.0937210720
23
258.3406479448
0
SOLID
5
29C
100
AcDbEntity
8
0
100
AcDbTrace
62
2
6
CONTINUOUS
10
78.3437210720
20
258.3406479448
11
74.8437210720
21
257.5906479448
12
78.3437210720
22
256.8406479448
13
78.3437210720
23
256.8406479448
0
ENDBLK
5
29D
100
AcDbEntity
8
0
100
AcDbBlockEnd
0
BLOCK
5
29E
100
AcDbEntity
8
0
100
AcDbBlockBegin
62
2
6
CONTINUOUS
2
*D12
70
65
10
0.0000000000
20
0.0000000000
3
*D12
1

0
TEXT
5
29F
100
AcDbEntity
8
0
100
AcDbText
62
2
6
CONTINUOUS
10
59.9986467605
20
258.4656479448
7
STANDARD
40
3.5000000000
1
14.75
41
0.8500000000
72
5
11
74.8736467605
21
258.4656479448
100
AcDbText
0
LINE
5
2A0
100
AcDbEntity
8
0
100
AcDbLine
62
2
6
CONTINUOUS
10
74.8437210720
20
243.5906479448
11
74.8437210720
21
259.0906479448
0
LINE
5
2A1
100
AcDbEntity
8
0
100
AcDbLine
62
2
6
CONTINUOUS
10
60.0937210720
20
243.5906479448
11
60.0937210720
21
259.0906479448
0
LINE
5
2A2
100
AcDbEntity
8
0
100
AcDbLine
62
2
6
CONTINUOUS
10
74.8437210720
20
257.5906479448
11
67.4687210720
21
257.5906479448
0
LINE
5
2A3
100
AcDbEntity
8
0
100
AcDbLine
62
2
6
CONTINUOUS
10
60.0937210720
20
257.5906479448
11
67.4687210720
21
257.5906479448
0
SOLID
5
2A4
100
AcDbEntity
8
0
100
AcDbTrace
62
2
6
CONTINUOUS
10
71.3437210720
20
256.8406479448
11
74.8437210720
21
257.5906479448
12
71.3437210720
22
258.3406479448
13
71.3437210720
23
258.3406479448
0
SOLID
5
2A5
100
AcDbEntity
8
0
100
AcDbTrace
62
2
6
CONTINUOUS
10
63.5937210720
20
258.3406479448
11
60.0937210720
21
257.5906479448
12
63.5937210720
22
256.8406479448
13
63.5937210720
23
256.8406479448
0
ENDBLK
5
2A6
100
AcDbEntity
8
0
100
AcDbBlockEnd
0
BLOCK
5
2A7
100
AcDbEntity
8
0
100
AcDbBlockBegin
62
2
6
CONTINUOUS
2
*D13
70
65
10
0.0000000000
20
0.0000000000
3
*D13
1

0
TEXT
5
2A8
100
AcDbEntity
8
0
100
AcDbText
62
2
6
CONTINUOUS
10
271.7187210720
20
228.0344664475
7
STANDARD
40
3.5000000000
1
1.6
50
90.0000000000
41
0.8500000000
72
5
11
271.7187210720
21
236.9594664475
100
AcDbText
0
LINE
5
2A9
100
AcDbEntity
8
0
100
AcDbLine
62
2
6
CONTINUOUS
10
257.8437210720
20
222.8906479448
11
274.0937210720
21
222.8906479448
0
LINE
5
2AA
100
AcDbEntity
8
0
100
AcDbLine
62
2
6
CONTINUOUS
10
257.8437210720
20
221.2906479448
11
274.0937210720
21
221.2906479448
0
LINE
5
2AB
100
AcDbEntity
8
0
100
AcDbLine
62
2
6
CONTINUOUS
10
272.5937210720
20
222.8906479448
11
272.5937210720
21
236.9594664475
0
LINE
5
2AC
100
AcDbEntity
8
0
100
AcDbLine
62
2
6
CONTINUOUS
10
272.5937210720
20
236.9594664475
11
272.5937210720
21
222.0906479448
0
LINE
5
2AD
100
AcDbEntity
8
0
100
AcDbLine
62
2
6
CONTINUOUS
10
272.5937210720
20
221.2906479448
11
272.5937210720
21
213.2906479448
0
LINE
5
2AE
100
AcDbEntity
8
0
100
AcDbLine
62
2
6
CONTINUOUS
10
272.5937210720
20
213.2906479448
11
272.5937210720
21
222.0906479448
0
SOLID
5
2AF
100
AcDbEntity
8
0
100
AcDbTrace
62
2
6
CONTINUOUS
10
271.8437210720
20
226.3906479448
11
272.5937210720
21
222.8906479448
12
273.3437210720
22
226.3906479448
13
273.3437210720
23
226.3906479448
0
SOLID
5
2B0
100
AcDbEntity
8
0
100
AcDbTrace
62
2
6
CONTINUOUS
10
273.3437210720
20
217.7906479448
11
272.5937210720
21
221.2906479448
12
271.8437210720
22
217.7906479448
13
271.8437210720
23
217.7906479448
0
ENDBLK
5
2B1
100
AcDbEntity
8
0
100
AcDbBlockEnd
0
BLOCK
5
2B2
100
AcDbEntity
8
0
100
AcDbBlockBegin
62
2
6
CONTINUOUS
2
*D14
70
65
10
0.0000000000
20
0.0000000000
3
*D14
1

0
TEXT
5
2B3
100
AcDbEntity
8
0
100
AcDbText
62
2
6
CONTINUOUS
10
323.2620555716
20
258.4656479448
7
STANDARD
40
3.5000000000
1
12
41
0.8500000000
72
5
11
329.2120555716
21
258.4656479448
100
AcDbText
0
LINE
5
2B4
100
AcDbEntity
8
0
100
AcDbLine
62
2
6
CONTINUOUS
10
320.6481257557
20
244.6906479448
11
320.6481257557
21
259.0906479448
0
LINE
5
2B5
100
AcDbEntity
8
0
100
AcDbLine
62
2
6
CONTINUOUS
10
332.6481257557
20
249.5906479448
11
332.6481257557
21
259.0906479448
0
LINE
5
2B6
100
AcDbEntity
8
0
100
AcDbLine
62
2
6
CONTINUOUS
10
320.6481257557
20
257.5906479448
11
326.6481257557
21
257.5906479448
0
LINE
5
2B7
100
AcDbEntity
8
0
100
AcDbLine
62
2
6
CONTINUOUS
10
332.6481257557
20
257.5906479448
11
326.6481257557
21
257.5906479448
0
SOLID
5
2B8
100
AcDbEntity
8
0
100
AcDbTrace
62
2
6
CONTINUOUS
10
324.1481257557
20
258.3406479448
11
320.6481257557
21
257.5906479448
12
324.1481257557
22
256.8406479448
13
324.1481257557
23
256.8406479448
0
SOLID
5
2B9
100
AcDbEntity
8
0
100
AcDbTrace
62
2
6
CONTINUOUS
10
329.1481257557
20
256.8406479448
11
332.6481257557
21
257.5906479448
12
329.1481257557
22
258.3406479448
13
329.1481257557
23
258.3406479448
0
ENDBLK
5
2BA
100
AcDbEntity
8
0
100
AcDbBlockEnd
0
BLOCK
5
2BB
100
AcDbEntity
8
0
100
AcDbBlockBegin
62
2
6
CONTINUOUS
2
*D15
70
65
10
0.0000000000
20
0.0000000000
3
*D15
1

0
TEXT
5
2BC
100
AcDbEntity
8
0
100
AcDbText
62
2
6
CONTINUOUS
10
336.1448735191
20
258.4656479448
7
STANDARD
40
3.5000000000
1
12
41
0.8500000000
72
5
11
342.0948735191
21
258.4656479448
100
AcDbText
0
LINE
5
2BD
100
AcDbEntity
8
0
100
AcDbLine
62
2
6
CONTINUOUS
10
332.6481257557
20
249.5906479448
11
332.6481257557
21
259.0906479448
0
LINE
5
2BE
100
AcDbEntity
8
0
100
AcDbLine
62
2
6
CONTINUOUS
10
344.6481257557
20
244.6906479448
11
344.6481257557
21
259.0906479448
0
LINE
5
2BF
100
AcDbEntity
8
0
100
AcDbLine
62
2
6
CONTINUOUS
10
332.6481257557
20
257.5906479448
11
338.6481257557
21
257.5906479448
0
LINE
5
2C0
100
AcDbEntity
8
0
100
AcDbLine
62
2
6
CONTINUOUS
10
344.6481257557
20
257.5906479448
11
338.6481257557
21
257.5906479448
0
SOLID
5
2C1
100
AcDbEntity
8
0
100
AcDbTrace
62
2
6
CONTINUOUS
10
336.1481257557
20
258.3406479448
11
332.6481257557
21
257.5906479448
12
336.1481257557
22
256.8406479448
13
336.1481257557
23
256.8406479448
0
SOLID
5
2C2
100
AcDbEntity
8
0
100
AcDbTrace
62
2
6
CONTINUOUS
10
341.1481257557
20
256.8406479448
11
344.6481257557
21
257.5906479448
12
341.1481257557
22
258.3406479448
13
341.1481257557
23
258.3406479448
0
ENDBLK
5
2C3
100
AcDbEntity
8
0
100
AcDbBlockEnd
0
BLOCK
5
2C4
100
AcDbEntity
8
0
100
AcDbBlockBegin
62
2
6
CONTINUOUS
2
*D16
70
65
10
0.0000000000
20
0.0000000000
3
*D16
1

0
TEXT
5
2C5
100
AcDbEntity
8
0
100
AcDbText
62
2
6
CONTINUOUS
10
381.9981153813
20
213.0379833848
7
STANDARD
40
3.5000000000
1
34.35
50
90.0000000000
41
0.8500000000
72
5
11
381.9981153813
21
227.9129833848
100
AcDbText
0
LINE
5
2C6
100
AcDbEntity
8
0
100
AcDbLine
62
2
6
CONTINUOUS
10
374.6481257557
20
203.2406479448
11
384.3731153813
21
203.2406479448
0
LINE
5
2C7
100
AcDbEntity
8
0
100
AcDbLine
62
2
6
CONTINUOUS
10
364.8981257557
20
237.5906479448
11
384.3731153813
21
237.5906479448
0
LINE
5
2C8
100
AcDbEntity
8
0
100
AcDbLine
62
2
6
CONTINUOUS
10
382.8731153813
20
203.2406479448
11
382.8731153813
21
220.4156479448
0
LINE
5
2C9
100
AcDbEntity
8
0
100
AcDbLine
62
2
6
CONTINUOUS
10
382.8731153813
20
237.5906479448
11
382.8731153813
21
220.4156479448
0
SOLID
5
2CA
100
AcDbEntity
8
0
100
AcDbTrace
62
2
6
CONTINUOUS
10
382.1231153813
20
206.7406479448
11
382.8731153813
21
203.2406479448
12
383.6231153813
22
206.7406479448
13
383.6231153813
23
206.7406479448
0
SOLID
5
2CB
100
AcDbEntity
8
0
100
AcDbTrace
62
2
6
CONTINUOUS
10
383.6231153813
20
234.0906479448
11
382.8731153813
21
237.5906479448
12
382.1231153813
22
234.0906479448
13
382.1231153813
23
234.0906479448
0
ENDBLK
5
2CC
100
AcDbEntity
8
0
100
AcDbBlockEnd
0
BLOCK
5
2CD
100
AcDbEntity
8
0
100
AcDbBlockBegin
62
2
6
CONTINUOUS
2
*D17
70
65
10
0.0000000000
20
0.0000000000
3
*D17
1

0
TEXT
5
2CE
100
AcDbEntity
8
0
100
AcDbText
62
2
6
CONTINUOUS
10
401.0949395766
20
213.0595442402
7
STANDARD
40
3.5000000000
1
40.35
50
90.0000000000
41
0.8500000000
72
5
11
401.0949395766
21
227.9345442402
100
AcDbText
0
LINE
5
2CF
100
AcDbEntity
8
0
100
AcDbLine
62
2
6
CONTINUOUS
10
374.6481257557
20
203.2406479448
11
403.4699395766
21
203.2406479448
0
LINE
5
2D0
100
AcDbEntity
8
0
100
AcDbLine
62
2
6
CONTINUOUS
10
354.9981257557
20
243.5906479448
11
403.4699395766
21
243.5906479448
0
LINE
5
2D1
100
AcDbEntity
8
0
100
AcDbLine
62
2
6
CONTINUOUS
10
401.9699395766
20
203.2406479448
11
401.9699395766
21
223.4156479448
0
LINE
5
2D2
100
AcDbEntity
8
0
100
AcDbLine
62
2
6
CONTINUOUS
10
401.9699395766
20
243.5906479448
11
401.9699395766
21
223.4156479448
0
SOLID
5
2D3
100
AcDbEntity
8
0
100
AcDbTrace
62
2
6
CONTINUOUS
10
401.2199395766
20
206.7406479448
11
401.9699395766
21
203.2406479448
12
402.7199395766
22
206.7406479448
13
402.7199395766
23
206.7406479448
0
SOLID
5
2D4
100
AcDbEntity
8
0
100
AcDbTrace
62
2
6
CONTINUOUS
10
402.7199395766
20
240.0906479448
11
401.9699395766
21
243.5906479448
12
401.2199395766
22
240.0906479448
13
401.2199395766
23
240.0906479448
0
ENDBLK
5
2D5
100
AcDbEntity
8
0
100
AcDbBlockEnd
0
BLOCK
5
2D6
100
AcDbEntity
8
0
100
AcDbBlockBegin
62
2
6
CONTINUOUS
2
*D18
70
65
10
0.0000000000
20
0.0000000000
3
*D18
1

0
TEXT
5
2D7
100
AcDbEntity
8
0
100
AcDbText
62
2
6
CONTINUOUS
10
392.3674163004
20
213.1276342290
7
STANDARD
40
3.5000000000
1
35.45
50
90.0000000000
41
0.8500000000
72
5
11
392.3674163004
21
228.0026342290
100
AcDbText
0
LINE
5
2D8
100
AcDbEntity
8
0
100
AcDbLine
62
2
6
CONTINUOUS
10
374.6481257557
20
203.2406479448
11
394.7424163004
21
203.2406479448
0
LINE
5
2D9
100
AcDbEntity
8
0
100
AcDbLine
62
2
6
CONTINUOUS
10
346.4481257557
20
238.6906479448
11
394.7424163004
21
238.6906479448
0
LINE
5
2DA
100
AcDbEntity
8
0
100
AcDbLine
62
2
6
CONTINUOUS
10
393.2424163004
20
203.2406479448
11
393.2424163004
21
220.9656479448
0
LINE
5
2DB
100
AcDbEntity
8
0
100
AcDbLine
62
2
6
CONTINUOUS
10
393.2424163004
20
238.6906479448
11
393.2424163004
21
220.9656479448
0
SOLID
5
2DC
100
AcDbEntity
8
0
100
AcDbTrace
62
2
6
CONTINUOUS
10
392.4924163004
20
206.7406479448
11
393.2424163004
21
203.2406479448
12
393.9924163004
22
206.7406479448
13
393.9924163004
23
206.7406479448
0
SOLID
5
2DD
100
AcDbEntity
8
0
100
AcDbTrace
62
2
6
CONTINUOUS
10
393.9924163004
20
235.1906479448
11
393.2424163004
21
238.6906479448
12
392.4924163004
22
235.1906479448
13
392.4924163004
23
235.1906479448
0
ENDBLK
5
2DE
100
AcDbEntity
8
0
100
AcDbBlockEnd
0
BLOCK
5
2DF
100
AcDbEntity
8
0
100
AcDbBlockBegin
62
2
6
CONTINUOUS
2
*D19
70
65
10
0.0000000000
20
0.0000000000
3
*D19
1

0
TEXT
5
2E0
100
AcDbEntity
8
0
100
AcDbText
62
2
6
CONTINUOUS
10
281.7187210720
20
224.7427276420
7
STANDARD
40
3.5000000000
1
16.1
50
90.0000000000
41
0.8500000000
72
5
11
281.7187210720
21
236.6427276420
100
AcDbText
0
LINE
5
2E1
100
AcDbEntity
8
0
100
AcDbLine
62
2
6
CONTINUOUS
10
257.7437210720
20
238.9906479448
11
284.0937210720
21
238.9906479448
0
LINE
5
2E2
100
AcDbEntity
8
0
100
AcDbLine
62
2
6
CONTINUOUS
10
257.8437210720
20
222.8906479448
11
284.0937210720
21
222.8906479448
0
LINE
5
2E3
100
AcDbEntity
8
0
100
AcDbLine
62
2
6
CONTINUOUS
10
282.5937210720
20
238.9906479448
11
282.5937210720
21
230.9406479448
0
LINE
5
2E4
100
AcDbEntity
8
0
100
AcDbLine
62
2
6
CONTINUOUS
10
282.5937210720
20
222.8906479448
11
282.5937210720
21
230.9406479448
0
SOLID
5
2E5
100
AcDbEntity
8
0
100
AcDbTrace
62
2
6
CONTINUOUS
10
283.3437210720
20
235.4906479448
11
282.5937210720
21
238.9906479448
12
281.8437210720
22
235.4906479448
13
281.8437210720
23
235.4906479448
0
SOLID
5
2E6
100
AcDbEntity
8
0
100
AcDbTrace
62
2
6
CONTINUOUS
10
281.8437210720
20
226.3906479448
11
282.5937210720
21
222.8906479448
12
283.3437210720
22
226.3906479448
13
283.3437210720
23
226.3906479448
0
ENDBLK
5
2E7
100
AcDbEntity
8
0
100
AcDbBlockEnd
0
BLOCK
5
2E8
100
AcDbEntity
8
0
100
AcDbBlockBegin
62
2
6
CONTINUOUS
2
*D20
70
65
10
0.0000000000
20
0.0000000000
3
*D20
1

0
TEXT
5
2E9
100
AcDbEntity
8
0
100
AcDbText
62
2
6
CONTINUOUS
10
264.1849238504
20
180.1503586551
7
STANDARD
40
3.5000000000
1
(8X)
41
0.8500000000
72
5
11
276.0849238504
21
180.1503586551
100
AcDbText
0
TEXT
5
2EA
100
AcDbEntity
8
0
100
AcDbText
62
2
6
CONTINUOUS
10
249.3099238504
20
180.1503586551
7
STANDARD
40
3.5000000000
1
13.15
41
0.8500000000
72
5
11
264.1849238504
21
180.1503586551
100
AcDbText
0
LINE
5
2EB
100
AcDbEntity
8
0
100
AcDbLine
62
2
6
CONTINUOUS
10
233.1437210720
20
202.1906479448
11
233.1437210720
21
177.7753586551
0
LINE
5
2EC
100
AcDbEntity
8
0
100
AcDbLine
62
2
6
CONTINUOUS
10
246.2937210720
20
202.1906479448
11
246.2937210720
21
177.7753586551
0
LINE
5
2ED
100
AcDbEntity
8
0
100
AcDbLine
62
2
6
CONTINUOUS
10
233.1437210720
20
179.2753586551
11
239.7187210720
21
179.2753586551
0
LINE
5
2EE
100
AcDbEntity
8
0
100
AcDbLine
62
2
6
CONTINUOUS
10
246.2937210720
20
179.2753586551
11
239.7187210720
21
179.2753586551
0
LINE
5
2EF
100
AcDbEntity
8
0
100
AcDbLine
62
2
6
CONTINUOUS
10
239.7187210720
20
179.2753586551
11
276.0849238504
21
179.2753586551
0
SOLID
5
2F0
100
AcDbEntity
8
0
100
AcDbTrace
62
2
6
CONTINUOUS
10
236.6437210720
20
180.0253586551
11
233.1437210720
21
179.2753586551
12
236.6437210720
22
178.5253586551
13
236.6437210720
23
178.5253586551
0
SOLID
5
2F1
100
AcDbEntity
8
0
100
AcDbTrace
62
2
6
CONTINUOUS
10
242.7937210720
20
178.5253586551
11
246.2937210720
21
179.2753586551
12
242.7937210720
22
180.0253586551
13
242.7937210720
23
180.0253586551
0
ENDBLK
5
2F2
100
AcDbEntity
8
0
100
AcDbBlockEnd
0
BLOCK
5
2F3
100
AcDbEntity
8
0
100
AcDbBlockBegin
62
2
6
CONTINUOUS
2
*D21
70
65
10
0.0000000000
20
0.0000000000
3
*D21
1

0
TEXT
5
2F4
100
AcDbEntity
8
0
100
AcDbText
62
2
6
CONTINUOUS
10
177.8040174896
20
180.1503586551
7
STANDARD
40
3.5000000000
1
(3X)
41
0.8500000000
72
5
11
189.7040174896
21
180.1503586551
100
AcDbText
0
TEXT
5
2F5
100
AcDbEntity
8
0
100
AcDbText
62
2
6
CONTINUOUS
10
165.9040174896
20
180.1503586551
7
STANDARD
40
3.5000000000
1
21.4
41
0.8500000000
72
5
11
177.8040174896
21
180.1503586551
100
AcDbText
0
LINE
5
2F6
100
AcDbEntity
8
0
100
AcDbLine
62
2
6
CONTINUOUS
10
195.3937210720
20
202.1906479448
11
195.3937210720
21
177.7753586551
0
LINE
5
2F7
100
AcDbEntity
8
0
100
AcDbLine
62
2
6
CONTINUOUS
10
216.7937210720
20
202.1906479448
11
216.7937210720
21
177.7753586551
0
LINE
5
2F8
100
AcDbEntity
8
0
100
AcDbLine
62
2
6
CONTINUOUS
10
195.3937210720
20
179.2753586551
11
206.0937210720
21
179.2753586551
0
LINE
5
2F9
100
AcDbEntity
8
0
100
AcDbLine
62
2
6
CONTINUOUS
10
206.0937210720
20
179.2753586551
11
165.9040174896
21
179.2753586551
0
LINE
5
2FA
100
AcDbEntity
8
0
100
AcDbLine
62
2
6
CONTINUOUS
10
216.7937210720
20
179.2753586551
11
206.0937210720
21
179.2753586551
0
SOLID
5
2FB
100
AcDbEntity
8
0
100
AcDbTrace
62
2
6
CONTINUOUS
10
198.8937210720
20
180.0253586551
11
195.3937210720
21
179.2753586551
12
198.8937210720
22
178.5253586551
13
198.8937210720
23
178.5253586551
0
SOLID
5
2FC
100
AcDbEntity
8
0
100
AcDbTrace
62
2
6
CONTINUOUS
10
213.2937210720
20
178.5253586551
11
216.7937210720
21
179.2753586551
12
213.2937210720
22
180.0253586551
13
213.2937210720
23
180.0253586551
0
ENDBLK
5
2FD
100
AcDbEntity
8
0
100
AcDbBlockEnd
0
BLOCK
5
2FE
100
AcDbEntity
8
0
100
AcDbBlockBegin
62
2
6
CONTINUOUS
2
*D22
70
65
10
0.0000000000
20
0.0000000000
3
*D22
1

0
TEXT
5
2FF
100
AcDbEntity
8
0
100
AcDbText
62
2
6
CONTINUOUS
10
326.5437736930
20
175.5680074366
7
STANDARD
40
3.5000000000
1
22.4
41
0.8500000000
72
5
11
338.4437736930
21
175.5680074366
100
AcDbText
0
LINE
5
300
100
AcDbEntity
8
0
100
AcDbLine
62
2
6
CONTINUOUS
10
321.4481257557
20
202.1906479448
11
321.4481257557
21
173.1930074366
0
LINE
5
301
100
AcDbEntity
8
0
100
AcDbLine
62
2
6
CONTINUOUS
10
343.8481257557
20
202.1906479448
11
343.8481257557
21
173.1930074366
0
LINE
5
302
100
AcDbEntity
8
0
100
AcDbLine
62
2
6
CONTINUOUS
10
321.4481257557
20
174.6930074366
11
332.6481257557
21
174.6930074366
0
LINE
5
303
100
AcDbEntity
8
0
100
AcDbLine
62
2
6
CONTINUOUS
10
343.8481257557
20
174.6930074366
11
332.6481257557
21
174.6930074366
0
SOLID
5
304
100
AcDbEntity
8
0
100
AcDbTrace
62
2
6
CONTINUOUS
10
324.9481257557
20
175.4430074366
11
321.4481257557
21
174.6930074366
12
324.9481257557
22
173.9430074366
13
324.9481257557
23
173.9430074366
0
SOLID
5
305
100
AcDbEntity
8
0
100
AcDbTrace
62
2
6
CONTINUOUS
10
340.3481257557
20
173.9430074366
11
343.8481257557
21
174.6930074366
12
340.3481257557
22
175.4430074366
13
340.3481257557
23
175.4430074366
0
ENDBLK
5
306
100
AcDbEntity
8
0
100
AcDbBlockEnd
0
ENDSEC
0
SECTION
2
ENTITIES
0
DIMENSION
5
307
100
AcDbEntity
8
0
100
AcDbDimension
62
2
6
CONTINUOUS
2
*D0
10
282.5937210720
20
221.2906479448
11
279.9687211054
21
212.9368581196
70
160
3
DIMSTYLE_1
100
AcDbAlignedDimension
13
252.2937210720
23
203.2406479448
14
257.8437210720
24
221.2906479448
50
90.000000
100
AcDbRotatedDimension
0
DIMENSION
5
308
100
AcDbEntity
8
0
100
AcDbDimension
62
2
6
CONTINUOUS
2
*D1
10
165.0937210720
20
267.5906479448
11
172.8669263318
21
270.2156479448
70
160
3
DIMSTYLE_1
100
AcDbAlignedDimension
13
153.5937210720
23
244.6906479448
14
165.0937210720
24
249.5906479448
100
AcDbRotatedDimension
0
DIMENSION
5
309
100
AcDbEntity
8
0
100
AcDbDimension
62
2
6
CONTINUOUS
2
*D2
10
179.8437210720
20
257.5906479448
11
172.3475568870
21
260.2156479448
70
160
3
DIMSTYLE_1
100
AcDbAlignedDimension
13
165.0937210720
23
249.5906479448
14
179.8437210720
24
249.5906479448
100
AcDbRotatedDimension
0
DIMENSION
5
30A
100
AcDbEntity
8
0
100
AcDbDimension
62
2
6
CONTINUOUS
2
*D3
10
217.5937210720
20
257.5906479448
11
205.5628088873
21
260.2156479448
70
160
3
DIMSTYLE_1
100
AcDbAlignedDimension
13
194.5937210720
23
249.5906479448
14
217.5937210720
24
249.5906479448
100
AcDbRotatedDimension
0
DIMENSION
5
30B
100
AcDbEntity
8
0
100
AcDbDimension
62
2
6
CONTINUOUS
2
*D4
10
112.5937210720
20
257.5906479448
11
101.1178910003
21
260.2156479448
70
160
3
DIMSTYLE_1
100
AcDbAlignedDimension
13
89.5937210720
23
243.5906479448
14
112.5937210720
24
243.5906479448
100
AcDbRotatedDimension
0
DIMENSION
5
30C
100
AcDbEntity
8
0
100
AcDbDimension
62
2
6
CONTINUOUS
2
*D5
10
142.0937210720
20
267.5906479448
11
134.8241234266
21
270.2156479448
70
160
3
DIMSTYLE_1
100
AcDbAlignedDimension
13
153.5937210720
23
244.6906479448
14
142.0937210720
24
243.5906479448
50
180.000000
100
AcDbRotatedDimension
0
DIMENSION
5
30D
100
AcDbEntity
8
0
100
AcDbDimension
62
2
6
CONTINUOUS
2
*D6
10
194.5937210720
20
257.5906479448
11
187.1239237465
21
260.2156479448
70
160
3
DIMSTYLE_1
100
AcDbAlignedDimension
13
179.8437210720
23
249.5906479448
14
194.5937210720
24
249.5906479448
100
AcDbRotatedDimension
0
DIMENSION
5
30E
100
AcDbEntity
8
0
100
AcDbDimension
62
2
6
CONTINUOUS
2
*D7
10
232.3437210720
20
257.5906479448
11
224.8857501651
21
260.2156479448
70
160
3
DIMSTYLE_1
100
AcDbAlignedDimension
13
217.5937210720
23
249.5906479448
14
232.3437210720
24
249.5906479448
100
AcDbRotatedDimension
0
DIMENSION
5
30F
100
AcDbEntity
8
0
100
AcDbDimension
62
2
6
CONTINUOUS
2
*D8
10
247.0937210720
20
257.5906479448
11
239.7884107584
21
260.2156479448
70
160
3
DIMSTYLE_1
100
AcDbAlignedDimension
13
232.3437210720
23
249.5906479448
14
247.0937210720
24
249.5906479448
100
AcDbRotatedDimension
0
DIMENSION
5
310
100
AcDbEntity
8
0
100
AcDbDimension
62
2
6
CONTINUOUS
2
*D9
10
127.3437210720
20
257.5906479448
11
134.5857304683
21
260.2156479448
70
160
3
DIMSTYLE_1
100
AcDbAlignedDimension
13
142.0937210720
23
243.5906479448
14
127.3437210720
24
243.5906479448
50
180.000000
100
AcDbRotatedDimension
0
DIMENSION
5
311
100
AcDbEntity
8
0
100
AcDbDimension
62
2
6
CONTINUOUS
2
*D10
10
112.5937210720
20
257.5906479448
11
119.8093636089
21
260.2156479448
70
160
3
DIMSTYLE_1
100
AcDbAlignedDimension
13
127.3437210720
23
243.5906479448
14
112.5937210720
24
243.5906479448
50
180.000000
100
AcDbRotatedDimension
0
DIMENSION
5
312
100
AcDbEntity
8
0
100
AcDbDimension
62
2
6
CONTINUOUS
2
*D11
10
74.8437210720
20
257.5906479448
11
82.4264183917
21
260.2156479448
70
160
3
DIMSTYLE_1
100
AcDbAlignedDimension
13
89.5937210720
23
243.5906479448
14
74.8437210720
24
243.5906479448
50
180.000000
100
AcDbRotatedDimension
0
DIMENSION
5
313
100
AcDbEntity
8
0
100
AcDbDimension
62
2
6
CONTINUOUS
2
*D12
10
60.0937210720
20
257.5906479448
11
67.4361467605
21
260.2156479448
70
160
3
DIMSTYLE_1
100
AcDbAlignedDimension
13
74.8437210720
23
243.5906479448
14
60.0937210720
24
243.5906479448
50
180.000000
100
AcDbRotatedDimension
0
DIMENSION
5
314
100
AcDbEntity
8
0
100
AcDbDimension
62
2
6
CONTINUOUS
2
*D13
10
272.5937210720
20
221.2906479448
11
269.9687210720
21
232.4969664475
70
160
3
DIMSTYLE_1
100
AcDbAlignedDimension
13
257.8437210720
23
222.8906479448
14
257.8437210720
24
221.2906479448
50
270.000000
100
AcDbRotatedDimension
0
DIMENSION
5
315
100
AcDbEntity
8
0
100
AcDbDimension
62
2
6
CONTINUOUS
2
*D14
10
332.6481257557
20
257.5906479448
11
326.2370555716
21
260.2156479448
70
160
3
DIMSTYLE_1
100
AcDbAlignedDimension
13
320.6481257557
23
244.6906479448
14
332.6481257557
24
249.5906479448
100
AcDbRotatedDimension
0
DIMENSION
5
316
100
AcDbEntity
8
0
100
AcDbDimension
62
2
6
CONTINUOUS
2
*D15
10
344.6481257557
20
257.5906479448
11
339.1198735191
21
260.2156479448
70
160
3
DIMSTYLE_1
100
AcDbAlignedDimension
13
332.6481257557
23
249.5906479448
14
344.6481257557
24
244.6906479448
100
AcDbRotatedDimension
0
DIMENSION
5
317
100
AcDbEntity
8
0
100
AcDbDimension
62
2
6
CONTINUOUS
2
*D16
10
382.8731153813
20
237.5906479448
11
380.2481153813
21
220.4754833848
70
160
3
DIMSTYLE_1
100
AcDbAlignedDimension
13
374.6481257557
23
203.2406479448
14
364.8981257557
24
237.5906479448
50
90.000000
100
AcDbRotatedDimension
0
DIMENSION
5
318
100
AcDbEntity
8
0
100
AcDbDimension
62
2
6
CONTINUOUS
2
*D17
10
401.9699395766
20
243.5906479448
11
399.3449395766
21
220.4970442402
70
160
3
DIMSTYLE_1
100
AcDbAlignedDimension
13
374.6481257557
23
203.2406479448
14
354.9981257557
24
243.5906479448
50
90.000000
100
AcDbRotatedDimension
0
DIMENSION
5
319
100
AcDbEntity
8
0
100
AcDbDimension
62
2
6
CONTINUOUS
2
*D18
10
393.2424163004
20
238.6906479448
11
390.6174163004
21
220.5651342290
70
160
3
DIMSTYLE_1
100
AcDbAlignedDimension
13
374.6481257557
23
203.2406479448
14
346.4481257557
24
238.6906479448
50
90.000000
100
AcDbRotatedDimension
0
DIMENSION
5
31A
100
AcDbEntity
8
0
100
AcDbDimension
62
2
6
CONTINUOUS
2
*D19
10
282.5937210720
20
222.8906479448
11
279.9687210720
21
230.6927276420
70
160
3
DIMSTYLE_1
100
AcDbAlignedDimension
13
257.7437210720
23
238.9906479448
14
257.8437210720
24
222.8906479448
50
270.000000
100
AcDbRotatedDimension
0
DIMENSION
5
31B
100
AcDbEntity
8
0
100
AcDbDimension
62
2
6
CONTINUOUS
2
*D20
10
246.2937210720
20
179.2753586551
11
262.6974238504
21
181.9003586551
70
160
1
<>(8X)
3
DIMSTYLE_1
100
AcDbAlignedDimension
13
233.1437210720
23
202.1906479448
14
246.2937210720
24
202.1906479448
100
AcDbRotatedDimension
0
DIMENSION
5
31C
100
AcDbEntity
8
0
100
AcDbDimension
62
2
6
CONTINUOUS
2
*D21
10
216.7937210720
20
179.2753586551
11
177.8040174896
21
181.9003586551
70
160
1
<>(3X)
3
DIMSTYLE_1
100
AcDbAlignedDimension
13
195.3937210720
23
202.1906479448
14
216.7937210720
24
202.1906479448
100
AcDbRotatedDimension
0
DIMENSION
5
31D
100
AcDbEntity
8
0
100
AcDbDimension
62
2
6
CONTINUOUS
2
*D22
10
343.8481257557
20
174.6930074366
11
332.4937736930
21
177.3180074366
70
160
3
DIMSTYLE_1
100
AcDbAlignedDimension
13
321.4481257557
23
202.1906479448
14
343.8481257557
24
202.1906479448
100
AcDbRotatedDimension
0
LINE
5
31E
100
AcDbEntity
8
0
100
AcDbLine
62
7
6
CONTINUOUS
10
272.5000000000
20
78.5000000000
11
412.5000000000
21
78.5000000000
0
LINE
5
31F
100
AcDbEntity
8
0
100
AcDbLine
62
7
6
CONTINUOUS
10
272.5000000000
20
78.5000000000
11
272.5000000000
21
24.5000000000
0
LINE
5
320
100
AcDbEntity
8
0
100
AcDbLine
62
7
6
CONTINUOUS
10
272.5000000000
20
64.5000000000
11
412.5000000000
21
64.5000000000
0
LINE
5
321
100
AcDbEntity
8
0
100
AcDbLine
62
7
6
CONTINUOUS
10
272.5000000000
20
54.5000000000
11
412.5000000000
21
54.5000000000
0
LINE
5
322
100
AcDbEntity
8
0
100
AcDbLine
62
7
6
CONTINUOUS
10
272.5000000000
20
44.5000000000
11
412.5000000000
21
44.5000000000
0
LINE
5
323
100
AcDbEntity
8
0
100
AcDbLine
62
7
6
CONTINUOUS
10
272.5000000000
20
34.5000000000
11
412.5000000000
21
34.5000000000
0
LINE
5
324
100
AcDbEntity
8
0
100
AcDbLine
62
7
6
CONTINUOUS
10
272.5000000000
20
24.5000000000
11
412.5000000000
21
24.5000000000
0
LINE
5
325
100
AcDbEntity
8
0
100
AcDbLine
62
7
6
CONTINUOUS
10
293.5000000000
20
78.5000000000
11
293.5000000000
21
54.5000000000
0
LINE
5
326
100
AcDbEntity
8
0
100
AcDbLine
62
7
6
CONTINUOUS
10
314.5000000000
20
54.5000000000
11
314.5000000000
21
34.5000000000
0
LINE
5
327
100
AcDbEntity
8
0
100
AcDbLine
62
7
6
CONTINUOUS
10
377.5000000000
20
64.5000000000
11
377.5000000000
21
24.5000000000
0
LINE
5
328
100
AcDbEntity
8
0
100
AcDbLine
62
7
6
CONTINUOUS
10
412.5000000000
20
78.5000000000
11
412.5000000000
21
24.5000000000
0
TEXT
5
329
100
AcDbEntity
8
0
100
AcDbText
62
7
6
CONTINUOUS
10
272.5625000000
20
78.2656250000
7
STANDARD
40
0.1562500000
1
 
41
0.8000000000
72
5
11
272.6875000000
21
78.2656250000
100
AcDbText
0
TEXT
5
32A
100
AcDbEntity
8
0
100
AcDbText
62
7
6
CONTINUOUS
10
272.5625000000
20
75.7265625000
7
STANDARD
40
2.0000000000
1
 Dato:
41
0.8000000000
72
5
11
282.1625000000
21
75.7265625000
100
AcDbText
0
TEXT
5
32B
100
AcDbEntity
8
0
100
AcDbText
62
7
6
CONTINUOUS
10
272.5625000000
20
73.3515625000
7
STANDARD
40
1.5000000000
1
 
41
0.8000000000
72
5
11
273.7625000000
21
73.3515625000
100
AcDbText
0
TEXT
5
32C
100
AcDbEntity
8
0
100
AcDbText
62
7
6
CONTINUOUS
10
272.5625000000
20
69.7265625000
7
STANDARD
40
0.2000000000
1
 
41
0.8000000000
72
5
11
272.7225000000
21
69.7265625000
100
AcDbText
0
TEXT
5
32D
100
AcDbEntity
8
0
100
AcDbText
62
7
6
CONTINUOUS
10
272.7225000000
20
69.7265625000
7
STANDARD
40
2.6000000000
1
31-Jan-06
41
0.8000000000
72
5
11
291.4425000000
21
69.7265625000
100
AcDbText
0
TEXT
5
32E
100
AcDbEntity
8
0
100
AcDbText
62
7
6
CONTINUOUS
10
293.5625000000
20
69.0000000000
7
TEXTSTYLE_1
40
5.0000000000
1
   CAD 
41
0.7966386555
72
5
11
321.4448529412
21
69.0000000000
100
AcDbText
0
TEXT
5
32F
100
AcDbEntity
8
0
100
AcDbText
62
7
6
CONTINUOUS
10
321.4448529412
20
69.0000000000
7
TEXTSTYLE_1
40
5.0000000000
1
& CAM ToolDesign
41
1.0639705882
72
5
11
406.5625000000
21
69.0000000000
100
AcDbText
0
TEXT
5
330
100
AcDbEntity
8
0
100
AcDbText
62
7
6
CONTINUOUS
10
272.5625000000
20
64.2656250000
7
STANDARD
40
0.1562500000
1
 
41
0.8000000000
72
5
11
272.6875000000
21
64.2656250000
100
AcDbText
0
TEXT
5
331
100
AcDbEntity
8
0
100
AcDbText
62
7
6
CONTINUOUS
10
272.5625000000
20
61.7265625000
7
STANDARD
40
2.0000000000
1
 Skala:
41
0.8000000000
72
5
11
283.7625000000
21
61.7265625000
100
AcDbText
0
TEXT
5
332
100
AcDbEntity
8
0
100
AcDbText
62
7
6
CONTINUOUS
10
272.5625000000
20
61.0312500000
7
STANDARD
40
0.1562500000
1
 
41
0.8000000000
72
5
11
272.6875000000
21
61.0312500000
100
AcDbText
0
TEXT
5
333
100
AcDbEntity
8
0
100
AcDbText
62
7
6
CONTINUOUS
10
272.5625000000
20
57.2421875000
7
STANDARD
40
0.1562500000
1
 
41
0.8000000000
72
5
11
272.6875000000
21
57.2421875000
100
AcDbText
0
TEXT
5
334
100
AcDbEntity
8
0
100
AcDbText
62
7
6
CONTINUOUS
10
272.6875000000
20
57.2421875000
7
STANDARD
40
3.0000000000
1
 
41
0.8000000000
72
5
11
275.0875000000
21
57.2421875000
100
AcDbText
0
TEXT
5
335
100
AcDbEntity
8
0
100
AcDbText
62
7
6
CONTINUOUS
10
275.0875000000
20
57.2421875000
7
STANDARD
40
2.6000000000
1
1.000
41
0.8000000000
72
5
11
285.4875000000
21
57.2421875000
100
AcDbText
0
TEXT
5
336
100
AcDbEntity
8
0
100
AcDbText
62
7
6
CONTINUOUS
10
293.5625000000
20
64.2656250000
7
STANDARD
40
0.1562500000
1
 
41
0.8000000000
72
5
11
293.6875000000
21
64.2656250000
100
AcDbText
0
TEXT
5
337
100
AcDbEntity
8
0
100
AcDbText
62
7
6
CONTINUOUS
10
293.5625000000
20
61.7265625000
7
STANDARD
40
2.0000000000
1
 Kunde:
41
0.8000000000
72
5
11
304.7625000000
21
61.7265625000
100
AcDbText
0
TEXT
5
338
100
AcDbEntity
8
0
100
AcDbText
62
7
6
CONTINUOUS
10
293.5625000000
20
61.0312500000
7
STANDARD
40
0.1562500000
1
 
41
0.8000000000
72
5
11
293.6875000000
21
61.0312500000
100
AcDbText
0
TEXT
5
339
100
AcDbEntity
8
0
100
AcDbText
62
7
6
CONTINUOUS
10
293.5625000000
20
60.7968750000
7
STANDARD
40
0.1562500000
1
 
41
0.8000000000
72
5
11
293.6875000000
21
60.7968750000
100
AcDbText
0
TEXT
5
33A
100
AcDbEntity
8
0
100
AcDbText
62
7
6
CONTINUOUS
10
332.9140625000
20
57.5000000000
7
TEXTSTYLE_2
40
4.0000000000
1
Bernic A/S
41
0.6542968750
72
5
11
359.0859375000
21
57.5000000000
100
AcDbText
0
TEXT
5
33B
100
AcDbEntity
8
0
100
AcDbText
62
7
6
CONTINUOUS
10
377.5625000000
20
58.2000000000
7
STANDARD
40
2.6000000000
1
Sheet 
41
0.8000000000
72
5
11
390.0425000000
21
58.2000000000
100
AcDbText
0
TEXT
5
33C
100
AcDbEntity
8
0
100
AcDbText
62
7
6
CONTINUOUS
10
390.0425000000
20
58.2000000000
7
STANDARD
40
2.6000000000
1
1
41
0.8000000000
72
5
11
392.1225000000
21
58.2000000000
100
AcDbText
0
TEXT
5
33D
100
AcDbEntity
8
0
100
AcDbText
62
7
6
CONTINUOUS
10
392.1225000000
20
58.2000000000
7
STANDARD
40
2.6000000000
1
 of 
41
0.8000000000
72
5
11
400.4425000000
21
58.2000000000
100
AcDbText
0
TEXT
5
33E
100
AcDbEntity
8
0
100
AcDbText
62
7
6
CONTINUOUS
10
400.4425000000
20
58.2000000000
7
STANDARD
40
2.6000000000
1
2
41
0.8000000000
72
5
11
402.5225000000
21
58.2000000000
100
AcDbText
0
TEXT
5
33F
100
AcDbEntity
8
0
100
AcDbText
6
CONTINUOUS
10
272.5625000000
20
51.8750000000
7
STANDARD
40
2.0000000000
1
 Tol.:
41
0.8000000000
72
5
11
282.1625000000
21
51.8750000000
100
AcDbText
0
TEXT
5
340
100
AcDbEntity
8
0
100
AcDbText
6
CONTINUOUS
10
272.5625000000
20
48.8750000000
7
STANDARD
40
2.0000000000
1
 
41
0.8000000000
72
5
11
274.1625000000
21
48.8750000000
100
AcDbText
0
TEXT
5
341
100
AcDbEntity
8
0
100
AcDbText
6
CONTINUOUS
10
272.5625000000
20
45.1250000000
7
STANDARD
40
2.6000000000
1
 
41
0.8000000000
72
5
11
274.6425000000
21
45.1250000000
100
AcDbText
0
TEXT
5
342
100
AcDbEntity
8
0
100
AcDbText
6
CONTINUOUS
10
274.6425000000
20
45.1250000000
7
STANDARD
40
2.6000000000
1
 
41
0.8000000000
72
5
11
276.7225000000
21
45.1250000000
100
AcDbText
0
TEXT
5
343
100
AcDbEntity
8
0
100
AcDbText
6
CONTINUOUS
10
314.5625000000
20
51.8750000000
7
STANDARD
40
2.0000000000
1
 Materiale:
41
0.8000000000
72
5
11
332.1625000000
21
51.8750000000
100
AcDbText
0
TEXT
5
344
100
AcDbEntity
8
0
100
AcDbText
6
CONTINUOUS
10
314.5625000000
20
48.8750000000
7
STANDARD
40
2.0000000000
1
 
41
0.8000000000
72
5
11
316.1625000000
21
48.8750000000
100
AcDbText
0
TEXT
5
345
100
AcDbEntity
8
0
100
AcDbText
6
CONTINUOUS
10
314.5625000000
20
45.1250000000
7
STANDARD
40
2.6000000000
1
 
41
0.8000000000
72
5
11
316.6425000000
21
45.1250000000
100
AcDbText
0
TEXT
5
346
100
AcDbEntity
8
0
100
AcDbText
6
CONTINUOUS
10
316.6425000000
20
45.1250000000
7
STANDARD
40
2.6000000000
1
 
41
0.8000000000
72
5
11
318.7225000000
21
45.1250000000
100
AcDbText
0
TEXT
5
347
100
AcDbEntity
8
0
100
AcDbText
6
CONTINUOUS
10
377.5625000000
20
51.8750000000
7
STANDARD
40
2.0000000000
1
 Farve:
41
0.8000000000
72
5
11
388.7625000000
21
51.8750000000
100
AcDbText
0
TEXT
5
348
100
AcDbEntity
8
0
100
AcDbText
6
CONTINUOUS
10
377.5625000000
20
48.8750000000
7
STANDARD
40
2.0000000000
1
 
41
0.8000000000
72
5
11
379.1625000000
21
48.8750000000
100
AcDbText
0
TEXT
5
349
100
AcDbEntity
8
0
100
AcDbText
6
CONTINUOUS
10
377.5625000000
20
45.1250000000
7
STANDARD
40
2.6000000000
1
 
41
0.8000000000
72
5
11
379.6425000000
21
45.1250000000
100
AcDbText
0
TEXT
5
34A
100
AcDbEntity
8
0
100
AcDbText
6
CONTINUOUS
10
379.6425000000
20
45.1250000000
7
STANDARD
40
2.6000000000
1
 
41
0.8000000000
72
5
11
381.7225000000
21
45.1250000000
100
AcDbText
0
TEXT
5
34B
100
AcDbEntity
8
0
100
AcDbText
62
7
6
CONTINUOUS
10
272.5625000000
20
44.2656250000
7
STANDARD
40
0.1562500000
1
 
41
0.8000000000
72
5
11
272.6875000000
21
44.2656250000
100
AcDbText
0
TEXT
5
34C
100
AcDbEntity
8
0
100
AcDbText
62
7
6
CONTINUOUS
10
272.5625000000
20
41.7265625000
7
STANDARD
40
2.0000000000
1
 Emne nr.:
41
0.8000000000
72
5
11
288.5625000000
21
41.7265625000
100
AcDbText
0
TEXT
5
34D
100
AcDbEntity
8
0
100
AcDbText
62
7
6
CONTINUOUS
10
272.5625000000
20
41.0312500000
7
STANDARD
40
0.1562500000
1
 
41
0.8000000000
72
5
11
272.6875000000
21
41.0312500000
100
AcDbText
0
TEXT
5
34E
100
AcDbEntity
8
0
100
AcDbText
62
7
6
CONTINUOUS
10
272.5625000000
20
37.2421875000
7
STANDARD
40
3.0000000000
1
 
41
0.8000000000
72
5
11
274.9625000000
21
37.2421875000
100
AcDbText
0
TEXT
5
34F
100
AcDbEntity
8
0
100
AcDbText
62
7
6
CONTINUOUS
10
274.9625000000
20
37.2421875000
7
STANDARD
40
2.6000000000
1
 
41
0.8000000000
72
5
11
277.0425000000
21
37.2421875000
100
AcDbText
0
TEXT
5
350
100
AcDbEntity
8
0
100
AcDbText
62
7
6
CONTINUOUS
10
314.5625000000
20
44.2656250000
7
STANDARD
40
0.1562500000
1
 
41
0.8000000000
72
5
11
314.6875000000
21
44.2656250000
100
AcDbText
0
TEXT
5
351
100
AcDbEntity
8
0
100
AcDbText
62
7
6
CONTINUOUS
10
314.5625000000
20
41.7265625000
7
STANDARD
40
2.0000000000
1
 3D model:
41
0.8000000000
72
5
11
330.5625000000
21
41.7265625000
100
AcDbText
0
TEXT
5
352
100
AcDbEntity
8
0
100
AcDbText
62
7
6
CONTINUOUS
10
314.5625000000
20
41.0312500000
7
STANDARD
40
0.1562500000
1
 
41
0.8000000000
72
5
11
314.6875000000
21
41.0312500000
100
AcDbText
0
TEXT
5
353
100
AcDbEntity
8
0
100
AcDbText
62
7
6
CONTINUOUS
10
314.5625000000
20
37.2421875000
7
STANDARD
40
3.0000000000
1
 
41
0.8000000000
72
5
11
316.9625000000
21
37.2421875000
100
AcDbText
0
TEXT
5
354
100
AcDbEntity
8
0
100
AcDbText
62
7
6
CONTINUOUS
10
316.9625000000
20
37.2421875000
7
STANDARD
40
2.6000000000
1
BOTTOM_ALL-PRINTS
41
0.8000000000
72
5
11
352.3225000000
21
37.2421875000
100
AcDbText
0
TEXT
5
355
100
AcDbEntity
8
0
100
AcDbText
62
7
6
CONTINUOUS
10
377.5625000000
20
44.2656250000
7
STANDARD
40
0.1562500000
1
 
41
0.8000000000
72
5
11
377.6875000000
21
44.2656250000
100
AcDbText
0
TEXT
5
356
100
AcDbEntity
8
0
100
AcDbText
62
7
6
CONTINUOUS
10
377.5625000000
20
41.7265625000
7
STANDARD
40
2.0000000000
1
 Tegn. nr.:
41
0.8000000000
72
5
11
395.1625000000
21
41.7265625000
100
AcDbText
0
TEXT
5
357
100
AcDbEntity
8
0
100
AcDbText
62
7
6
CONTINUOUS
10
377.5625000000
20
41.0312500000
7
STANDARD
40
0.1562500000
1
 
41
0.8000000000
72
5
11
377.6875000000
21
41.0312500000
100
AcDbText
0
TEXT
5
358
100
AcDbEntity
8
0
100
AcDbText
62
7
6
CONTINUOUS
10
377.5625000000
20
37.2421875000
7
STANDARD
40
3.0000000000
1
 
41
0.8000000000
72
5
11
379.9625000000
21
37.2421875000
100
AcDbText
0
TEXT
5
359
100
AcDbEntity
8
0
100
AcDbText
62
7
6
CONTINUOUS
10
379.9625000000
20
37.2421875000
7
STANDARD
40
2.6000000000
1
BC 78
41
0.8000000000
72
5
11
390.3625000000
21
37.2421875000
100
AcDbText
0
TEXT
5
35A
100
AcDbEntity
8
0
100
AcDbText
62
7
6
CONTINUOUS
10
272.5625000000
20
34.2656250000
7
STANDARD
40
0.1562500000
1
 
41
0.8000000000
72
5
11
272.6875000000
21
34.2656250000
100
AcDbText
0
TEXT
5
35B
100
AcDbEntity
8
0
100
AcDbText
62
7
6
CONTINUOUS
10
272.5625000000
20
31.7265625000
7
STANDARD
40
2.0000000000
1
 Betegnelse:
41
0.8000000000
72
5
11
291.7625000000
21
31.7265625000
100
AcDbText
0
TEXT
5
35C
100
AcDbEntity
8
0
100
AcDbText
62
7
6
CONTINUOUS
10
293.5625000000
20
27.9000000000
7
TEXTSTYLE_2
40
3.2000000000
1
Type 210, all Prints (and Bottom)
41
0.6245265152
72
5
11
359.5125000000
21
27.9000000000
100
AcDbText
0
TEXT
5
35D
100
AcDbEntity
8
0
100
AcDbText
62
7
6
CONTINUOUS
10
377.5625000000
20
30.3750000000
7
STANDARD
40
2.0000000000
1
   Fil:
41
0.8000000000
72
5
11
388.7625000000
21
30.3750000000
100
AcDbText
0
TEXT
5
35E
100
AcDbEntity
8
0
100
AcDbText
62
7
6
CONTINUOUS
10
377.5625000000
20
26.6250000000
7
STANDARD
40
0.1562500000
1
   
41
0.8000000000
72
5
11
377.9375000000
21
26.6250000000
100
AcDbText
0
TEXT
5
35F
100
AcDbEntity
8
0
100
AcDbText
62
7
6
CONTINUOUS
10
377.9375000000
20
26.6250000000
7
STANDARD
40
2.6000000000
1
ASS_BOTTOM_ALL_PRINTS
41
0.8000000000
72
5
11
421.6175000000
21
26.6250000000
100
AcDbText
0
LINE
5
360
100
AcDbEntity
8
0
100
AcDbLine
62
7
6
CONTINUOUS
10
-2.3437500000
20
9.3437500000
11
-2.6562500000
21
9.6562500000
0
LINE
5
361
100
AcDbEntity
8
0
100
AcDbLine
62
7
6
CONTINUOUS
10
12.5000000000
20
14.5000000000
11
12.5000000000
21
287.5000000000
0
LINE
5
362
100
AcDbEntity
8
0
100
AcDbLine
62
7
6
CONTINUOUS
10
22.5000000000
20
24.5000000000
11
22.5000000000
21
277.5000000000
0
LINE
5
363
100
AcDbEntity
8
0
100
AcDbLine
62
7
6
CONTINUOUS
10
422.5000000000
20
14.5000000000
11
12.5000000000
21
14.5000000000
0
LINE
5
364
100
AcDbEntity
8
0
100
AcDbLine
62
7
6
CONTINUOUS
10
412.5000000000
20
24.5000000000
11
22.5000000000
21
24.5000000000
0
LINE
5
365
100
AcDbEntity
8
0
100
AcDbLine
62
7
6
CONTINUOUS
10
-2.3437500000
20
9.6562500000
11
-2.6562500000
21
9.3437500000
0
LINE
5
366
100
AcDbEntity
8
0
100
AcDbLine
62
7
6
CONTINUOUS
10
217.5000000000
20
24.5000000000
11
217.5000000000
21
19.5000000000
0
LINE
5
367
100
AcDbEntity
8
0
100
AcDbLine
62
7
6
CONTINUOUS
10
217.5000000000
20
277.5000000000
11
217.5000000000
21
282.5000000000
0
LINE
5
368
100
AcDbEntity
8
0
100
AcDbLine
62
7
6
CONTINUOUS
10
22.5000000000
20
277.5000000000
11
412.5000000000
21
277.5000000000
0
LINE
5
369
100
AcDbEntity
8
0
100
AcDbLine
62
7
6
CONTINUOUS
10
12.5000000000
20
287.5000000000
11
422.5000000000
21
287.5000000000
0
LINE
5
36A
100
AcDbEntity
8
0
100
AcDbLine
62
7
6
CONTINUOUS
10
412.5000000000
20
277.5000000000
11
412.5000000000
21
24.5000000000
0
LINE
5
36B
100
AcDbEntity
8
0
100
AcDbLine
62
7
6
CONTINUOUS
10
422.5000000000
20
287.5000000000
11
422.5000000000
21
14.5000000000
0
LINE
5
36C
100
AcDbEntity
8
0
100
AcDbLine
62
7
6
CONTINUOUS
10
48.6705175086
20
190.9406479448
11
48.5937210720
21
199.7406479448
0
LINE
5
36D
100
AcDbEntity
8
0
100
AcDbLine
62
9
6
CONTINUOUS
10
49.1704984701
20
190.9406479448
11
49.0937020335
21
199.7406479448
0
LINE
5
36E
100
AcDbEntity
8
0
100
AcDbLine
62
7
6
CONTINUOUS
10
51.2131770347
20
203.2406479448
11
51.2437210720
21
199.7406479448
0
LINE
5
36F
100
AcDbEntity
8
0
100
AcDbLine
62
7
6
CONTINUOUS
10
49.8437210720
20
203.1906479448
11
49.8437210720
21
238.6906479448
0
LINE
5
370
100
AcDbEntity
8
0
100
AcDbLine
62
7
6
CONTINUOUS
10
50.3437210720
20
221.2906479448
11
50.3437210720
21
222.8906479448
0
LINE
5
371
100
AcDbEntity
8
0
100
AcDbLine
62
7
6
CONTINUOUS
10
50.4437210720
20
238.9906479448
11
50.4437210720
21
240.5906479448
0
LINE
5
372
100
AcDbEntity
8
0
100
AcDbLine
62
7
6
CONTINUOUS
10
51.4937210720
20
201.5906479448
11
51.4937210720
21
203.1906479448
0
LINE
5
373
100
AcDbEntity
8
0
100
AcDbLine
62
7
6
CONTINUOUS
10
50.2742651093
20
203.2406479448
11
50.2437210720
21
199.7406479448
0
LINE
5
374
100
AcDbEntity
8
0
100
AcDbLine
62
9
6
CONTINUOUS
10
55.8937210720
20
203.2406479448
11
55.8937210720
21
199.7406479448
0
LINE
5
375
100
AcDbEntity
8
0
100
AcDbLine
62
7
6
CONTINUOUS
10
59.2937210720
20
237.5906479448
11
59.2937210720
21
203.2406479448
0
LINE
5
376
100
AcDbEntity
8
DEFAULT_1
100
AcDbLine
62
2
6
CENTER
10
60.0937210720
20
242.5906479448
11
60.0937210720
21
198.1906479448
0
LINE
5
377
100
AcDbEntity
8
0
100
AcDbLine
62
7
6
CONTINUOUS
10
55.3242651093
20
203.2406479448
11
55.2937210720
21
199.7406479448
0
LINE
5
378
100
AcDbEntity
8
0
100
AcDbLine
62
7
6
CONTINUOUS
10
49.0437210720
20
203.8406479448
11
49.8437210720
21
206.5483402525
0
LINE
5
379
100
AcDbEntity
8
0
100
AcDbLine
62
7
6
CONTINUOUS
10
60.8937210720
20
237.5906479448
11
60.8937210720
21
203.2406479448
0
LINE
5
37A
100
AcDbEntity
8
0
100
AcDbLine
62
7
6
CONTINUOUS
10
74.0437210720
20
237.5906479448
11
74.0437210720
21
203.2406479448
0
LINE
5
37B
100
AcDbEntity
8
DEFAULT_1
100
AcDbLine
62
2
6
CENTER
10
74.8437210720
20
242.5906479448
11
74.8437210720
21
198.1906479448
0
LINE
5
37C
100
AcDbEntity
8
0
100
AcDbLine
62
7
6
CONTINUOUS
10
75.6437210720
20
237.5906479448
11
75.6437210720
21
203.2406479448
0
LINE
5
37D
100
AcDbEntity
8
0
100
AcDbLine
62
7
6
CONTINUOUS
10
88.7937210720
20
237.5906479448
11
88.7937210720
21
203.2406479448
0
LINE
5
37E
100
AcDbEntity
8
DEFAULT_1
100
AcDbLine
62
2
6
CENTER
10
89.5937210720
20
242.5906479448
11
89.5937210720
21
198.1906479448
0
LINE
5
37F
100
AcDbEntity
8
0
100
AcDbLine
62
7
6
CONTINUOUS
10
90.3937210720
20
237.5906479448
11
90.3937210720
21
203.2406479448
0
LINE
5
380
100
AcDbEntity
8
0
100
AcDbLine
62
7
6
CONTINUOUS
10
98.4437210720
20
221.2906479448
11
98.4437210720
21
222.8906479448
0
LINE
5
381
100
AcDbEntity
8
0
100
AcDbLine
62
7
6
CONTINUOUS
10
100.3437210720
20
203.2406479448
11
100.3437210720
21
203.6906479448
0
LINE
5
382
100
AcDbEntity
8
0
100
AcDbLine
62
9
6
CONTINUOUS
10
100.5937210720
20
203.2406479448
11
100.5937210720
21
203.9406479448
0
LINE
5
383
100
AcDbEntity
8
0
100
AcDbLine
62
9
6
CONTINUOUS
10
101.5937210720
20
203.2406479448
11
101.5937210720
21
203.9406479448
0
LINE
5
384
100
AcDbEntity
8
0
100
AcDbLine
62
7
6
CONTINUOUS
10
101.8437210720
20
203.2406479448
11
101.8437210720
21
203.6906479448
0
LINE
5
385
100
AcDbEntity
8
0
100
AcDbLine
62
7
6
CONTINUOUS
10
103.7437210720
20
221.2906479448
11
103.7437210720
21
222.8906479448
0
LINE
5
386
100
AcDbEntity
8
0
100
AcDbLine
62
7
6
CONTINUOUS
10
111.7937210720
20
237.5906479448
11
111.7937210720
21
203.2406479448
0
LINE
5
387
100
AcDbEntity
8
DEFAULT_1
100
AcDbLine
62
2
6
CENTER
10
112.5937210720
20
242.5906479448
11
112.5937210720
21
198.1906479448
0
LINE
5
388
100
AcDbEntity
8
0
100
AcDbLine
62
7
6
CONTINUOUS
10
113.3937210720
20
237.5906479448
11
113.3937210720
21
203.2406479448
0
LINE
5
389
100
AcDbEntity
8
0
100
AcDbLine
62
7
6
CONTINUOUS
10
126.5437210720
20
237.5906479448
11
126.5437210720
21
203.2406479448
0
LINE
5
38A
100
AcDbEntity
8
DEFAULT_1
100
AcDbLine
62
2
6
CENTER
10
127.3437210720
20
242.5906479448
11
127.3437210720
21
198.1906479448
0
LINE
5
38B
100
AcDbEntity
8
0
100
AcDbLine
62
7
6
CONTINUOUS
10
128.1437210720
20
237.5906479448
11
128.1437210720
21
203.2406479448
0
LINE
5
38C
100
AcDbEntity
8
0
100
AcDbLine
62
7
6
CONTINUOUS
10
48.6705175086
20
190.9406479448
11
258.5169246355
21
190.9406479448
0
LINE
5
38D
100
AcDbEntity
8
0
100
AcDbLine
62
7
6
CONTINUOUS
10
142.0396103707
20
198.3406479448
11
145.1478317733
21
198.3406479448
0
LINE
5
38E
100
AcDbEntity
8
0
100
AcDbLine
62
7
6
CONTINUOUS
10
162.0396103707
20
198.3406479448
11
165.1478317733
21
198.3406479448
0
LINE
5
38F
100
AcDbEntity
8
0
100
AcDbLine
62
7
6
CONTINUOUS
10
162.0640474616
20
199.7406479448
11
145.1233946824
21
199.7406479448
0
LINE
5
390
100
AcDbEntity
8
0
100
AcDbLine
62
7
6
CONTINUOUS
10
48.5937210720
20
199.7406479448
11
142.0640474616
21
199.7406479448
0
LINE
5
391
100
AcDbEntity
8
0
100
AcDbLine
62
7
6
CONTINUOUS
10
165.1233946824
20
199.7406479448
11
258.5937210720
21
199.7406479448
0
LINE
5
392
100
AcDbEntity
8
0
100
AcDbLine
62
7
6
CONTINUOUS
10
165.0937210720
20
201.4406479448
11
162.0937210720
21
201.4406479448
0
LINE
5
393
100
AcDbEntity
8
0
100
AcDbLine
62
7
6
CONTINUOUS
10
145.0937210720
20
201.4406479448
11
142.0937210720
21
201.4406479448
0
LINE
5
394
100
AcDbEntity
8
0
100
AcDbLine
62
7
6
CONTINUOUS
10
51.2275763666
20
201.5906479448
11
55.3098657774
21
201.5906479448
0
LINE
5
395
100
AcDbEntity
8
0
100
AcDbLine
62
7
6
CONTINUOUS
10
251.8775763666
20
201.5906479448
11
255.9598657774
21
201.5906479448
0
LINE
5
396
100
AcDbEntity
8
0
100
AcDbLine
62
7
6
CONTINUOUS
10
257.3437210720
20
203.1906479448
11
256.9131770347
21
203.1906479448
0
LINE
5
397
100
AcDbEntity
8
0
100
AcDbLine
62
7
6
CONTINUOUS
10
50.2742651093
20
203.1906479448
11
49.8437210720
21
203.1906479448
0
LINE
5
398
100
AcDbEntity
8
0
100
AcDbLine
62
7
6
CONTINUOUS
10
51.2131770347
20
203.1906479448
11
55.3248444969
21
203.1906479448
0
LINE
5
399
100
AcDbEntity
8
0
100
AcDbLine
62
7
6
CONTINUOUS
10
251.8631770347
20
203.1906479448
11
255.9742651093
21
203.1906479448
0
LINE
5
39A
100
AcDbEntity
8
0
100
AcDbLine
62
7
6
CONTINUOUS
10
50.2742651093
20
203.2406479448
11
51.2131770347
21
203.2406479448
0
LINE
5
39B
100
AcDbEntity
8
0
100
AcDbLine
62
7
6
CONTINUOUS
10
55.3248444969
20
203.2406479448
11
251.8626445066
21
203.2406479448
0
LINE
5
39C
100
AcDbEntity
8
0
100
AcDbLine
62
7
6
CONTINUOUS
10
255.9742651093
20
203.2406479448
11
256.9131770347
21
203.2406479448
0
LINE
5
39D
100
AcDbEntity
8
0
100
AcDbLine
62
9
6
CONTINUOUS
10
100.3437210720
20
203.6906479448
11
101.8437210720
21
203.6906479448
0
LINE
5
39E
100
AcDbEntity
8
0
100
AcDbLine
62
9
6
CONTINUOUS
10
152.8437210720
20
203.6906479448
11
154.3437210720
21
203.6906479448
0
LINE
5
39F
100
AcDbEntity
8
0
100
AcDbLine
62
9
6
CONTINUOUS
10
205.3437210720
20
203.6906479448
11
206.8437210720
21
203.6906479448
0
LINE
5
3A0
100
AcDbEntity
8
0
100
AcDbLine
62
7
6
CONTINUOUS
10
145.2769992538
20
190.9406479448
11
145.0937210720
21
201.4406479448
0
LINE
5
3A1
100
AcDbEntity
8
0
100
AcDbLine
62
7
6
CONTINUOUS
10
141.2937210720
20
237.5906479448
11
141.2937210720
21
203.2406479448
0
LINE
5
3A2
100
AcDbEntity
8
DEFAULT_1
100
AcDbLine
62
2
6
CENTER
10
142.0937210720
20
242.5906479448
11
142.0937210720
21
198.1906479448
0
LINE
5
3A3
100
AcDbEntity
8
0
100
AcDbLine
62
7
6
CONTINUOUS
10
142.8937210720
20
237.5906479448
11
142.8937210720
21
203.2406479448
0
LINE
5
3A4
100
AcDbEntity
8
0
100
AcDbLine
62
7
6
CONTINUOUS
10
141.9104428903
20
190.9406479448
11
142.0937210720
21
201.4406479448
0
LINE
5
3A5
100
AcDbEntity
8
0
100
AcDbLine
62
7
6
CONTINUOUS
10
258.1437210720
20
203.8406479448
11
257.3437210720
21
203.8406479448
0
LINE
5
3A6
100
AcDbEntity
8
0
100
AcDbLine
62
7
6
CONTINUOUS
10
49.8437210720
20
203.8406479448
11
49.0437210720
21
203.8406479448
0
LINE
5
3A7
100
AcDbEntity
8
0
100
AcDbLine
62
7
6
CONTINUOUS
10
100.5937210720
20
203.9406479448
11
101.5937210720
21
203.9406479448
0
LINE
5
3A8
100
AcDbEntity
8
0
100
AcDbLine
62
7
6
CONTINUOUS
10
153.0937210720
20
203.9406479448
11
154.0937210720
21
203.9406479448
0
LINE
5
3A9
100
AcDbEntity
8
0
100
AcDbLine
62
7
6
CONTINUOUS
10
205.5937210720
20
203.9406479448
11
206.5937210720
21
203.9406479448
0
LINE
5
3AA
100
AcDbEntity
8
0
100
AcDbLine
62
7
6
CONTINUOUS
10
150.9437210720
20
221.2906479448
11
150.9437210720
21
222.8906479448
0
LINE
5
3AB
100
AcDbEntity
8
0
100
AcDbLine
62
7
6
CONTINUOUS
10
152.8437210720
20
203.2406479448
11
152.8437210720
21
203.6906479448
0
LINE
5
3AC
100
AcDbEntity
8
0
100
AcDbLine
62
9
6
CONTINUOUS
10
153.0937210720
20
203.2406479448
11
153.0937210720
21
203.9406479448
0
LINE
5
3AD
100
AcDbEntity
8
DEFAULT_1
100
AcDbLine
62
2
6
CENTER
10
153.5937210720
20
243.6906479448
11
153.5937210720
21
198.1906479448
0
LINE
5
3AE
100
AcDbEntity
8
0
100
AcDbLine
62
9
6
CONTINUOUS
10
154.0937210720
20
203.2406479448
11
154.0937210720
21
203.9406479448
0
LINE
5
3AF
100
AcDbEntity
8
0
100
AcDbLine
62
7
6
CONTINUOUS
10
154.3437210720
20
203.2406479448
11
154.3437210720
21
203.6906479448
0
LINE
5
3B0
100
AcDbEntity
8
0
100
AcDbLine
62
7
6
CONTINUOUS
10
156.2437210720
20
221.2906479448
11
156.2437210720
21
222.8906479448
0
LINE
5
3B1
100
AcDbEntity
8
0
100
AcDbLine
62
7
6
CONTINUOUS
10
50.3437210720
20
221.2906479448
11
59.2937210720
21
221.2906479448
0
LINE
5
3B2
100
AcDbEntity
8
0
100
AcDbLine
62
7
6
CONTINUOUS
10
60.8937210720
20
221.2906479448
11
74.0437210720
21
221.2906479448
0
LINE
5
3B3
100
AcDbEntity
8
0
100
AcDbLine
62
7
6
CONTINUOUS
10
75.6437210720
20
221.2906479448
11
88.7937210720
21
221.2906479448
0
LINE
5
3B4
100
AcDbEntity
8
0
100
AcDbLine
62
7
6
CONTINUOUS
10
90.3937210720
20
221.2906479448
11
111.7937210720
21
221.2906479448
0
LINE
5
3B5
100
AcDbEntity
8
0
100
AcDbLine
62
7
6
CONTINUOUS
10
113.3937210720
20
221.2906479448
11
126.5437210720
21
221.2906479448
0
LINE
5
3B6
100
AcDbEntity
8
0
100
AcDbLine
62
7
6
CONTINUOUS
10
128.1437210720
20
221.2906479448
11
141.2937210720
21
221.2906479448
0
LINE
5
3B7
100
AcDbEntity
8
0
100
AcDbLine
62
7
6
CONTINUOUS
10
142.8937210720
20
221.2906479448
11
164.2937210720
21
221.2906479448
0
LINE
5
3B8
100
AcDbEntity
8
0
100
AcDbLine
62
7
6
CONTINUOUS
10
165.8937210720
20
221.2906479448
11
179.0437210720
21
221.2906479448
0
LINE
5
3B9
100
AcDbEntity
8
0
100
AcDbLine
62
7
6
CONTINUOUS
10
180.6437210720
20
221.2906479448
11
193.7937210720
21
221.2906479448
0
LINE
5
3BA
100
AcDbEntity
8
0
100
AcDbLine
62
7
6
CONTINUOUS
10
195.3937210720
20
221.2906479448
11
216.7937210720
21
221.2906479448
0
LINE
5
3BB
100
AcDbEntity
8
0
100
AcDbLine
62
7
6
CONTINUOUS
10
218.3937210720
20
221.2906479448
11
231.5437210720
21
221.2906479448
0
LINE
5
3BC
100
AcDbEntity
8
0
100
AcDbLine
62
7
6
CONTINUOUS
10
233.1437210720
20
221.2906479448
11
246.2937210720
21
221.2906479448
0
LINE
5
3BD
100
AcDbEntity
8
0
100
AcDbLine
62
7
6
CONTINUOUS
10
247.8937210720
20
221.2906479448
11
256.8437210720
21
221.2906479448
0
LINE
5
3BE
100
AcDbEntity
8
0
100
AcDbLine
62
7
6
CONTINUOUS
10
50.3437210720
20
222.8906479448
11
59.2937210720
21
222.8906479448
0
LINE
5
3BF
100
AcDbEntity
8
0
100
AcDbLine
62
7
6
CONTINUOUS
10
60.8937210720
20
222.8906479448
11
74.0437210720
21
222.8906479448
0
LINE
5
3C0
100
AcDbEntity
8
0
100
AcDbLine
62
7
6
CONTINUOUS
10
75.6437210720
20
222.8906479448
11
88.7937210720
21
222.8906479448
0
LINE
5
3C1
100
AcDbEntity
8
0
100
AcDbLine
62
7
6
CONTINUOUS
10
90.3937210720
20
222.8906479448
11
111.7937210720
21
222.8906479448
0
LINE
5
3C2
100
AcDbEntity
8
0
100
AcDbLine
62
7
6
CONTINUOUS
10
113.3937210720
20
222.8906479448
11
126.5437210720
21
222.8906479448
0
LINE
5
3C3
100
AcDbEntity
8
0
100
AcDbLine
62
7
6
CONTINUOUS
10
128.1437210720
20
222.8906479448
11
141.2937210720
21
222.8906479448
0
LINE
5
3C4
100
AcDbEntity
8
0
100
AcDbLine
62
7
6
CONTINUOUS
10
142.8937210720
20
222.8906479448
11
164.2937210720
21
222.8906479448
0
LINE
5
3C5
100
AcDbEntity
8
0
100
AcDbLine
62
7
6
CONTINUOUS
10
165.8937210720
20
222.8906479448
11
179.0437210720
21
222.8906479448
0
LINE
5
3C6
100
AcDbEntity
8
0
100
AcDbLine
62
7
6
CONTINUOUS
10
180.6437210720
20
222.8906479448
11
193.7937210720
21
222.8906479448
0
LINE
5
3C7
100
AcDbEntity
8
0
100
AcDbLine
62
7
6
CONTINUOUS
10
195.3937210720
20
222.8906479448
11
216.7937210720
21
222.8906479448
0
LINE
5
3C8
100
AcDbEntity
8
0
100
AcDbLine
62
7
6
CONTINUOUS
10
218.3937210720
20
222.8906479448
11
231.5437210720
21
222.8906479448
0
LINE
5
3C9
100
AcDbEntity
8
0
100
AcDbLine
62
7
6
CONTINUOUS
10
233.1437210720
20
222.8906479448
11
246.2937210720
21
222.8906479448
0
LINE
5
3CA
100
AcDbEntity
8
0
100
AcDbLine
62
7
6
CONTINUOUS
10
247.8937210720
20
222.8906479448
11
256.8437210720
21
222.8906479448
0
LINE
5
3CB
100
AcDbEntity
8
0
100
AcDbLine
62
7
6
CONTINUOUS
10
165.2769992538
20
190.9406479448
11
165.0937210720
21
201.4406479448
0
LINE
5
3CC
100
AcDbEntity
8
0
100
AcDbLine
62
7
6
CONTINUOUS
10
164.2937210720
20
243.5906479448
11
164.2937210720
21
203.2406479448
0
LINE
5
3CD
100
AcDbEntity
8
DEFAULT_1
100
AcDbLine
62
2
6
CENTER
10
165.0937210720
20
248.5906479448
11
165.0937210720
21
198.1906479448
0
LINE
5
3CE
100
AcDbEntity
8
0
100
AcDbLine
62
7
6
CONTINUOUS
10
165.8937210720
20
243.5906479448
11
165.8937210720
21
203.2406479448
0
LINE
5
3CF
100
AcDbEntity
8
0
100
AcDbLine
62
7
6
CONTINUOUS
10
161.9104428903
20
190.9406479448
11
162.0937210720
21
201.4406479448
0
LINE
5
3D0
100
AcDbEntity
8
0
100
AcDbLine
62
7
6
CONTINUOUS
10
59.2937210720
20
237.5906479448
11
60.8937210720
21
237.5906479448
0
LINE
5
3D1
100
AcDbEntity
8
0
100
AcDbLine
62
7
6
CONTINUOUS
10
74.0437210720
20
237.5906479448
11
75.6437210720
21
237.5906479448
0
LINE
5
3D2
100
AcDbEntity
8
0
100
AcDbLine
62
7
6
CONTINUOUS
10
88.7937210720
20
237.5906479448
11
90.3937210720
21
237.5906479448
0
LINE
5
3D3
100
AcDbEntity
8
0
100
AcDbLine
62
7
6
CONTINUOUS
10
111.7937210720
20
237.5906479448
11
113.3937210720
21
237.5906479448
0
LINE
5
3D4
100
AcDbEntity
8
0
100
AcDbLine
62
7
6
CONTINUOUS
10
126.5437210720
20
237.5906479448
11
128.1437210720
21
237.5906479448
0
LINE
5
3D5
100
AcDbEntity
8
0
100
AcDbLine
62
7
6
CONTINUOUS
10
141.2937210720
20
237.5906479448
11
142.8937210720
21
237.5906479448
0
LINE
5
3D6
100
AcDbEntity
8
0
100
AcDbLine
62
7
6
CONTINUOUS
10
164.2937210720
20
237.5906479448
11
165.8937210720
21
237.5906479448
0
LINE
5
3D7
100
AcDbEntity
8
0
100
AcDbLine
62
7
6
CONTINUOUS
10
179.0437210720
20
237.5906479448
11
180.6437210720
21
237.5906479448
0
LINE
5
3D8
100
AcDbEntity
8
0
100
AcDbLine
62
7
6
CONTINUOUS
10
193.7937210720
20
237.5906479448
11
195.3937210720
21
237.5906479448
0
LINE
5
3D9
100
AcDbEntity
8
0
100
AcDbLine
62
7
6
CONTINUOUS
10
216.7937210720
20
237.5906479448
11
218.3937210720
21
237.5906479448
0
LINE
5
3DA
100
AcDbEntity
8
0
100
AcDbLine
62
7
6
CONTINUOUS
10
231.5437210720
20
237.5906479448
11
233.1437210720
21
237.5906479448
0
LINE
5
3DB
100
AcDbEntity
8
0
100
AcDbLine
62
7
6
CONTINUOUS
10
246.2937210720
20
237.5906479448
11
247.8937210720
21
237.5906479448
0
LINE
5
3DC
100
AcDbEntity
8
0
100
AcDbLine
62
7
6
CONTINUOUS
10
49.8437210720
20
238.6906479448
11
164.2937210720
21
238.6906479448
0
LINE
5
3DD
100
AcDbEntity
8
0
100
AcDbLine
62
7
6
CONTINUOUS
10
165.8937210720
20
238.6906479448
11
179.0437210720
21
238.6906479448
0
LINE
5
3DE
100
AcDbEntity
8
0
100
AcDbLine
62
7
6
CONTINUOUS
10
180.6437210720
20
238.6906479448
11
193.7937210720
21
238.6906479448
0
LINE
5
3DF
100
AcDbEntity
8
0
100
AcDbLine
62
7
6
CONTINUOUS
10
195.3937210720
20
238.6906479448
11
216.7937210720
21
238.6906479448
0
LINE
5
3E0
100
AcDbEntity
8
0
100
AcDbLine
62
7
6
CONTINUOUS
10
218.3937210720
20
238.6906479448
11
231.5437210720
21
238.6906479448
0
LINE
5
3E1
100
AcDbEntity
8
0
100
AcDbLine
62
7
6
CONTINUOUS
10
233.1437210720
20
238.6906479448
11
246.2937210720
21
238.6906479448
0
LINE
5
3E2
100
AcDbEntity
8
0
100
AcDbLine
62
7
6
CONTINUOUS
10
247.8937210720
20
238.6906479448
11
257.3437210720
21
238.6906479448
0
LINE
5
3E3
100
AcDbEntity
8
0
100
AcDbLine
62
7
6
CONTINUOUS
10
50.4437210720
20
238.9906479448
11
164.2937210720
21
238.9906479448
0
LINE
5
3E4
100
AcDbEntity
8
0
100
AcDbLine
62
7
6
CONTINUOUS
10
165.8937210720
20
238.9906479448
11
179.0437210720
21
238.9906479448
0
LINE
5
3E5
100
AcDbEntity
8
0
100
AcDbLine
62
7
6
CONTINUOUS
10
180.6437210720
20
238.9906479448
11
193.7937210720
21
238.9906479448
0
LINE
5
3E6
100
AcDbEntity
8
0
100
AcDbLine
62
7
6
CONTINUOUS
10
195.3937210720
20
238.9906479448
11
216.7937210720
21
238.9906479448
0
LINE
5
3E7
100
AcDbEntity
8
0
100
AcDbLine
62
7
6
CONTINUOUS
10
218.3937210720
20
238.9906479448
11
231.5437210720
21
238.9906479448
0
LINE
5
3E8
100
AcDbEntity
8
0
100
AcDbLine
62
7
6
CONTINUOUS
10
233.1437210720
20
238.9906479448
11
246.2937210720
21
238.9906479448
0
LINE
5
3E9
100
AcDbEntity
8
0
100
AcDbLine
62
7
6
CONTINUOUS
10
247.8937210720
20
238.9906479448
11
256.7437210720
21
238.9906479448
0
LINE
5
3EA
100
AcDbEntity
8
0
100
AcDbLine
62
7
6
CONTINUOUS
10
179.0437210720
20
243.5906479448
11
179.0437210720
21
203.2406479448
0
LINE
5
3EB
100
AcDbEntity
8
DEFAULT_1
100
AcDbLine
62
2
6
CENTER
10
179.8437210720
20
248.5906479448
11
179.8437210720
21
198.1906479448
0
LINE
5
3EC
100
AcDbEntity
8
0
100
AcDbLine
62
7
6
CONTINUOUS
10
180.6437210720
20
243.5906479448
11
180.6437210720
21
203.2406479448
0
LINE
5
3ED
100
AcDbEntity
8
0
100
AcDbLine
62
7
6
CONTINUOUS
10
50.4437210720
20
240.5906479448
11
164.2937210720
21
240.5906479448
0
LINE
5
3EE
100
AcDbEntity
8
0
100
AcDbLine
62
7
6
CONTINUOUS
10
165.8937210720
20
240.5906479448
11
179.0437210720
21
240.5906479448
0
LINE
5
3EF
100
AcDbEntity
8
0
100
AcDbLine
62
7
6
CONTINUOUS
10
180.6437210720
20
240.5906479448
11
193.7937210720
21
240.5906479448
0
LINE
5
3F0
100
AcDbEntity
8
0
100
AcDbLine
62
7
6
CONTINUOUS
10
195.3937210720
20
240.5906479448
11
216.7937210720
21
240.5906479448
0
LINE
5
3F1
100
AcDbEntity
8
0
100
AcDbLine
62
7
6
CONTINUOUS
10
218.3937210720
20
240.5906479448
11
231.5437210720
21
240.5906479448
0
LINE
5
3F2
100
AcDbEntity
8
0
100
AcDbLine
62
7
6
CONTINUOUS
10
233.1437210720
20
240.5906479448
11
246.2937210720
21
240.5906479448
0
LINE
5
3F3
100
AcDbEntity
8
0
100
AcDbLine
62
7
6
CONTINUOUS
10
247.8937210720
20
240.5906479448
11
256.7437210720
21
240.5906479448
0
LINE
5
3F4
100
AcDbEntity
8
0
100
AcDbLine
62
7
6
CONTINUOUS
10
164.2937210720
20
243.5906479448
11
165.8937210720
21
243.5906479448
0
LINE
5
3F5
100
AcDbEntity
8
0
100
AcDbLine
62
7
6
CONTINUOUS
10
179.0437210720
20
243.5906479448
11
180.6437210720
21
243.5906479448
0
LINE
5
3F6
100
AcDbEntity
8
0
100
AcDbLine
62
7
6
CONTINUOUS
10
193.7937210720
20
243.5906479448
11
195.3937210720
21
243.5906479448
0
LINE
5
3F7
100
AcDbEntity
8
0
100
AcDbLine
62
7
6
CONTINUOUS
10
216.7937210720
20
243.5906479448
11
218.3937210720
21
243.5906479448
0
LINE
5
3F8
100
AcDbEntity
8
0
100
AcDbLine
62
7
6
CONTINUOUS
10
231.5437210720
20
243.5906479448
11
233.1437210720
21
243.5906479448
0
LINE
5
3F9
100
AcDbEntity
8
0
100
AcDbLine
62
7
6
CONTINUOUS
10
246.2937210720
20
243.5906479448
11
247.8937210720
21
243.5906479448
0
LINE
5
3FA
100
AcDbEntity
8
0
100
AcDbLine
62
7
6
CONTINUOUS
10
193.7937210720
20
243.5906479448
11
193.7937210720
21
203.2406479448
0
LINE
5
3FB
100
AcDbEntity
8
DEFAULT_1
100
AcDbLine
62
2
6
CENTER
10
194.5937210720
20
248.5906479448
11
194.5937210720
21
198.1906479448
0
LINE
5
3FC
100
AcDbEntity
8
0
100
AcDbLine
62
7
6
CONTINUOUS
10
195.3937210720
20
243.5906479448
11
195.3937210720
21
203.2406479448
0
LINE
5
3FD
100
AcDbEntity
8
0
100
AcDbLine
62
7
6
CONTINUOUS
10
203.4437210720
20
221.2906479448
11
203.4437210720
21
222.8906479448
0
LINE
5
3FE
100
AcDbEntity
8
0
100
AcDbLine
62
7
6
CONTINUOUS
10
205.3437210720
20
203.2406479448
11
205.3437210720
21
203.6906479448
0
LINE
5
3FF
100
AcDbEntity
8
0
100
AcDbLine
62
9
6
CONTINUOUS
10
205.5937210720
20
203.2406479448
11
205.5937210720
21
203.9406479448
0
LINE
5
400
100
AcDbEntity
8
0
100
AcDbLine
62
9
6
CONTINUOUS
10
206.5937210720
20
203.2406479448
11
206.5937210720
21
203.9406479448
0
LINE
5
401
100
AcDbEntity
8
0
100
AcDbLine
62
7
6
CONTINUOUS
10
206.8437210720
20
203.2406479448
11
206.8437210720
21
203.6906479448
0
LINE
5
402
100
AcDbEntity
8
0
100
AcDbLine
62
7
6
CONTINUOUS
10
208.7437210720
20
221.2906479448
11
208.7437210720
21
222.8906479448
0
LINE
5
403
100
AcDbEntity
8
0
100
AcDbLine
62
7
6
CONTINUOUS
10
216.7937210720
20
243.5906479448
11
216.7937210720
21
203.2406479448
0
LINE
5
404
100
AcDbEntity
8
DEFAULT_1
100
AcDbLine
62
2
6
CENTER
10
217.5937210720
20
248.5906479448
11
217.5937210720
21
198.1906479448
0
LINE
5
405
100
AcDbEntity
8
0
100
AcDbLine
62
7
6
CONTINUOUS
10
218.3937210720
20
243.5906479448
11
218.3937210720
21
203.2406479448
0
LINE
5
406
100
AcDbEntity
8
0
100
AcDbLine
62
7
6
CONTINUOUS
10
231.5437210720
20
243.5906479448
11
231.5437210720
21
203.2406479448
0
LINE
5
407
100
AcDbEntity
8
DEFAULT_1
100
AcDbLine
62
2
6
CENTER
10
232.3437210720
20
248.5906479448
11
232.3437210720
21
198.1906479448
0
LINE
5
408
100
AcDbEntity
8
0
100
AcDbLine
62
7
6
CONTINUOUS
10
233.1437210720
20
243.5906479448
11
233.1437210720
21
203.2406479448
0
LINE
5
409
100
AcDbEntity
8
0
100
AcDbLine
62
7
6
CONTINUOUS
10
246.2937210720
20
243.5906479448
11
246.2937210720
21
203.2406479448
0
LINE
5
40A
100
AcDbEntity
8
DEFAULT_1
100
AcDbLine
62
2
6
CENTER
10
247.0937210720
20
248.5906479448
11
247.0937210720
21
198.1906479448
0
LINE
5
40B
100
AcDbEntity
8
0
100
AcDbLine
62
7
6
CONTINUOUS
10
247.8937210720
20
243.5906479448
11
247.8937210720
21
203.2406479448
0
LINE
5
40C
100
AcDbEntity
8
0
100
AcDbLine
62
7
6
CONTINUOUS
10
251.8631770347
20
203.2406479448
11
251.8937210720
21
199.7406479448
0
LINE
5
40D
100
AcDbEntity
8
0
100
AcDbLine
62
7
6
CONTINUOUS
10
256.9131770347
20
203.2406479448
11
256.9437210720
21
199.7406479448
0
LINE
5
40E
100
AcDbEntity
8
0
100
AcDbLine
62
9
6
CONTINUOUS
10
251.2937210720
20
203.2406479448
11
251.2937210720
21
199.7406479448
0
LINE
5
40F
100
AcDbEntity
8
0
100
AcDbLine
62
7
6
CONTINUOUS
10
255.6937210720
20
201.5906479448
11
255.6937210720
21
203.1906479448
0
LINE
5
410
100
AcDbEntity
8
0
100
AcDbLine
62
7
6
CONTINUOUS
10
256.7437210720
20
238.9906479448
11
256.7437210720
21
240.5906479448
0
LINE
5
411
100
AcDbEntity
8
0
100
AcDbLine
62
7
6
CONTINUOUS
10
256.8437210720
20
221.2906479448
11
256.8437210720
21
222.8906479448
0
LINE
5
412
100
AcDbEntity
8
0
100
AcDbLine
62
7
6
CONTINUOUS
10
257.3437210720
20
238.6906479448
11
257.3437210720
21
203.1906479448
0
LINE
5
413
100
AcDbEntity
8
0
100
AcDbLine
62
7
6
CONTINUOUS
10
255.9742651093
20
203.2406479448
11
255.9437210720
21
199.7406479448
0
LINE
5
414
100
AcDbEntity
8
0
100
AcDbLine
62
9
6
CONTINUOUS
10
258.0169436739
20
190.9406479448
11
258.0937401105
21
199.7406479448
0
LINE
5
415
100
AcDbEntity
8
0
100
AcDbLine
62
7
6
CONTINUOUS
10
258.5169246355
20
190.9406479448
11
258.5937210720
21
199.7406479448
0
LINE
5
416
100
AcDbEntity
8
0
100
AcDbLine
62
7
6
CONTINUOUS
10
257.3437210720
20
206.5483402525
11
258.1437210720
21
203.8406479448
0
LINE
5
417
100
AcDbEntity
8
0
100
AcDbLine
62
7
6
CONTINUOUS
10
289.7249221923
20
190.9406479448
11
289.6481257557
21
199.7406479448
0
LINE
5
418
100
AcDbEntity
8
0
100
AcDbLine
62
9
6
CONTINUOUS
10
290.2249031538
20
190.9406479448
11
290.1481067173
21
199.7406479448
0
LINE
5
419
100
AcDbEntity
8
0
100
AcDbLine
62
7
6
CONTINUOUS
10
290.8481257557
20
199.7406479448
11
290.8175817185
21
203.2406479448
0
LINE
5
41A
100
AcDbEntity
8
0
100
AcDbLine
62
7
6
CONTINUOUS
10
289.7281257557
20
203.2406479448
11
289.7281257557
21
203.6906479448
0
LINE
5
41B
100
AcDbEntity
8
0
100
AcDbLine
62
9
6
CONTINUOUS
10
289.9781257557
20
203.2406479448
11
289.9781257557
21
203.9406479448
0
LINE
5
41C
100
AcDbEntity
8
0
100
AcDbLine
62
9
6
CONTINUOUS
10
290.5181257557
20
203.2406479448
11
290.5181257557
21
203.9406479448
0
LINE
5
41D
100
AcDbEntity
8
0
100
AcDbLine
62
7
6
CONTINUOUS
10
290.7681257557
20
203.2406479448
11
290.7681257557
21
203.6906479448
0
LINE
5
41E
100
AcDbEntity
8
0
100
AcDbLine
62
9
6
CONTINUOUS
10
291.6481257557
20
203.2406479448
11
291.6481257557
21
199.7406479448
0
LINE
5
41F
100
AcDbEntity
8
0
100
AcDbLine
62
7
6
CONTINUOUS
10
289.6481257557
20
199.7406479448
11
289.6786697930
21
203.2406479448
0
LINE
5
420
100
AcDbEntity
8
0
100
AcDbLine
62
7
6
CONTINUOUS
10
291.1786697930
20
203.2406479448
11
291.1481257557
21
199.7406479448
0
LINE
5
421
100
AcDbEntity
8
0
100
AcDbLine
62
7
6
CONTINUOUS
10
301.3981257557
20
203.2406479448
11
301.3981257557
21
237.5906479448
0
LINE
5
422
100
AcDbEntity
8
0
100
AcDbLine
62
7
6
CONTINUOUS
10
301.5481257557
20
221.2906479448
11
301.5481257557
21
222.8906479448
0
POLYLINE
5
423
100
AcDbEntity
8
0
100
AcDb2dPolyline
62
9
6
CONTINUOUS
66
1
70
0
0
VERTEX
5
424
100
AcDbEntity
8
0
100
AcDbVertex
62
9
6
CONTINUOUS
100
AcDb2dVertex
10
348.4308610296
20
192.1884663109
0
VERTEX
5
425
100
AcDbEntity
8
0
100
AcDbVertex
62
9
6
CONTINUOUS
100
AcDb2dVertex
10
348.3084570681
20
192.1876775958
0
VERTEX
5
426
100
AcDbEntity
8
0
100
AcDbVertex
62
9
6
CONTINUOUS
100
AcDb2dVertex
10
348.2151157423
20
192.1876631898
0
VERTEX
5
427
100
AcDbEntity
8
0
100
AcDbVertex
62
9
6
CONTINUOUS
100
AcDb2dVertex
10
348.1808705488
20
192.1884663109
0
SEQEND
5
428
100
AcDbEntity
8
0
0
LINE
5
429
100
AcDbEntity
8
0
100
AcDbLine
62
7
6
CONTINUOUS
10
375.5713293192
20
190.9406479448
11
350.1481257557
21
190.9406479448
0
LINE
5
42A
100
AcDbEntity
8
0
100
AcDbLine
62
7
6
CONTINUOUS
10
314.6481257557
20
190.9406479448
11
289.7249221923
21
190.9406479448
0
LINE
5
42B
100
AcDbEntity
8
0
100
AcDbLine
62
7
6
CONTINUOUS
10
348.4308610296
20
191.9406479448
11
350.1481257557
21
191.9406479448
0
LINE
5
42C
100
AcDbEntity
8
0
100
AcDbLine
62
9
6
CONTINUOUS
10
348.4308610296
20
192.1884663109
11
350.1481257557
21
192.1884663109
0
LINE
5
42D
100
AcDbEntity
8
0
100
AcDbLine
62
7
6
CONTINUOUS
10
311.2981257557
20
237.5906479448
11
311.2981257557
21
243.5906479448
0
LINE
5
42E
100
AcDbEntity
8
0
100
AcDbLine
62
7
6
CONTINUOUS
10
311.7981257557
20
238.9906479448
11
311.7981257557
21
240.5906479448
0
LINE
5
42F
100
AcDbEntity
8
0
100
AcDbLine
62
7
6
CONTINUOUS
10
311.8981257557
20
191.5506165295
11
311.8981257557
21
194.3306793669
0
LINE
5
430
100
AcDbEntity
8
0
100
AcDbLine
62
7
6
CONTINUOUS
10
315.5981257557
20
194.6406479448
11
315.5481257557
21
194.6406479448
0
LINE
5
431
100
AcDbEntity
8
0
100
AcDbLine
62
7
6
CONTINUOUS
10
350.1481257557
20
195.9406479448
11
314.6481257557
21
195.9406479448
0
LINE
5
432
100
AcDbEntity
8
0
100
AcDbLine
62
7
6
CONTINUOUS
10
314.6481257557
20
195.9406479448
11
314.6481257557
21
190.9406479448
0
LINE
5
433
100
AcDbEntity
8
0
100
AcDbLine
62
7
6
CONTINUOUS
10
315.5481257557
20
195.9406479448
11
315.5481257557
21
194.6406479448
0
LINE
5
434
100
AcDbEntity
8
0
100
AcDbLine
62
7
6
CONTINUOUS
10
315.5981257557
20
195.9406479448
11
315.5981257557
21
194.6406479448
0
LINE
5
435
100
AcDbEntity
8
0
100
AcDbLine
62
7
6
CONTINUOUS
10
289.6481257557
20
199.7406479448
11
327.2981257557
21
199.7406479448
0
LINE
5
436
100
AcDbEntity
8
0
100
AcDbLine
62
7
6
CONTINUOUS
10
337.9981257557
20
199.7406479448
11
375.6481257557
21
199.7406479448
0
LINE
5
437
100
AcDbEntity
8
0
100
AcDbLine
62
7
6
CONTINUOUS
10
345.4481257557
20
203.1906479448
11
343.8481257557
21
203.1906479448
0
LINE
5
438
100
AcDbEntity
8
0
100
AcDbLine
62
7
6
CONTINUOUS
10
319.8481257557
20
203.1906479448
11
321.4481257557
21
203.1906479448
0
LINE
5
439
100
AcDbEntity
8
0
100
AcDbLine
62
7
6
CONTINUOUS
10
289.6786697930
20
203.2406479448
11
290.8175817185
21
203.2406479448
0
LINE
5
43A
100
AcDbEntity
8
0
100
AcDbLine
62
7
6
CONTINUOUS
10
291.1791841455
20
203.2406479448
11
319.8481257557
21
203.2406479448
0
LINE
5
43B
100
AcDbEntity
8
0
100
AcDbLine
62
7
6
CONTINUOUS
10
321.4481257557
20
203.2406479448
11
327.2981257557
21
203.2406479448
0
LINE
5
43C
100
AcDbEntity
8
0
100
AcDbLine
62
7
6
CONTINUOUS
10
337.9981257557
20
203.2406479448
11
343.8481257557
21
203.2406479448
0
LINE
5
43D
100
AcDbEntity
8
0
100
AcDbLine
62
7
6
CONTINUOUS
10
345.4481257557
20
203.2406479448
11
374.1170673660
21
203.2406479448
0
LINE
5
43E
100
AcDbEntity
8
0
100
AcDbLine
62
7
6
CONTINUOUS
10
374.4786697930
20
203.2406479448
11
375.6175817185
21
203.2406479448
0
LINE
5
43F
100
AcDbEntity
8
0
100
AcDbLine
62
9
6
CONTINUOUS
10
289.7281257557
20
203.6906479448
11
290.7681257557
21
203.6906479448
0
LINE
5
440
100
AcDbEntity
8
0
100
AcDbLine
62
9
6
CONTINUOUS
10
374.5281257557
20
203.6906479448
11
375.5681257557
21
203.6906479448
0
LINE
5
441
100
AcDbEntity
8
0
100
AcDbLine
62
7
6
CONTINUOUS
10
337.3481257557
20
203.8406479448
11
327.9481257557
21
203.8406479448
0
LINE
5
442
100
AcDbEntity
8
0
100
AcDbLine
62
7
6
CONTINUOUS
10
289.9781257557
20
203.9406479448
11
290.5181257557
21
203.9406479448
0
LINE
5
443
100
AcDbEntity
8
0
100
AcDbLine
62
7
6
CONTINUOUS
10
374.7781257557
20
203.9406479448
11
375.3181257557
21
203.9406479448
0
LINE
5
444
100
AcDbEntity
8
0
100
AcDbLine
62
7
6
CONTINUOUS
10
319.8481257557
20
238.6906479448
11
319.8481257557
21
203.1906479448
0
LINE
5
445
100
AcDbEntity
8
DEFAULT_1
100
AcDbLine
62
2
6
CENTER
10
320.6481257557
20
243.6906479448
11
320.6481257557
21
198.1906479448
0
LINE
5
446
100
AcDbEntity
8
0
100
AcDbLine
62
7
6
CONTINUOUS
10
321.4481257557
20
238.6906479448
11
321.4481257557
21
203.1906479448
0
LINE
5
447
100
AcDbEntity
8
0
100
AcDbLine
62
9
6
CONTINUOUS
10
327.3810373142
20
207.9906479448
11
327.9481257557
21
207.9906479448
0
LINE
5
448
100
AcDbEntity
8
0
100
AcDbLine
62
9
6
CONTINUOUS
10
337.3481257557
20
207.9906479448
11
337.9152141973
21
207.9906479448
0
LINE
5
449
100
AcDbEntity
8
0
100
AcDbLine
62
9
6
CONTINUOUS
10
327.9481257557
20
208.0614844801
11
337.3481257557
21
208.0614844801
0
LINE
5
44A
100
AcDbEntity
8
0
100
AcDbLine
62
7
6
CONTINUOUS
10
327.3854010804
20
208.2406479448
11
337.9108504311
21
208.2406479448
0
LINE
5
44B
100
AcDbEntity
8
0
100
AcDbLine
62
7
6
CONTINUOUS
10
327.2981257557
20
195.9406479448
11
327.2981257557
21
203.2406479448
0
LINE
5
44C
100
AcDbEntity
8
0
100
AcDbLine
62
7
6
CONTINUOUS
10
327.9481257557
20
203.8406479448
11
327.9481257557
21
208.2406479448
0
LINE
5
44D
100
AcDbEntity
8
0
100
AcDbLine
62
7
6
CONTINUOUS
10
327.2981257557
20
203.2406479448
11
327.3854010804
21
208.2406479448
0
LINE
5
44E
100
AcDbEntity
8
DEFAULT_1
100
AcDbLine
62
2
6
CENTER
10
332.6481257557
20
248.5906479448
11
332.6481257557
21
198.1906479448
0
LINE
5
44F
100
AcDbEntity
8
0
100
AcDbLine
62
7
6
CONTINUOUS
10
315.5481257557
20
195.9406479448
11
314.6481257557
21
195.0406479448
0
LINE
5
450
100
AcDbEntity
8
0
100
AcDbLine
62
7
6
CONTINUOUS
10
337.9981257557
20
203.2406479448
11
337.9108504311
21
208.2406479448
0
LINE
5
451
100
AcDbEntity
8
0
100
AcDbLine
62
7
6
CONTINUOUS
10
337.3481257557
20
203.8406479448
11
337.3481257557
21
208.2436960596
0
LINE
5
452
100
AcDbEntity
8
0
100
AcDbLine
62
7
6
CONTINUOUS
10
337.9981257557
20
195.9406479448
11
337.9981257557
21
203.2406479448
0
LINE
5
453
100
AcDbEntity
8
0
100
AcDbLine
62
7
6
CONTINUOUS
10
301.5481257557
20
221.2906479448
11
319.8481257557
21
221.2906479448
0
LINE
5
454
100
AcDbEntity
8
0
100
AcDbLine
62
7
6
CONTINUOUS
10
321.4481257557
20
221.2906479448
11
343.8481257557
21
221.2906479448
0
LINE
5
455
100
AcDbEntity
8
0
100
AcDbLine
62
7
6
CONTINUOUS
10
345.4481257557
20
221.2906479448
11
363.7481257557
21
221.2906479448
0
LINE
5
456
100
AcDbEntity
8
0
100
AcDbLine
62
7
6
CONTINUOUS
10
301.5481257557
20
222.8906479448
11
319.8481257557
21
222.8906479448
0
LINE
5
457
100
AcDbEntity
8
0
100
AcDbLine
62
7
6
CONTINUOUS
10
321.4481257557
20
222.8906479448
11
343.8481257557
21
222.8906479448
0
LINE
5
458
100
AcDbEntity
8
0
100
AcDbLine
62
7
6
CONTINUOUS
10
345.4481257557
20
222.8906479448
11
363.7481257557
21
222.8906479448
0
LINE
5
459
100
AcDbEntity
8
0
100
AcDbLine
62
7
6
CONTINUOUS
10
343.8481257557
20
203.1906479448
11
343.8481257557
21
238.6906479448
0
LINE
5
45A
100
AcDbEntity
8
DEFAULT_1
100
AcDbLine
62
2
6
CENTER
10
344.6481257557
20
243.6906479448
11
344.6481257557
21
198.1906479448
0
LINE
5
45B
100
AcDbEntity
8
0
100
AcDbLine
62
7
6
CONTINUOUS
10
345.4481257557
20
203.1906479448
11
345.4481257557
21
238.6906479448
0
LINE
5
45C
100
AcDbEntity
8
0
100
AcDbLine
62
7
6
CONTINUOUS
10
348.1703085226
20
193.3987546329
11
348.1808705488
21
192.1884663109
0
LINE
5
45D
100
AcDbEntity
8
0
100
AcDbLine
62
9
6
CONTINUOUS
10
348.4190457509
20
193.5423631386
11
348.4308610296
21
192.1884663109
0
LINE
5
45E
100
AcDbEntity
8
0
100
AcDbLine
62
9
6
CONTINUOUS
10
348.4308610296
20
192.1884663109
11
348.4308610296
21
191.9406479448
0
LINE
5
45F
100
AcDbEntity
8
0
100
AcDbLine
62
7
6
CONTINUOUS
10
350.1481257557
20
195.9406479448
11
350.1481257557
21
190.9406479448
0
LINE
5
460
100
AcDbEntity
8
0
100
AcDbLine
62
7
6
CONTINUOUS
10
301.3981257557
20
237.5906479448
11
319.8481257557
21
237.5906479448
0
LINE
5
461
100
AcDbEntity
8
0
100
AcDbLine
62
7
6
CONTINUOUS
10
321.4481257557
20
237.5906479448
11
343.8481257557
21
237.5906479448
0
LINE
5
462
100
AcDbEntity
8
0
100
AcDbLine
62
7
6
CONTINUOUS
10
345.4481257557
20
237.5906479448
11
363.8981257557
21
237.5906479448
0
LINE
5
463
100
AcDbEntity
8
0
100
AcDbLine
62
7
6
CONTINUOUS
10
353.4981257557
20
238.9906479448
11
353.4981257557
21
240.5906479448
0
LINE
5
464
100
AcDbEntity
8
0
100
AcDbLine
62
7
6
CONTINUOUS
10
353.9981257557
20
243.5906479448
11
353.9981257557
21
237.5906479448
0
LINE
5
465
100
AcDbEntity
8
0
100
AcDbLine
62
7
6
CONTINUOUS
10
345.4481257557
20
238.6906479448
11
343.8481257557
21
238.6906479448
0
LINE
5
466
100
AcDbEntity
8
0
100
AcDbLine
62
7
6
CONTINUOUS
10
319.8481257557
20
238.6906479448
11
321.4481257557
21
238.6906479448
0
LINE
5
467
100
AcDbEntity
8
0
100
AcDbLine
62
7
6
CONTINUOUS
10
311.7981257557
20
238.9906479448
11
353.4981257557
21
238.9906479448
0
LINE
5
468
100
AcDbEntity
8
0
100
AcDbLine
62
7
6
CONTINUOUS
10
311.7981257557
20
240.5906479448
11
353.4981257557
21
240.5906479448
0
LINE
5
469
100
AcDbEntity
8
0
100
AcDbLine
62
7
6
CONTINUOUS
10
311.2981257557
20
243.5906479448
11
353.9981257557
21
243.5906479448
0
LINE
5
46A
100
AcDbEntity
8
0
100
AcDbLine
62
7
6
CONTINUOUS
10
348.1703085226
20
193.3987546329
11
350.1481257557
21
194.5406479448
0
LINE
5
46B
100
AcDbEntity
8
0
100
AcDbLine
62
7
6
CONTINUOUS
10
363.7481257557
20
221.2906479448
11
363.7481257557
21
222.8906479448
0
LINE
5
46C
100
AcDbEntity
8
0
100
AcDbLine
62
7
6
CONTINUOUS
10
363.8981257557
20
237.5906479448
11
363.8981257557
21
203.2406479448
0
LINE
5
46D
100
AcDbEntity
8
0
100
AcDbLine
62
7
6
CONTINUOUS
10
374.1175817185
20
203.2406479448
11
374.1481257557
21
199.7406479448
0
LINE
5
46E
100
AcDbEntity
8
0
100
AcDbLine
62
7
6
CONTINUOUS
10
375.6175817185
20
203.2406479448
11
375.6481257557
21
199.7406479448
0
LINE
5
46F
100
AcDbEntity
8
0
100
AcDbLine
62
9
6
CONTINUOUS
10
373.6481257557
20
203.2406479448
11
373.6481257557
21
199.7406479448
0
LINE
5
470
100
AcDbEntity
8
0
100
AcDbLine
62
7
6
CONTINUOUS
10
374.5281257557
20
203.2406479448
11
374.5281257557
21
203.6906479448
0
LINE
5
471
100
AcDbEntity
8
0
100
AcDbLine
62
9
6
CONTINUOUS
10
374.7781257557
20
203.2406479448
11
374.7781257557
21
203.9406479448
0
LINE
5
472
100
AcDbEntity
8
0
100
AcDbLine
62
9
6
CONTINUOUS
10
375.3181257557
20
203.2406479448
11
375.3181257557
21
203.9406479448
0
LINE
5
473
100
AcDbEntity
8
0
100
AcDbLine
62
7
6
CONTINUOUS
10
375.5681257557
20
203.2406479448
11
375.5681257557
21
203.6906479448
0
LINE
5
474
100
AcDbEntity
8
0
100
AcDbLine
62
7
6
CONTINUOUS
10
374.4786697930
20
203.2406479448
11
374.4481257557
21
199.7406479448
0
LINE
5
475
100
AcDbEntity
8
0
100
AcDbLine
62
9
6
CONTINUOUS
10
375.0713483577
20
190.9406479448
11
375.1481447942
21
199.7406479448
0
LINE
5
476
100
AcDbEntity
8
0
100
AcDbLine
62
7
6
CONTINUOUS
10
375.5713293192
20
190.9406479448
11
375.6481257557
21
199.7406479448
0
LINE
5
477
100
AcDbEntity
8
0
100
AcDbLine
62
7
6
CONTINUOUS
10
48.5937210720
20
76.0607393896
11
48.5937210720
21
113.2107584280
0
LINE
5
478
100
AcDbEntity
8
0
100
AcDbLine
62
7
6
CONTINUOUS
10
48.5937210720
20
123.9107584280
11
48.5937210720
21
161.0607774665
0
LINE
5
479
100
AcDbEntity
8
0
100
AcDbLine
62
7
6
CONTINUOUS
10
49.0437210720
20
113.8607584280
11
49.0437210720
21
123.2607584280
0
LINE
5
47A
100
AcDbEntity
8
0
100
AcDbLine
62
7
6
CONTINUOUS
10
49.8437210720
20
131.3607584280
11
49.8437210720
21
129.7607584280
0
LINE
5
47B
100
AcDbEntity
8
0
100
AcDbLine
62
7
6
CONTINUOUS
10
49.8437210720
20
105.7607584280
11
49.8437210720
21
107.3607584280
0
LINE
5
47C
100
AcDbEntity
8
0
100
AcDbLine
62
7
6
CONTINUOUS
10
50.2437210720
20
159.5607584280
11
50.2437210720
21
131.3607584280
0
LINE
5
47D
100
AcDbEntity
8
0
100
AcDbLine
62
7
6
CONTINUOUS
10
50.2437210720
20
129.7607584280
11
50.2437210720
21
123.9107584280
0
LINE
5
47E
100
AcDbEntity
8
0
100
AcDbLine
62
7
6
CONTINUOUS
10
50.2437210720
20
113.2107584280
11
50.2437210720
21
107.3607584280
0
LINE
5
47F
100
AcDbEntity
8
0
100
AcDbLine
62
7
6
CONTINUOUS
10
50.2437210720
20
105.7607584280
11
50.2437210720
21
77.5607584280
0
LINE
5
480
100
AcDbEntity
8
0
100
AcDbLine
62
7
6
CONTINUOUS
10
50.2742651093
20
159.5607584280
11
50.2742651093
21
131.3607584280
0
LINE
5
481
100
AcDbEntity
8
0
100
AcDbLine
62
7
6
CONTINUOUS
10
50.2742651093
20
129.7607584280
11
50.2742651093
21
123.9107584280
0
LINE
5
482
100
AcDbEntity
8
0
100
AcDbLine
62
7
6
CONTINUOUS
10
50.2742651093
20
113.2107584280
11
50.2742651093
21
107.3607584280
0
LINE
5
483
100
AcDbEntity
8
0
100
AcDbLine
62
7
6
CONTINUOUS
10
50.2742651093
20
105.7607584280
11
50.2742651093
21
77.5607584280
0
LINE
5
484
100
AcDbEntity
8
0
100
AcDbLine
62
9
6
CONTINUOUS
10
50.2907864120
20
123.2607584280
11
50.2907864120
21
113.8607584280
0
LINE
5
485
100
AcDbEntity
8
0
100
AcDbLine
62
7
6
CONTINUOUS
10
50.3437210720
20
149.6607584280
11
50.3437210720
21
131.3607584280
0
LINE
5
486
100
AcDbEntity
8
0
100
AcDbLine
62
7
6
CONTINUOUS
10
50.3437210720
20
129.7607584280
11
50.3437210720
21
107.3607584280
0
LINE
5
487
100
AcDbEntity
8
0
100
AcDbLine
62
7
6
CONTINUOUS
10
50.3437210720
20
105.7607584280
11
50.3437210720
21
87.4607584280
0
LINE
5
488
100
AcDbEntity
8
0
100
AcDbLine
62
7
6
CONTINUOUS
10
50.4437210720
20
139.4107584280
11
50.4437210720
21
97.7107584280
0
LINE
5
489
100
AcDbEntity
8
0
100
AcDbLine
62
7
6
CONTINUOUS
10
51.2131770347
20
77.5607584280
11
51.2131770347
21
87.4607584280
0
LINE
5
48A
100
AcDbEntity
8
0
100
AcDbLine
62
7
6
CONTINUOUS
10
51.2131770347
20
149.6607584280
11
51.2131770347
21
159.5607584280
0
LINE
5
48B
100
AcDbEntity
8
0
100
AcDbLine
62
7
6
CONTINUOUS
10
51.2275763666
20
158.7446137226
11
51.2275763666
21
157.8769031334
0
LINE
5
48C
100
AcDbEntity
8
0
100
AcDbLine
62
7
6
CONTINUOUS
10
51.2275763666
20
79.2446137226
11
51.2275763666
21
78.3769031334
0
LINE
5
48D
100
AcDbEntity
8
0
100
AcDbLine
62
7
6
CONTINUOUS
10
51.2437210720
20
76.7607584280
11
51.2437210720
21
78.3607584280
0
LINE
5
48E
100
AcDbEntity
8
0
100
AcDbLine
62
7
6
CONTINUOUS
10
51.2437210720
20
79.2607584280
11
51.2437210720
21
86.1607584280
0
LINE
5
48F
100
AcDbEntity
8
0
100
AcDbLine
62
7
6
CONTINUOUS
10
51.2437210720
20
87.2607584280
11
51.2437210720
21
87.4607584280
0
LINE
5
490
100
AcDbEntity
8
0
100
AcDbLine
62
7
6
CONTINUOUS
10
51.2437210720
20
149.6607584280
11
51.2437210720
21
149.8607584280
0
LINE
5
491
100
AcDbEntity
8
0
100
AcDbLine
62
7
6
CONTINUOUS
10
51.2437210720
20
150.9607584280
11
51.2437210720
21
157.8607584280
0
LINE
5
492
100
AcDbEntity
8
0
100
AcDbLine
62
7
6
CONTINUOUS
10
51.2437210720
20
158.7607584280
11
51.2437210720
21
160.3607584280
0
LINE
5
493
100
AcDbEntity
8
0
100
AcDbLine
62
7
6
CONTINUOUS
10
51.4937210720
20
159.5607584280
11
51.4937210720
21
149.6607584280
0
LINE
5
494
100
AcDbEntity
8
0
100
AcDbLine
62
7
6
CONTINUOUS
10
51.4937210720
20
87.4607584280
11
51.4937210720
21
77.5607584280
0
LINE
5
495
100
AcDbEntity
8
0
100
AcDbLine
62
9
6
CONTINUOUS
10
55.8937210720
20
75.5913024653
11
55.8937210720
21
75.5607584280
0
LINE
5
496
100
AcDbEntity
8
0
100
AcDbLine
62
9
6
CONTINUOUS
10
55.8937210720
20
76.7302143908
11
55.8937210720
21
76.7607584280
0
LINE
5
497
100
AcDbEntity
8
0
100
AcDbLine
62
9
6
CONTINUOUS
10
55.8937210720
20
160.3607584280
11
55.8937210720
21
160.3913024653
0
LINE
5
498
100
AcDbEntity
8
0
100
AcDbLine
62
7
6
CONTINUOUS
10
51.2437210720
20
158.7607584280
11
51.2275763666
21
158.7446137226
0
LINE
5
499
100
AcDbEntity
8
0
100
AcDbLine
62
7
6
CONTINUOUS
10
51.2437210720
20
78.3607584280
11
51.2275763666
21
78.3769031334
0
LINE
5
49A
100
AcDbEntity
8
0
100
AcDbLine
62
7
6
CONTINUOUS
10
59.2937210720
20
149.8107584280
11
59.2937210720
21
139.4107584280
0
LINE
5
49B
100
AcDbEntity
8
0
100
AcDbLine
62
7
6
CONTINUOUS
10
59.2937210720
20
97.7107584280
11
59.2937210720
21
87.3107584280
0
LINE
5
49C
100
AcDbEntity
8
0
100
AcDbLine
62
7
6
CONTINUOUS
10
60.8937210720
20
149.8107584280
11
60.8937210720
21
139.4107584280
0
LINE
5
49D
100
AcDbEntity
8
0
100
AcDbLine
62
7
6
CONTINUOUS
10
60.8937210720
20
97.7107584280
11
60.8937210720
21
87.3107584280
0
LINE
5
49E
100
AcDbEntity
8
0
100
AcDbLine
62
7
6
CONTINUOUS
10
74.0437210720
20
149.8107584280
11
74.0437210720
21
139.4107584280
0
LINE
5
49F
100
AcDbEntity
8
0
100
AcDbLine
62
7
6
CONTINUOUS
10
74.0437210720
20
97.7107584280
11
74.0437210720
21
87.3107584280
0
LINE
5
4A0
100
AcDbEntity
8
0
100
AcDbLine
62
7
6
CONTINUOUS
10
75.6437210720
20
149.8107584280
11
75.6437210720
21
139.4107584280
0
LINE
5
4A1
100
AcDbEntity
8
0
100
AcDbLine
62
7
6
CONTINUOUS
10
75.6437210720
20
97.7107584280
11
75.6437210720
21
87.3107584280
0
LINE
5
4A2
100
AcDbEntity
8
0
100
AcDbLine
62
7
6
CONTINUOUS
10
88.7937210720
20
149.8107584280
11
88.7937210720
21
139.4107584280
0
LINE
5
4A3
100
AcDbEntity
8
0
100
AcDbLine
62
7
6
CONTINUOUS
10
88.7937210720
20
97.7107584280
11
88.7937210720
21
87.3107584280
0
LINE
5
4A4
100
AcDbEntity
8
0
100
AcDbLine
62
7
6
CONTINUOUS
10
90.3937210720
20
149.8107584280
11
90.3937210720
21
139.4107584280
0
LINE
5
4A5
100
AcDbEntity
8
0
100
AcDbLine
62
7
6
CONTINUOUS
10
90.3937210720
20
97.7107584280
11
90.3937210720
21
87.3107584280
0
LINE
5
4A6
100
AcDbEntity
8
0
100
AcDbLine
62
7
6
CONTINUOUS
10
98.4437210720
20
149.6607584280
11
98.4437210720
21
148.1607584280
0
LINE
5
4A7
100
AcDbEntity
8
0
100
AcDbLine
62
7
6
CONTINUOUS
10
98.4437210720
20
87.4607584280
11
98.4437210720
21
88.9607584280
0
LINE
5
4A8
100
AcDbEntity
8
0
100
AcDbLine
62
7
6
CONTINUOUS
10
100.3437210720
20
161.2307584280
11
100.3437210720
21
160.6907584280
0
LINE
5
4A9
100
AcDbEntity
8
0
100
AcDbLine
62
7
6
CONTINUOUS
10
100.3437210720
20
76.4307584280
11
100.3437210720
21
75.8907584280
0
LINE
5
4AA
100
AcDbEntity
8
0
100
AcDbLine
62
9
6
CONTINUOUS
10
100.5937210720
20
75.6407584280
11
100.5937210720
21
76.6807584280
0
LINE
5
4AB
100
AcDbEntity
8
0
100
AcDbLine
62
9
6
CONTINUOUS
10
100.5937210720
20
160.4407584280
11
100.5937210720
21
161.4807584280
0
LINE
5
4AC
100
AcDbEntity
8
0
100
AcDbLine
62
9
6
CONTINUOUS
10
101.5937210720
20
75.6407584280
11
101.5937210720
21
76.6807584280
0
LINE
5
4AD
100
AcDbEntity
8
0
100
AcDbLine
62
9
6
CONTINUOUS
10
101.5937210720
20
160.4407584280
11
101.5937210720
21
161.4807584280
0
LINE
5
4AE
100
AcDbEntity
8
0
100
AcDbLine
62
7
6
CONTINUOUS
10
101.8437210720
20
75.8907584280
11
101.8437210720
21
76.4307584280
0
LINE
5
4AF
100
AcDbEntity
8
0
100
AcDbLine
62
7
6
CONTINUOUS
10
101.8437210720
20
160.6907584280
11
101.8437210720
21
161.2307584280
0
LINE
5
4B0
100
AcDbEntity
8
0
100
AcDbLine
62
7
6
CONTINUOUS
10
103.7437210720
20
149.6607584280
11
103.7437210720
21
148.1607584280
0
LINE
5
4B1
100
AcDbEntity
8
0
100
AcDbLine
62
7
6
CONTINUOUS
10
103.7437210720
20
87.4607584280
11
103.7437210720
21
88.9607584280
0
LINE
5
4B2
100
AcDbEntity
8
0
100
AcDbLine
62
7
6
CONTINUOUS
10
51.2437210720
20
79.2607584280
11
51.2275763666
21
79.2446137226
0
LINE
5
4B3
100
AcDbEntity
8
0
100
AcDbLine
62
7
6
CONTINUOUS
10
51.2437210720
20
157.8607584280
11
51.2275763666
21
157.8769031334
0
LINE
5
4B4
100
AcDbEntity
8
0
100
AcDbLine
62
7
6
CONTINUOUS
10
111.7937210720
20
149.8107584280
11
111.7937210720
21
139.4107584280
0
LINE
5
4B5
100
AcDbEntity
8
0
100
AcDbLine
62
7
6
CONTINUOUS
10
111.7937210720
20
97.7107584280
11
111.7937210720
21
87.3107584280
0
LINE
5
4B6
100
AcDbEntity
8
0
100
AcDbLine
62
7
6
CONTINUOUS
10
113.3937210720
20
149.8107584280
11
113.3937210720
21
139.4107584280
0
LINE
5
4B7
100
AcDbEntity
8
0
100
AcDbLine
62
7
6
CONTINUOUS
10
113.3937210720
20
97.7107584280
11
113.3937210720
21
87.3107584280
0
LINE
5
4B8
100
AcDbEntity
8
0
100
AcDbLine
62
7
6
CONTINUOUS
10
142.0396103707
20
160.3485408145
11
142.0937210720
21
160.3755941033
0
LINE
5
4B9
100
AcDbEntity
8
0
100
AcDbLine
62
7
6
CONTINUOUS
10
258.0937401105
20
75.5607584280
11
165.1233946824
21
75.5607584280
0
LINE
5
4BA
100
AcDbEntity
8
0
100
AcDbLine
62
7
6
CONTINUOUS
10
162.0640474616
20
75.5607584280
11
145.1233946824
21
75.5607584280
0
LINE
5
4BB
100
AcDbEntity
8
0
100
AcDbLine
62
7
6
CONTINUOUS
10
142.0640474616
20
75.5607584280
11
49.0937020335
21
75.5607584280
0
LINE
5
4BC
100
AcDbEntity
8
0
100
AcDbLine
62
7
6
CONTINUOUS
10
55.8937210720
20
75.5913024653
11
251.2937210720
21
75.5913024653
0
LINE
5
4BD
100
AcDbEntity
8
0
100
AcDbLine
62
7
6
CONTINUOUS
10
100.5937210720
20
75.6407584280
11
101.5937210720
21
75.6407584280
0
LINE
5
4BE
100
AcDbEntity
8
0
100
AcDbLine
62
7
6
CONTINUOUS
10
153.0937210720
20
75.6407584280
11
154.0937210720
21
75.6407584280
0
LINE
5
4BF
100
AcDbEntity
8
0
100
AcDbLine
62
7
6
CONTINUOUS
10
205.5937210720
20
75.6407584280
11
206.5937210720
21
75.6407584280
0
LINE
5
4C0
100
AcDbEntity
8
0
100
AcDbLine
62
9
6
CONTINUOUS
10
100.3437210720
20
75.8907584280
11
101.8437210720
21
75.8907584280
0
LINE
5
4C1
100
AcDbEntity
8
0
100
AcDbLine
62
9
6
CONTINUOUS
10
152.8437210720
20
75.8907584280
11
154.3437210720
21
75.8907584280
0
LINE
5
4C2
100
AcDbEntity
8
0
100
AcDbLine
62
9
6
CONTINUOUS
10
205.3437210720
20
75.8907584280
11
206.8437210720
21
75.8907584280
0
LINE
5
4C3
100
AcDbEntity
8
0
100
AcDbLine
62
9
6
CONTINUOUS
10
100.3437210720
20
76.4307584280
11
101.8437210720
21
76.4307584280
0
LINE
5
4C4
100
AcDbEntity
8
0
100
AcDbLine
62
9
6
CONTINUOUS
10
152.8437210720
20
76.4307584280
11
154.3437210720
21
76.4307584280
0
LINE
5
4C5
100
AcDbEntity
8
0
100
AcDbLine
62
9
6
CONTINUOUS
10
205.3437210720
20
76.4307584280
11
206.8437210720
21
76.4307584280
0
LINE
5
4C6
100
AcDbEntity
8
0
100
AcDbLine
62
7
6
CONTINUOUS
10
206.5937210720
20
76.6807584280
11
205.5937210720
21
76.6807584280
0
LINE
5
4C7
100
AcDbEntity
8
0
100
AcDbLine
62
7
6
CONTINUOUS
10
154.0937210720
20
76.6807584280
11
153.0937210720
21
76.6807584280
0
LINE
5
4C8
100
AcDbEntity
8
0
100
AcDbLine
62
7
6
CONTINUOUS
10
101.5937210720
20
76.6807584280
11
100.5937210720
21
76.6807584280
0
LINE
5
4C9
100
AcDbEntity
8
0
100
AcDbLine
62
7
6
CONTINUOUS
10
251.2937210720
20
76.7302143908
11
55.8937210720
21
76.7302143908
0
LINE
5
4CA
100
AcDbEntity
8
0
100
AcDbLine
62
7
6
CONTINUOUS
10
51.2437210720
20
76.7607584280
11
55.8937210720
21
76.7607584280
0
LINE
5
4CB
100
AcDbEntity
8
0
100
AcDbLine
62
7
6
CONTINUOUS
10
251.2937210720
20
76.7607584280
11
255.9437210720
21
76.7607584280
0
LINE
5
4CC
100
AcDbEntity
8
0
100
AcDbLine
62
7
6
CONTINUOUS
10
51.2437210720
20
76.7729760429
11
255.9437210720
21
76.7729760429
0
LINE
5
4CD
100
AcDbEntity
8
0
100
AcDbLine
62
9
6
CONTINUOUS
10
255.9742651093
20
77.5607584280
11
255.9437210720
21
77.5607584280
0
LINE
5
4CE
100
AcDbEntity
8
0
100
AcDbLine
62
9
6
CONTINUOUS
10
50.2742651093
20
77.5607584280
11
50.2437210720
21
77.5607584280
0
LINE
5
4CF
100
AcDbEntity
8
0
100
AcDbLine
62
9
6
CONTINUOUS
10
51.2131770347
20
77.5607584280
11
51.2437210720
21
77.5607584280
0
LINE
5
4D0
100
AcDbEntity
8
0
100
AcDbLine
62
7
6
CONTINUOUS
10
51.4937210720
20
77.5607584280
11
255.6937210720
21
77.5607584280
0
LINE
5
4D1
100
AcDbEntity
8
0
100
AcDbLine
62
9
6
CONTINUOUS
10
256.9131770347
20
77.5607584280
11
256.9437210720
21
77.5607584280
0
LINE
5
4D2
100
AcDbEntity
8
0
100
AcDbLine
62
7
6
CONTINUOUS
10
51.2437210720
20
78.3485408131
11
51.4937210720
21
78.3485408131
0
LINE
5
4D3
100
AcDbEntity
8
0
100
AcDbLine
62
7
6
CONTINUOUS
10
255.6937210720
20
78.3485408131
11
255.9437210720
21
78.3485408131
0
LINE
5
4D4
100
AcDbEntity
8
0
100
AcDbLine
62
7
6
CONTINUOUS
10
51.2275763666
20
78.3769031334
11
51.4937210720
21
78.3769031334
0
LINE
5
4D5
100
AcDbEntity
8
0
100
AcDbLine
62
7
6
CONTINUOUS
10
255.6937210720
20
78.3769031334
11
255.9598657774
21
78.3769031334
0
LINE
5
4D6
100
AcDbEntity
8
0
100
AcDbLine
62
7
6
CONTINUOUS
10
255.9598657774
20
79.2446137226
11
255.6937210720
21
79.2446137226
0
LINE
5
4D7
100
AcDbEntity
8
0
100
AcDbLine
62
7
6
CONTINUOUS
10
252.6762977998
20
79.2446137226
11
252.0111443442
21
79.2446137226
0
LINE
5
4D8
100
AcDbEntity
8
0
100
AcDbLine
62
7
6
CONTINUOUS
10
247.6762977998
20
79.2446137226
11
247.0111443442
21
79.2446137226
0
LINE
5
4D9
100
AcDbEntity
8
0
100
AcDbLine
62
7
6
CONTINUOUS
10
242.6762977998
20
79.2446137226
11
242.0111443442
21
79.2446137226
0
LINE
5
4DA
100
AcDbEntity
8
0
100
AcDbLine
62
7
6
CONTINUOUS
10
237.6762977998
20
79.2446137226
11
237.0111443442
21
79.2446137226
0
LINE
5
4DB
100
AcDbEntity
8
0
100
AcDbLine
62
7
6
CONTINUOUS
10
232.6762977998
20
79.2446137226
11
232.0111443442
21
79.2446137226
0
LINE
5
4DC
100
AcDbEntity
8
0
100
AcDbLine
62
7
6
CONTINUOUS
10
227.6762977998
20
79.2446137226
11
227.0111443442
21
79.2446137226
0
LINE
5
4DD
100
AcDbEntity
8
0
100
AcDbLine
62
7
6
CONTINUOUS
10
222.6762977998
20
79.2446137226
11
222.0111443442
21
79.2446137226
0
LINE
5
4DE
100
AcDbEntity
8
0
100
AcDbLine
62
7
6
CONTINUOUS
10
217.6762977998
20
79.2446137226
11
217.0111443442
21
79.2446137226
0
LINE
5
4DF
100
AcDbEntity
8
0
100
AcDbLine
62
7
6
CONTINUOUS
10
212.6762977998
20
79.2446137226
11
212.0111443442
21
79.2446137226
0
LINE
5
4E0
100
AcDbEntity
8
0
100
AcDbLine
62
7
6
CONTINUOUS
10
200.1762977998
20
79.2446137226
11
199.5111443442
21
79.2446137226
0
LINE
5
4E1
100
AcDbEntity
8
0
100
AcDbLine
62
7
6
CONTINUOUS
10
195.1762977998
20
79.2446137226
11
194.5111443442
21
79.2446137226
0
LINE
5
4E2
100
AcDbEntity
8
0
100
AcDbLine
62
7
6
CONTINUOUS
10
190.1762977998
20
79.2446137226
11
189.5111443442
21
79.2446137226
0
LINE
5
4E3
100
AcDbEntity
8
0
100
AcDbLine
62
7
6
CONTINUOUS
10
185.1762977998
20
79.2446137226
11
184.5111443442
21
79.2446137226
0
LINE
5
4E4
100
AcDbEntity
8
0
100
AcDbLine
62
7
6
CONTINUOUS
10
180.1762977998
20
79.2446137226
11
179.5111443442
21
79.2446137226
0
LINE
5
4E5
100
AcDbEntity
8
0
100
AcDbLine
62
7
6
CONTINUOUS
10
175.1762977998
20
79.2446137226
11
174.5111443442
21
79.2446137226
0
LINE
5
4E6
100
AcDbEntity
8
0
100
AcDbLine
62
7
6
CONTINUOUS
10
170.1762977998
20
79.2446137226
11
169.5111443442
21
79.2446137226
0
LINE
5
4E7
100
AcDbEntity
8
0
100
AcDbLine
62
7
6
CONTINUOUS
10
165.1762977998
20
79.2446137226
11
164.5111443442
21
79.2446137226
0
LINE
5
4E8
100
AcDbEntity
8
0
100
AcDbLine
62
7
6
CONTINUOUS
10
160.1762977998
20
79.2446137226
11
159.5111443442
21
79.2446137226
0
LINE
5
4E9
100
AcDbEntity
8
0
100
AcDbLine
62
7
6
CONTINUOUS
10
147.6762977998
20
79.2446137226
11
147.0111443442
21
79.2446137226
0
LINE
5
4EA
100
AcDbEntity
8
0
100
AcDbLine
62
7
6
CONTINUOUS
10
142.6762977998
20
79.2446137226
11
142.0111443442
21
79.2446137226
0
LINE
5
4EB
100
AcDbEntity
8
0
100
AcDbLine
62
7
6
CONTINUOUS
10
137.6762977998
20
79.2446137226
11
137.0111443442
21
79.2446137226
0
LINE
5
4EC
100
AcDbEntity
8
0
100
AcDbLine
62
7
6
CONTINUOUS
10
132.6762977998
20
79.2446137226
11
132.0111443442
21
79.2446137226
0
LINE
5
4ED
100
AcDbEntity
8
0
100
AcDbLine
62
7
6
CONTINUOUS
10
127.6762977998
20
79.2446137226
11
127.0111443442
21
79.2446137226
0
LINE
5
4EE
100
AcDbEntity
8
0
100
AcDbLine
62
7
6
CONTINUOUS
10
122.6762977998
20
79.2446137226
11
122.0111443442
21
79.2446137226
0
LINE
5
4EF
100
AcDbEntity
8
0
100
AcDbLine
62
7
6
CONTINUOUS
10
117.6762977998
20
79.2446137226
11
117.0111443442
21
79.2446137226
0
LINE
5
4F0
100
AcDbEntity
8
0
100
AcDbLine
62
7
6
CONTINUOUS
10
112.6762977998
20
79.2446137226
11
112.0111443442
21
79.2446137226
0
LINE
5
4F1
100
AcDbEntity
8
0
100
AcDbLine
62
7
6
CONTINUOUS
10
107.6762977998
20
79.2446137226
11
107.0111443442
21
79.2446137226
0
LINE
5
4F2
100
AcDbEntity
8
0
100
AcDbLine
62
7
6
CONTINUOUS
10
95.1762977998
20
79.2446137226
11
94.5111443442
21
79.2446137226
0
LINE
5
4F3
100
AcDbEntity
8
0
100
AcDbLine
62
7
6
CONTINUOUS
10
90.1762977998
20
79.2446137226
11
89.5111443442
21
79.2446137226
0
LINE
5
4F4
100
AcDbEntity
8
0
100
AcDbLine
62
7
6
CONTINUOUS
10
85.1762977998
20
79.2446137226
11
84.5111443442
21
79.2446137226
0
LINE
5
4F5
100
AcDbEntity
8
0
100
AcDbLine
62
7
6
CONTINUOUS
10
80.1762977998
20
79.2446137226
11
79.5111443442
21
79.2446137226
0
LINE
5
4F6
100
AcDbEntity
8
0
100
AcDbLine
62
7
6
CONTINUOUS
10
75.1762977998
20
79.2446137226
11
74.5111443442
21
79.2446137226
0
LINE
5
4F7
100
AcDbEntity
8
0
100
AcDbLine
62
7
6
CONTINUOUS
10
70.1762977998
20
79.2446137226
11
69.5111443442
21
79.2446137226
0
LINE
5
4F8
100
AcDbEntity
8
0
100
AcDbLine
62
7
6
CONTINUOUS
10
65.1762977998
20
79.2446137226
11
64.5111443442
21
79.2446137226
0
LINE
5
4F9
100
AcDbEntity
8
0
100
AcDbLine
62
7
6
CONTINUOUS
10
60.1762977998
20
79.2446137226
11
59.5111443442
21
79.2446137226
0
LINE
5
4FA
100
AcDbEntity
8
0
100
AcDbLine
62
7
6
CONTINUOUS
10
55.1762977998
20
79.2446137226
11
54.5111443442
21
79.2446137226
0
LINE
5
4FB
100
AcDbEntity
8
0
100
AcDbLine
62
7
6
CONTINUOUS
10
51.4937210720
20
79.2446137226
11
51.2275763666
21
79.2446137226
0
LINE
5
4FC
100
AcDbEntity
8
0
100
AcDbLine
62
7
6
CONTINUOUS
10
51.2437210720
20
79.2729760429
11
51.4937210720
21
79.2729760429
0
LINE
5
4FD
100
AcDbEntity
8
0
100
AcDbLine
62
7
6
CONTINUOUS
10
54.4533522914
20
79.2729760429
11
55.2340898527
21
79.2729760429
0
LINE
5
4FE
100
AcDbEntity
8
0
100
AcDbLine
62
7
6
CONTINUOUS
10
59.4533522914
20
79.2729760429
11
60.2340898527
21
79.2729760429
0
LINE
5
4FF
100
AcDbEntity
8
0
100
AcDbLine
62
7
6
CONTINUOUS
10
64.4533522914
20
79.2729760429
11
65.2340898527
21
79.2729760429
0
LINE
5
500
100
AcDbEntity
8
0
100
AcDbLine
62
7
6
CONTINUOUS
10
69.4533522914
20
79.2729760429
11
70.2340898527
21
79.2729760429
0
LINE
5
501
100
AcDbEntity
8
0
100
AcDbLine
62
7
6
CONTINUOUS
10
74.4533522914
20
79.2729760429
11
75.2340898527
21
79.2729760429
0
LINE
5
502
100
AcDbEntity
8
0
100
AcDbLine
62
7
6
CONTINUOUS
10
79.4533522914
20
79.2729760429
11
80.2340898527
21
79.2729760429
0
LINE
5
503
100
AcDbEntity
8
0
100
AcDbLine
62
7
6
CONTINUOUS
10
84.4533522914
20
79.2729760429
11
85.2340898527
21
79.2729760429
0
LINE
5
504
100
AcDbEntity
8
0
100
AcDbLine
62
7
6
CONTINUOUS
10
89.4533522914
20
79.2729760429
11
90.2340898527
21
79.2729760429
0
LINE
5
505
100
AcDbEntity
8
0
100
AcDbLine
62
7
6
CONTINUOUS
10
94.4533522914
20
79.2729760429
11
95.2340898527
21
79.2729760429
0
LINE
5
506
100
AcDbEntity
8
0
100
AcDbLine
62
7
6
CONTINUOUS
10
106.9533522914
20
79.2729760429
11
107.7340898527
21
79.2729760429
0
LINE
5
507
100
AcDbEntity
8
0
100
AcDbLine
62
7
6
CONTINUOUS
10
111.9533522914
20
79.2729760429
11
112.7340898527
21
79.2729760429
0
LINE
5
508
100
AcDbEntity
8
0
100
AcDbLine
62
7
6
CONTINUOUS
10
116.9533522914
20
79.2729760429
11
117.7340898527
21
79.2729760429
0
LINE
5
509
100
AcDbEntity
8
0
100
AcDbLine
62
7
6
CONTINUOUS
10
121.9533522914
20
79.2729760429
11
122.7340898527
21
79.2729760429
0
LINE
5
50A
100
AcDbEntity
8
0
100
AcDbLine
62
7
6
CONTINUOUS
10
126.9533522914
20
79.2729760429
11
127.7340898527
21
79.2729760429
0
LINE
5
50B
100
AcDbEntity
8
0
100
AcDbLine
62
7
6
CONTINUOUS
10
131.9533522914
20
79.2729760429
11
132.7340898527
21
79.2729760429
0
LINE
5
50C
100
AcDbEntity
8
0
100
AcDbLine
62
7
6
CONTINUOUS
10
136.9533522914
20
79.2729760429
11
137.7340898527
21
79.2729760429
0
LINE
5
50D
100
AcDbEntity
8
0
100
AcDbLine
62
7
6
CONTINUOUS
10
141.9533522914
20
79.2729760429
11
142.7340898527
21
79.2729760429
0
LINE
5
50E
100
AcDbEntity
8
0
100
AcDbLine
62
7
6
CONTINUOUS
10
146.9533522914
20
79.2729760429
11
147.7340898527
21
79.2729760429
0
LINE
5
50F
100
AcDbEntity
8
0
100
AcDbLine
62
7
6
CONTINUOUS
10
159.4533522914
20
79.2729760429
11
160.2340898527
21
79.2729760429
0
LINE
5
510
100
AcDbEntity
8
0
100
AcDbLine
62
7
6
CONTINUOUS
10
164.4533522914
20
79.2729760429
11
165.2340898527
21
79.2729760429
0
LINE
5
511
100
AcDbEntity
8
0
100
AcDbLine
62
7
6
CONTINUOUS
10
169.4533522914
20
79.2729760429
11
170.2340898527
21
79.2729760429
0
LINE
5
512
100
AcDbEntity
8
0
100
AcDbLine
62
7
6
CONTINUOUS
10
174.4533522914
20
79.2729760429
11
175.2340898527
21
79.2729760429
0
LINE
5
513
100
AcDbEntity
8
0
100
AcDbLine
62
7
6
CONTINUOUS
10
179.4533522914
20
79.2729760429
11
180.2340898527
21
79.2729760429
0
LINE
5
514
100
AcDbEntity
8
0
100
AcDbLine
62
7
6
CONTINUOUS
10
184.4533522914
20
79.2729760429
11
185.2340898527
21
79.2729760429
0
LINE
5
515
100
AcDbEntity
8
0
100
AcDbLine
62
7
6
CONTINUOUS
10
189.4533522914
20
79.2729760429
11
190.2340898527
21
79.2729760429
0
LINE
5
516
100
AcDbEntity
8
0
100
AcDbLine
62
7
6
CONTINUOUS
10
194.4533522914
20
79.2729760429
11
195.2340898527
21
79.2729760429
0
LINE
5
517
100
AcDbEntity
8
0
100
AcDbLine
62
7
6
CONTINUOUS
10
199.4533522914
20
79.2729760429
11
200.2340898527
21
79.2729760429
0
LINE
5
518
100
AcDbEntity
8
0
100
AcDbLine
62
7
6
CONTINUOUS
10
211.9533522914
20
79.2729760429
11
212.7340898527
21
79.2729760429
0
LINE
5
519
100
AcDbEntity
8
0
100
AcDbLine
62
7
6
CONTINUOUS
10
216.9533522914
20
79.2729760429
11
217.7340898527
21
79.2729760429
0
LINE
5
51A
100
AcDbEntity
8
0
100
AcDbLine
62
7
6
CONTINUOUS
10
221.9533522914
20
79.2729760429
11
222.7340898527
21
79.2729760429
0
LINE
5
51B
100
AcDbEntity
8
0
100
AcDbLine
62
7
6
CONTINUOUS
10
226.9533522914
20
79.2729760429
11
227.7340898527
21
79.2729760429
0
LINE
5
51C
100
AcDbEntity
8
0
100
AcDbLine
62
7
6
CONTINUOUS
10
231.9533522914
20
79.2729760429
11
232.7340898527
21
79.2729760429
0
LINE
5
51D
100
AcDbEntity
8
0
100
AcDbLine
62
7
6
CONTINUOUS
10
236.9533522914
20
79.2729760429
11
237.7340898527
21
79.2729760429
0
LINE
5
51E
100
AcDbEntity
8
0
100
AcDbLine
62
7
6
CONTINUOUS
10
241.9533522914
20
79.2729760429
11
242.7340898527
21
79.2729760429
0
LINE
5
51F
100
AcDbEntity
8
0
100
AcDbLine
62
7
6
CONTINUOUS
10
246.9533522914
20
79.2729760429
11
247.7340898527
21
79.2729760429
0
LINE
5
520
100
AcDbEntity
8
0
100
AcDbLine
62
7
6
CONTINUOUS
10
251.9533522914
20
79.2729760429
11
252.7340898527
21
79.2729760429
0
LINE
5
521
100
AcDbEntity
8
0
100
AcDbLine
62
7
6
CONTINUOUS
10
255.6937210720
20
79.2729760429
11
255.9437210720
21
79.2729760429
0
LINE
5
522
100
AcDbEntity
8
0
100
AcDbLine
62
7
6
CONTINUOUS
10
142.0396103707
20
76.7729760429
11
142.0937210720
21
76.7459227528
0
LINE
5
523
100
AcDbEntity
8
0
100
AcDbLine
62
7
6
CONTINUOUS
10
162.0396103707
20
160.3485408145
11
162.0937210720
21
160.3755941033
0
LINE
5
524
100
AcDbEntity
8
0
100
AcDbLine
62
7
6
CONTINUOUS
10
255.9598657774
20
86.1607584280
11
255.6937210720
21
86.1607584280
0
LINE
5
525
100
AcDbEntity
8
0
100
AcDbLine
62
7
6
CONTINUOUS
10
51.4937210720
20
86.1607584280
11
51.2275763666
21
86.1607584280
0
LINE
5
526
100
AcDbEntity
8
0
100
AcDbLine
62
7
6
CONTINUOUS
10
51.2275763666
20
87.2607584280
11
51.4937210720
21
87.2607584280
0
LINE
5
527
100
AcDbEntity
8
0
100
AcDbLine
62
7
6
CONTINUOUS
10
255.6937210720
20
87.2607584280
11
255.9598657774
21
87.2607584280
0
LINE
5
528
100
AcDbEntity
8
0
100
AcDbLine
62
7
6
CONTINUOUS
10
59.2937210720
20
87.3107584280
11
60.8937210720
21
87.3107584280
0
LINE
5
529
100
AcDbEntity
8
0
100
AcDbLine
62
7
6
CONTINUOUS
10
74.0437210720
20
87.3107584280
11
75.6437210720
21
87.3107584280
0
LINE
5
52A
100
AcDbEntity
8
0
100
AcDbLine
62
7
6
CONTINUOUS
10
88.7937210720
20
87.3107584280
11
90.3937210720
21
87.3107584280
0
LINE
5
52B
100
AcDbEntity
8
0
100
AcDbLine
62
7
6
CONTINUOUS
10
111.7937210720
20
87.3107584280
11
113.3937210720
21
87.3107584280
0
LINE
5
52C
100
AcDbEntity
8
0
100
AcDbLine
62
7
6
CONTINUOUS
10
126.5437210720
20
87.3107584280
11
128.1437210720
21
87.3107584280
0
LINE
5
52D
100
AcDbEntity
8
0
100
AcDbLine
62
7
6
CONTINUOUS
10
141.2937210720
20
87.3107584280
11
142.8937210720
21
87.3107584280
0
LINE
5
52E
100
AcDbEntity
8
0
100
AcDbLine
62
7
6
CONTINUOUS
10
164.2937210720
20
87.3107584280
11
165.8937210720
21
87.3107584280
0
LINE
5
52F
100
AcDbEntity
8
0
100
AcDbLine
62
7
6
CONTINUOUS
10
179.0437210720
20
87.3107584280
11
180.6437210720
21
87.3107584280
0
LINE
5
530
100
AcDbEntity
8
0
100
AcDbLine
62
7
6
CONTINUOUS
10
193.7937210720
20
87.3107584280
11
195.3937210720
21
87.3107584280
0
LINE
5
531
100
AcDbEntity
8
0
100
AcDbLine
62
7
6
CONTINUOUS
10
216.7937210720
20
87.3107584280
11
218.3937210720
21
87.3107584280
0
LINE
5
532
100
AcDbEntity
8
0
100
AcDbLine
62
7
6
CONTINUOUS
10
231.5437210720
20
87.3107584280
11
233.1437210720
21
87.3107584280
0
LINE
5
533
100
AcDbEntity
8
0
100
AcDbLine
62
7
6
CONTINUOUS
10
246.2937210720
20
87.3107584280
11
247.8937210720
21
87.3107584280
0
LINE
5
534
100
AcDbEntity
8
0
100
AcDbLine
62
7
6
CONTINUOUS
10
50.3437210720
20
87.4607584280
11
59.2937210720
21
87.4607584280
0
LINE
5
535
100
AcDbEntity
8
0
100
AcDbLine
62
7
6
CONTINUOUS
10
60.8937210720
20
87.4607584280
11
74.0437210720
21
87.4607584280
0
LINE
5
536
100
AcDbEntity
8
0
100
AcDbLine
62
7
6
CONTINUOUS
10
75.6437210720
20
87.4607584280
11
88.7937210720
21
87.4607584280
0
LINE
5
537
100
AcDbEntity
8
0
100
AcDbLine
62
7
6
CONTINUOUS
10
90.3937210720
20
87.4607584280
11
98.4437210720
21
87.4607584280
0
LINE
5
538
100
AcDbEntity
8
0
100
AcDbLine
62
7
6
CONTINUOUS
10
103.7437210720
20
87.4607584280
11
111.7937210720
21
87.4607584280
0
LINE
5
539
100
AcDbEntity
8
0
100
AcDbLine
62
7
6
CONTINUOUS
10
113.3937210720
20
87.4607584280
11
126.5437210720
21
87.4607584280
0
LINE
5
53A
100
AcDbEntity
8
0
100
AcDbLine
62
7
6
CONTINUOUS
10
128.1437210720
20
87.4607584280
11
141.2937210720
21
87.4607584280
0
LINE
5
53B
100
AcDbEntity
8
0
100
AcDbLine
62
7
6
CONTINUOUS
10
142.8937210720
20
87.4607584280
11
150.9437210720
21
87.4607584280
0
LINE
5
53C
100
AcDbEntity
8
0
100
AcDbLine
62
7
6
CONTINUOUS
10
156.2437210720
20
87.4607584280
11
164.2937210720
21
87.4607584280
0
LINE
5
53D
100
AcDbEntity
8
0
100
AcDbLine
62
7
6
CONTINUOUS
10
165.8937210720
20
87.4607584280
11
179.0437210720
21
87.4607584280
0
LINE
5
53E
100
AcDbEntity
8
0
100
AcDbLine
62
7
6
CONTINUOUS
10
180.6437210720
20
87.4607584280
11
193.7937210720
21
87.4607584280
0
LINE
5
53F
100
AcDbEntity
8
0
100
AcDbLine
62
7
6
CONTINUOUS
10
195.3937210720
20
87.4607584280
11
203.4437210720
21
87.4607584280
0
LINE
5
540
100
AcDbEntity
8
0
100
AcDbLine
62
7
6
CONTINUOUS
10
208.7437210720
20
87.4607584280
11
216.7937210720
21
87.4607584280
0
LINE
5
541
100
AcDbEntity
8
0
100
AcDbLine
62
7
6
CONTINUOUS
10
218.3937210720
20
87.4607584280
11
231.5437210720
21
87.4607584280
0
LINE
5
542
100
AcDbEntity
8
0
100
AcDbLine
62
7
6
CONTINUOUS
10
233.1437210720
20
87.4607584280
11
246.2937210720
21
87.4607584280
0
LINE
5
543
100
AcDbEntity
8
0
100
AcDbLine
62
7
6
CONTINUOUS
10
247.8937210720
20
87.4607584280
11
256.8437210720
21
87.4607584280
0
LINE
5
544
100
AcDbEntity
8
0
100
AcDbLine
62
7
6
CONTINUOUS
10
208.7437210720
20
88.9607584280
11
203.4437210720
21
88.9607584280
0
LINE
5
545
100
AcDbEntity
8
0
100
AcDbLine
62
7
6
CONTINUOUS
10
156.2437210720
20
88.9607584280
11
150.9437210720
21
88.9607584280
0
LINE
5
546
100
AcDbEntity
8
0
100
AcDbLine
62
7
6
CONTINUOUS
10
103.7437210720
20
88.9607584280
11
98.4437210720
21
88.9607584280
0
LINE
5
547
100
AcDbEntity
8
0
100
AcDbLine
62
7
6
CONTINUOUS
10
162.0396103707
20
76.7729760429
11
162.0937210720
21
76.7459227528
0
LINE
5
548
100
AcDbEntity
8
0
100
AcDbLine
62
7
6
CONTINUOUS
10
126.5437210720
20
149.8107584280
11
126.5437210720
21
139.4107584280
0
LINE
5
549
100
AcDbEntity
8
0
100
AcDbLine
62
7
6
CONTINUOUS
10
126.5437210720
20
97.7107584280
11
126.5437210720
21
87.3107584280
0
LINE
5
54A
100
AcDbEntity
8
0
100
AcDbLine
62
7
6
CONTINUOUS
10
128.1437210720
20
149.8107584280
11
128.1437210720
21
139.4107584280
0
LINE
5
54B
100
AcDbEntity
8
0
100
AcDbLine
62
7
6
CONTINUOUS
10
128.1437210720
20
97.7107584280
11
128.1437210720
21
87.3107584280
0
LINE
5
54C
100
AcDbEntity
8
0
100
AcDbLine
62
7
6
CONTINUOUS
10
164.2937210720
20
97.2107584280
11
165.8937210720
21
97.2107584280
0
LINE
5
54D
100
AcDbEntity
8
0
100
AcDbLine
62
7
6
CONTINUOUS
10
179.0437210720
20
97.2107584280
11
180.6437210720
21
97.2107584280
0
LINE
5
54E
100
AcDbEntity
8
0
100
AcDbLine
62
7
6
CONTINUOUS
10
193.7937210720
20
97.2107584280
11
195.3937210720
21
97.2107584280
0
LINE
5
54F
100
AcDbEntity
8
0
100
AcDbLine
62
7
6
CONTINUOUS
10
216.7937210720
20
97.2107584280
11
218.3937210720
21
97.2107584280
0
LINE
5
550
100
AcDbEntity
8
0
100
AcDbLine
62
7
6
CONTINUOUS
10
231.5437210720
20
97.2107584280
11
233.1437210720
21
97.2107584280
0
LINE
5
551
100
AcDbEntity
8
0
100
AcDbLine
62
7
6
CONTINUOUS
10
246.2937210720
20
97.2107584280
11
247.8937210720
21
97.2107584280
0
LINE
5
552
100
AcDbEntity
8
0
100
AcDbLine
62
7
6
CONTINUOUS
10
50.4437210720
20
97.7107584280
11
164.2937210720
21
97.7107584280
0
LINE
5
553
100
AcDbEntity
8
0
100
AcDbLine
62
7
6
CONTINUOUS
10
165.8937210720
20
97.7107584280
11
179.0437210720
21
97.7107584280
0
LINE
5
554
100
AcDbEntity
8
0
100
AcDbLine
62
7
6
CONTINUOUS
10
180.6437210720
20
97.7107584280
11
193.7937210720
21
97.7107584280
0
LINE
5
555
100
AcDbEntity
8
0
100
AcDbLine
62
7
6
CONTINUOUS
10
195.3937210720
20
97.7107584280
11
216.7937210720
21
97.7107584280
0
LINE
5
556
100
AcDbEntity
8
0
100
AcDbLine
62
7
6
CONTINUOUS
10
218.3937210720
20
97.7107584280
11
231.5437210720
21
97.7107584280
0
LINE
5
557
100
AcDbEntity
8
0
100
AcDbLine
62
7
6
CONTINUOUS
10
233.1437210720
20
97.7107584280
11
246.2937210720
21
97.7107584280
0
LINE
5
558
100
AcDbEntity
8
0
100
AcDbLine
62
7
6
CONTINUOUS
10
247.8937210720
20
97.7107584280
11
256.7437210720
21
97.7107584280
0
LINE
5
559
100
AcDbEntity
8
0
100
AcDbLine
62
7
6
CONTINUOUS
10
141.2937210720
20
149.8107584280
11
141.2937210720
21
139.4107584280
0
LINE
5
55A
100
AcDbEntity
8
0
100
AcDbLine
62
7
6
CONTINUOUS
10
141.2937210720
20
97.7107584280
11
141.2937210720
21
87.3107584280
0
LINE
5
55B
100
AcDbEntity
8
0
100
AcDbLine
62
7
6
CONTINUOUS
10
142.8937210720
20
149.8107584280
11
142.8937210720
21
139.4107584280
0
LINE
5
55C
100
AcDbEntity
8
0
100
AcDbLine
62
7
6
CONTINUOUS
10
142.8937210720
20
97.7107584280
11
142.8937210720
21
87.3107584280
0
LINE
5
55D
100
AcDbEntity
8
0
100
AcDbLine
62
7
6
CONTINUOUS
10
49.8437210720
20
105.7607584280
11
50.4437210720
21
105.7607584280
0
LINE
5
55E
100
AcDbEntity
8
0
100
AcDbLine
62
7
6
CONTINUOUS
10
256.7437210720
20
105.7607584280
11
257.3437210720
21
105.7607584280
0
LINE
5
55F
100
AcDbEntity
8
0
100
AcDbLine
62
7
6
CONTINUOUS
10
49.8437210720
20
107.3607584280
11
50.4437210720
21
107.3607584280
0
LINE
5
560
100
AcDbEntity
8
0
100
AcDbLine
62
7
6
CONTINUOUS
10
256.7437210720
20
107.3607584280
11
257.3437210720
21
107.3607584280
0
LINE
5
561
100
AcDbEntity
8
0
100
AcDbLine
62
7
6
CONTINUOUS
10
147.5937210720
20
155.2048468664
11
147.5937210720
21
156.3166699897
0
LINE
5
562
100
AcDbEntity
8
0
100
AcDbLine
62
7
6
CONTINUOUS
10
147.5937210720
20
156.8048468664
11
147.5937210720
21
157.8485408131
0
LINE
5
563
100
AcDbEntity
8
0
100
AcDbLine
62
7
6
CONTINUOUS
10
150.9437210720
20
149.6607584280
11
150.9437210720
21
148.1607584280
0
LINE
5
564
100
AcDbEntity
8
0
100
AcDbLine
62
7
6
CONTINUOUS
10
150.9437210720
20
87.4607584280
11
150.9437210720
21
88.9607584280
0
LINE
5
565
100
AcDbEntity
8
0
100
AcDbLine
62
7
6
CONTINUOUS
10
152.8437210720
20
161.2307584280
11
152.8437210720
21
160.6907584280
0
LINE
5
566
100
AcDbEntity
8
0
100
AcDbLine
62
7
6
CONTINUOUS
10
152.8437210720
20
76.4307584280
11
152.8437210720
21
75.8907584280
0
LINE
5
567
100
AcDbEntity
8
0
100
AcDbLine
62
9
6
CONTINUOUS
10
153.0937210720
20
75.6407584280
11
153.0937210720
21
76.6807584280
0
LINE
5
568
100
AcDbEntity
8
0
100
AcDbLine
62
9
6
CONTINUOUS
10
153.0937210720
20
160.4407584280
11
153.0937210720
21
161.4807584280
0
LINE
5
569
100
AcDbEntity
8
0
100
AcDbLine
62
9
6
CONTINUOUS
10
154.0937210720
20
75.6407584280
11
154.0937210720
21
76.6807584280
0
LINE
5
56A
100
AcDbEntity
8
0
100
AcDbLine
62
9
6
CONTINUOUS
10
154.0937210720
20
160.4407584280
11
154.0937210720
21
161.4807584280
0
LINE
5
56B
100
AcDbEntity
8
0
100
AcDbLine
62
7
6
CONTINUOUS
10
154.3437210720
20
75.8907584280
11
154.3437210720
21
76.4307584280
0
LINE
5
56C
100
AcDbEntity
8
0
100
AcDbLine
62
7
6
CONTINUOUS
10
154.3437210720
20
160.6907584280
11
154.3437210720
21
161.2307584280
0
LINE
5
56D
100
AcDbEntity
8
0
100
AcDbLine
62
7
6
CONTINUOUS
10
48.5937210720
20
113.2107584280
11
50.2437210720
21
113.2107584280
0
LINE
5
56E
100
AcDbEntity
8
0
100
AcDbLine
62
7
6
CONTINUOUS
10
50.2742651093
20
113.2107584280
11
50.3437210720
21
113.2107584280
0
LINE
5
56F
100
AcDbEntity
8
0
100
AcDbLine
62
7
6
CONTINUOUS
10
258.5937210720
20
113.7107584280
11
256.9437210720
21
113.7107584280
0
LINE
5
570
100
AcDbEntity
8
0
100
AcDbLine
62
7
6
CONTINUOUS
10
256.9131770347
20
113.7107584280
11
256.8437210720
21
113.7107584280
0
LINE
5
571
100
AcDbEntity
8
0
100
AcDbLine
62
7
6
CONTINUOUS
10
49.0437210720
20
113.8607584280
11
50.3419617402
21
113.8607584280
0
LINE
5
572
100
AcDbEntity
8
0
100
AcDbLine
62
7
6
CONTINUOUS
10
256.8437210720
20
115.7107584280
11
258.1437210720
21
115.7107584280
0
LINE
5
573
100
AcDbEntity
8
0
100
AcDbLine
62
7
6
CONTINUOUS
10
156.2437210720
20
149.6607584280
11
156.2437210720
21
148.1607584280
0
LINE
5
574
100
AcDbEntity
8
0
100
AcDbLine
62
7
6
CONTINUOUS
10
156.2437210720
20
87.4607584280
11
156.2437210720
21
88.9607584280
0
LINE
5
575
100
AcDbEntity
8
0
100
AcDbLine
62
7
6
CONTINUOUS
10
159.5937210720
20
157.8485408131
11
159.5937210720
21
156.8048468664
0
LINE
5
576
100
AcDbEntity
8
0
100
AcDbLine
62
7
6
CONTINUOUS
10
159.5937210720
20
156.3166699897
11
159.5937210720
21
155.2048468664
0
LINE
5
577
100
AcDbEntity
8
0
100
AcDbLine
62
7
6
CONTINUOUS
10
256.8454832583
20
121.4107584280
11
258.1437210720
21
121.4107584280
0
LINE
5
578
100
AcDbEntity
8
0
100
AcDbLine
62
7
6
CONTINUOUS
10
49.0437210720
20
123.2607584280
11
50.3437210720
21
123.2607584280
0
LINE
5
579
100
AcDbEntity
8
0
100
AcDbLine
62
7
6
CONTINUOUS
10
258.5937210720
20
123.4107584280
11
256.9437210720
21
123.4107584280
0
LINE
5
57A
100
AcDbEntity
8
0
100
AcDbLine
62
7
6
CONTINUOUS
10
256.9131770347
20
123.4107584280
11
256.8437210720
21
123.4107584280
0
LINE
5
57B
100
AcDbEntity
8
0
100
AcDbLine
62
7
6
CONTINUOUS
10
48.5937210720
20
123.9107584280
11
50.2437210720
21
123.9107584280
0
LINE
5
57C
100
AcDbEntity
8
0
100
AcDbLine
62
7
6
CONTINUOUS
10
50.2742651093
20
123.9107584280
11
50.3437210720
21
123.9107584280
0
LINE
5
57D
100
AcDbEntity
8
0
100
AcDbLine
62
7
6
CONTINUOUS
10
164.2937210720
20
149.8107584280
11
164.2937210720
21
87.3107584280
0
LINE
5
57E
100
AcDbEntity
8
0
100
AcDbLine
62
7
6
CONTINUOUS
10
165.8937210720
20
149.8107584280
11
165.8937210720
21
87.3107584280
0
LINE
5
57F
100
AcDbEntity
8
0
100
AcDbLine
62
7
6
CONTINUOUS
10
257.3437210720
20
129.7607584280
11
256.7437210720
21
129.7607584280
0
LINE
5
580
100
AcDbEntity
8
0
100
AcDbLine
62
7
6
CONTINUOUS
10
50.4437210720
20
129.7607584280
11
49.8437210720
21
129.7607584280
0
LINE
5
581
100
AcDbEntity
8
0
100
AcDbLine
62
7
6
CONTINUOUS
10
257.3437210720
20
131.3607584280
11
256.7437210720
21
131.3607584280
0
LINE
5
582
100
AcDbEntity
8
0
100
AcDbLine
62
7
6
CONTINUOUS
10
50.4437210720
20
131.3607584280
11
49.8437210720
21
131.3607584280
0
LINE
5
583
100
AcDbEntity
8
0
100
AcDbLine
62
7
6
CONTINUOUS
10
256.7437210720
20
139.4107584280
11
247.8937210720
21
139.4107584280
0
LINE
5
584
100
AcDbEntity
8
0
100
AcDbLine
62
7
6
CONTINUOUS
10
246.2937210720
20
139.4107584280
11
233.1437210720
21
139.4107584280
0
LINE
5
585
100
AcDbEntity
8
0
100
AcDbLine
62
7
6
CONTINUOUS
10
231.5437210720
20
139.4107584280
11
218.3937210720
21
139.4107584280
0
LINE
5
586
100
AcDbEntity
8
0
100
AcDbLine
62
7
6
CONTINUOUS
10
216.7937210720
20
139.4107584280
11
195.3937210720
21
139.4107584280
0
LINE
5
587
100
AcDbEntity
8
0
100
AcDbLine
62
7
6
CONTINUOUS
10
193.7937210720
20
139.4107584280
11
180.6437210720
21
139.4107584280
0
LINE
5
588
100
AcDbEntity
8
0
100
AcDbLine
62
7
6
CONTINUOUS
10
179.0437210720
20
139.4107584280
11
165.8937210720
21
139.4107584280
0
LINE
5
589
100
AcDbEntity
8
0
100
AcDbLine
62
7
6
CONTINUOUS
10
164.2937210720
20
139.4107584280
11
50.4437210720
21
139.4107584280
0
LINE
5
58A
100
AcDbEntity
8
0
100
AcDbLine
62
7
6
CONTINUOUS
10
164.2937210720
20
139.9107584280
11
165.8937210720
21
139.9107584280
0
LINE
5
58B
100
AcDbEntity
8
0
100
AcDbLine
62
7
6
CONTINUOUS
10
179.0437210720
20
139.9107584280
11
180.6437210720
21
139.9107584280
0
LINE
5
58C
100
AcDbEntity
8
0
100
AcDbLine
62
7
6
CONTINUOUS
10
193.7937210720
20
139.9107584280
11
195.3937210720
21
139.9107584280
0
LINE
5
58D
100
AcDbEntity
8
0
100
AcDbLine
62
7
6
CONTINUOUS
10
216.7937210720
20
139.9107584280
11
218.3937210720
21
139.9107584280
0
LINE
5
58E
100
AcDbEntity
8
0
100
AcDbLine
62
7
6
CONTINUOUS
10
231.5437210720
20
139.9107584280
11
233.1437210720
21
139.9107584280
0
LINE
5
58F
100
AcDbEntity
8
0
100
AcDbLine
62
7
6
CONTINUOUS
10
246.2937210720
20
139.9107584280
11
247.8937210720
21
139.9107584280
0
LINE
5
590
100
AcDbEntity
8
0
100
AcDbLine
62
7
6
CONTINUOUS
10
179.0437210720
20
149.8107584280
11
179.0437210720
21
87.3107584280
0
LINE
5
591
100
AcDbEntity
8
0
100
AcDbLine
62
7
6
CONTINUOUS
10
180.6437210720
20
149.8107584280
11
180.6437210720
21
87.3107584280
0
LINE
5
592
100
AcDbEntity
8
0
100
AcDbLine
62
7
6
CONTINUOUS
10
98.4437210720
20
148.1607584280
11
103.7437210720
21
148.1607584280
0
LINE
5
593
100
AcDbEntity
8
0
100
AcDbLine
62
7
6
CONTINUOUS
10
150.9437210720
20
148.1607584280
11
156.2437210720
21
148.1607584280
0
LINE
5
594
100
AcDbEntity
8
0
100
AcDbLine
62
7
6
CONTINUOUS
10
203.4437210720
20
148.1607584280
11
208.7437210720
21
148.1607584280
0
LINE
5
595
100
AcDbEntity
8
0
100
AcDbLine
62
7
6
CONTINUOUS
10
256.8437210720
20
149.6607584280
11
247.8937210720
21
149.6607584280
0
LINE
5
596
100
AcDbEntity
8
0
100
AcDbLine
62
7
6
CONTINUOUS
10
246.2937210720
20
149.6607584280
11
233.1437210720
21
149.6607584280
0
LINE
5
597
100
AcDbEntity
8
0
100
AcDbLine
62
7
6
CONTINUOUS
10
231.5437210720
20
149.6607584280
11
218.3937210720
21
149.6607584280
0
LINE
5
598
100
AcDbEntity
8
0
100
AcDbLine
62
7
6
CONTINUOUS
10
216.7937210720
20
149.6607584280
11
208.7437210720
21
149.6607584280
0
LINE
5
599
100
AcDbEntity
8
0
100
AcDbLine
62
7
6
CONTINUOUS
10
203.4437210720
20
149.6607584280
11
195.3937210720
21
149.6607584280
0
LINE
5
59A
100
AcDbEntity
8
0
100
AcDbLine
62
7
6
CONTINUOUS
10
193.7937210720
20
149.6607584280
11
180.6437210720
21
149.6607584280
0
LINE
5
59B
100
AcDbEntity
8
0
100
AcDbLine
62
7
6
CONTINUOUS
10
179.0437210720
20
149.6607584280
11
165.8937210720
21
149.6607584280
0
LINE
5
59C
100
AcDbEntity
8
0
100
AcDbLine
62
7
6
CONTINUOUS
10
164.2937210720
20
149.6607584280
11
156.2437210720
21
149.6607584280
0
LINE
5
59D
100
AcDbEntity
8
0
100
AcDbLine
62
7
6
CONTINUOUS
10
150.9437210720
20
149.6607584280
11
142.8937210720
21
149.6607584280
0
LINE
5
59E
100
AcDbEntity
8
0
100
AcDbLine
62
7
6
CONTINUOUS
10
141.2937210720
20
149.6607584280
11
128.1437210720
21
149.6607584280
0
LINE
5
59F
100
AcDbEntity
8
0
100
AcDbLine
62
7
6
CONTINUOUS
10
126.5437210720
20
149.6607584280
11
113.3937210720
21
149.6607584280
0
LINE
5
5A0
100
AcDbEntity
8
0
100
AcDbLine
62
7
6
CONTINUOUS
10
111.7937210720
20
149.6607584280
11
103.7437210720
21
149.6607584280
0
LINE
5
5A1
100
AcDbEntity
8
0
100
AcDbLine
62
7
6
CONTINUOUS
10
98.4437210720
20
149.6607584280
11
90.3937210720
21
149.6607584280
0
LINE
5
5A2
100
AcDbEntity
8
0
100
AcDbLine
62
7
6
CONTINUOUS
10
88.7937210720
20
149.6607584280
11
75.6437210720
21
149.6607584280
0
LINE
5
5A3
100
AcDbEntity
8
0
100
AcDbLine
62
7
6
CONTINUOUS
10
74.0437210720
20
149.6607584280
11
60.8937210720
21
149.6607584280
0
LINE
5
5A4
100
AcDbEntity
8
0
100
AcDbLine
62
7
6
CONTINUOUS
10
59.2937210720
20
149.6607584280
11
50.3437210720
21
149.6607584280
0
LINE
5
5A5
100
AcDbEntity
8
0
100
AcDbLine
62
7
6
CONTINUOUS
10
59.2937210720
20
149.8107584280
11
60.8937210720
21
149.8107584280
0
LINE
5
5A6
100
AcDbEntity
8
0
100
AcDbLine
62
7
6
CONTINUOUS
10
74.0437210720
20
149.8107584280
11
75.6437210720
21
149.8107584280
0
LINE
5
5A7
100
AcDbEntity
8
0
100
AcDbLine
62
7
6
CONTINUOUS
10
88.7937210720
20
149.8107584280
11
90.3937210720
21
149.8107584280
0
LINE
5
5A8
100
AcDbEntity
8
0
100
AcDbLine
62
7
6
CONTINUOUS
10
111.7937210720
20
149.8107584280
11
113.3937210720
21
149.8107584280
0
LINE
5
5A9
100
AcDbEntity
8
0
100
AcDbLine
62
7
6
CONTINUOUS
10
126.5437210720
20
149.8107584280
11
128.1437210720
21
149.8107584280
0
LINE
5
5AA
100
AcDbEntity
8
0
100
AcDbLine
62
7
6
CONTINUOUS
10
141.2937210720
20
149.8107584280
11
142.8937210720
21
149.8107584280
0
LINE
5
5AB
100
AcDbEntity
8
0
100
AcDbLine
62
7
6
CONTINUOUS
10
164.2937210720
20
149.8107584280
11
165.8937210720
21
149.8107584280
0
LINE
5
5AC
100
AcDbEntity
8
0
100
AcDbLine
62
7
6
CONTINUOUS
10
179.0437210720
20
149.8107584280
11
180.6437210720
21
149.8107584280
0
LINE
5
5AD
100
AcDbEntity
8
0
100
AcDbLine
62
7
6
CONTINUOUS
10
193.7937210720
20
149.8107584280
11
195.3937210720
21
149.8107584280
0
LINE
5
5AE
100
AcDbEntity
8
0
100
AcDbLine
62
7
6
CONTINUOUS
10
216.7937210720
20
149.8107584280
11
218.3937210720
21
149.8107584280
0
LINE
5
5AF
100
AcDbEntity
8
0
100
AcDbLine
62
7
6
CONTINUOUS
10
231.5437210720
20
149.8107584280
11
233.1437210720
21
149.8107584280
0
LINE
5
5B0
100
AcDbEntity
8
0
100
AcDbLine
62
7
6
CONTINUOUS
10
246.2937210720
20
149.8107584280
11
247.8937210720
21
149.8107584280
0
LINE
5
5B1
100
AcDbEntity
8
0
100
AcDbLine
62
7
6
CONTINUOUS
10
145.1478317733
20
76.7729760416
11
145.0937210720
21
76.7459227528
0
LINE
5
5B2
100
AcDbEntity
8
0
100
AcDbLine
62
7
6
CONTINUOUS
10
255.9598657774
20
149.8607584280
11
255.6937210720
21
149.8607584280
0
LINE
5
5B3
100
AcDbEntity
8
0
100
AcDbLine
62
7
6
CONTINUOUS
10
51.4937210720
20
149.8607584280
11
51.2275763666
21
149.8607584280
0
LINE
5
5B4
100
AcDbEntity
8
0
100
AcDbLine
62
7
6
CONTINUOUS
10
51.2275763666
20
150.9607584280
11
51.4937210720
21
150.9607584280
0
LINE
5
5B5
100
AcDbEntity
8
0
100
AcDbLine
62
7
6
CONTINUOUS
10
255.6937210720
20
150.9607584280
11
255.9598657774
21
150.9607584280
0
LINE
5
5B6
100
AcDbEntity
8
0
100
AcDbLine
62
7
6
CONTINUOUS
10
159.5937210720
20
157.2889412586
11
159.2187210720
21
157.2889412586
0
LINE
5
5B7
100
AcDbEntity
8
0
100
AcDbLine
62
7
6
CONTINUOUS
10
147.9687210720
20
157.2889412586
11
147.5937210720
21
157.2889412586
0
LINE
5
5B8
100
AcDbEntity
8
0
100
AcDbLine
62
7
6
CONTINUOUS
10
145.1478317733
20
160.3485408131
11
145.0937210720
21
160.3755941033
0
LINE
5
5B9
100
AcDbEntity
8
0
100
AcDbLine
62
7
6
CONTINUOUS
10
193.7937210720
20
149.8107584280
11
193.7937210720
21
87.3107584280
0
LINE
5
5BA
100
AcDbEntity
8
0
100
AcDbLine
62
7
6
CONTINUOUS
10
195.3937210720
20
149.8107584280
11
195.3937210720
21
87.3107584280
0
LINE
5
5BB
100
AcDbEntity
8
0
100
AcDbLine
62
7
6
CONTINUOUS
10
255.9437210720
20
157.8607584280
11
255.9598657774
21
157.8769031334
0
LINE
5
5BC
100
AcDbEntity
8
0
100
AcDbLine
62
7
6
CONTINUOUS
10
165.1478317733
20
76.7729760416
11
165.0937210720
21
76.7459227528
0
LINE
5
5BD
100
AcDbEntity
8
0
100
AcDbLine
62
7
6
CONTINUOUS
10
147.5937210720
20
157.8107584280
11
147.7642202993
21
157.8107584280
0
LINE
5
5BE
100
AcDbEntity
8
0
100
AcDbLine
62
7
6
CONTINUOUS
10
159.4232218447
20
157.8107584280
11
159.5937210720
21
157.8107584280
0
LINE
5
5BF
100
AcDbEntity
8
0
100
AcDbLine
62
7
6
CONTINUOUS
10
51.2437210720
20
157.8485408131
11
51.4937210720
21
157.8485408131
0
LINE
5
5C0
100
AcDbEntity
8
0
100
AcDbLine
62
7
6
CONTINUOUS
10
54.4533522914
20
157.8485408131
11
55.2340898527
21
157.8485408131
0
LINE
5
5C1
100
AcDbEntity
8
0
100
AcDbLine
62
7
6
CONTINUOUS
10
59.4533522914
20
157.8485408131
11
60.2340898527
21
157.8485408131
0
LINE
5
5C2
100
AcDbEntity
8
0
100
AcDbLine
62
7
6
CONTINUOUS
10
64.4533522914
20
157.8485408131
11
65.2340898527
21
157.8485408131
0
LINE
5
5C3
100
AcDbEntity
8
0
100
AcDbLine
62
7
6
CONTINUOUS
10
69.4533522914
20
157.8485408131
11
70.2340898527
21
157.8485408131
0
LINE
5
5C4
100
AcDbEntity
8
0
100
AcDbLine
62
7
6
CONTINUOUS
10
74.4533522914
20
157.8485408131
11
75.2340898527
21
157.8485408131
0
LINE
5
5C5
100
AcDbEntity
8
0
100
AcDbLine
62
7
6
CONTINUOUS
10
79.4533522914
20
157.8485408131
11
80.2340898527
21
157.8485408131
0
LINE
5
5C6
100
AcDbEntity
8
0
100
AcDbLine
62
7
6
CONTINUOUS
10
84.4533522914
20
157.8485408131
11
85.2340898527
21
157.8485408131
0
LINE
5
5C7
100
AcDbEntity
8
0
100
AcDbLine
62
7
6
CONTINUOUS
10
89.4533522914
20
157.8485408131
11
90.2340898527
21
157.8485408131
0
LINE
5
5C8
100
AcDbEntity
8
0
100
AcDbLine
62
7
6
CONTINUOUS
10
94.4533522914
20
157.8485408131
11
95.2340898527
21
157.8485408131
0
LINE
5
5C9
100
AcDbEntity
8
0
100
AcDbLine
62
7
6
CONTINUOUS
10
106.9533522914
20
157.8485408131
11
107.7340898527
21
157.8485408131
0
LINE
5
5CA
100
AcDbEntity
8
0
100
AcDbLine
62
7
6
CONTINUOUS
10
111.9533522914
20
157.8485408131
11
112.7340898527
21
157.8485408131
0
LINE
5
5CB
100
AcDbEntity
8
0
100
AcDbLine
62
7
6
CONTINUOUS
10
116.9533522914
20
157.8485408131
11
117.7340898527
21
157.8485408131
0
LINE
5
5CC
100
AcDbEntity
8
0
100
AcDbLine
62
7
6
CONTINUOUS
10
121.9533522914
20
157.8485408131
11
122.7340898527
21
157.8485408131
0
LINE
5
5CD
100
AcDbEntity
8
0
100
AcDbLine
62
7
6
CONTINUOUS
10
126.9533522914
20
157.8485408131
11
127.7340898527
21
157.8485408131
0
LINE
5
5CE
100
AcDbEntity
8
0
100
AcDbLine
62
7
6
CONTINUOUS
10
131.9533522914
20
157.8485408131
11
132.7340898527
21
157.8485408131
0
LINE
5
5CF
100
AcDbEntity
8
0
100
AcDbLine
62
7
6
CONTINUOUS
10
136.9533522914
20
157.8485408131
11
137.7340898527
21
157.8485408131
0
LINE
5
5D0
100
AcDbEntity
8
0
100
AcDbLine
62
7
6
CONTINUOUS
10
141.9533522914
20
157.8485408131
11
142.7340898527
21
157.8485408131
0
LINE
5
5D1
100
AcDbEntity
8
0
100
AcDbLine
62
7
6
CONTINUOUS
10
146.9533522914
20
157.8485408131
11
147.7340898527
21
157.8485408131
0
LINE
5
5D2
100
AcDbEntity
8
0
100
AcDbLine
62
7
6
CONTINUOUS
10
159.4533522914
20
157.8485408131
11
160.2340898527
21
157.8485408131
0
LINE
5
5D3
100
AcDbEntity
8
0
100
AcDbLine
62
7
6
CONTINUOUS
10
164.4533522914
20
157.8485408131
11
165.2340898527
21
157.8485408131
0
LINE
5
5D4
100
AcDbEntity
8
0
100
AcDbLine
62
7
6
CONTINUOUS
10
169.4533522914
20
157.8485408131
11
170.2340898527
21
157.8485408131
0
LINE
5
5D5
100
AcDbEntity
8
0
100
AcDbLine
62
7
6
CONTINUOUS
10
174.4533522914
20
157.8485408131
11
175.2340898527
21
157.8485408131
0
LINE
5
5D6
100
AcDbEntity
8
0
100
AcDbLine
62
7
6
CONTINUOUS
10
179.4533522914
20
157.8485408131
11
180.2340898527
21
157.8485408131
0
LINE
5
5D7
100
AcDbEntity
8
0
100
AcDbLine
62
7
6
CONTINUOUS
10
184.4533522914
20
157.8485408131
11
185.2340898527
21
157.8485408131
0
LINE
5
5D8
100
AcDbEntity
8
0
100
AcDbLine
62
7
6
CONTINUOUS
10
189.4533522914
20
157.8485408131
11
190.2340898527
21
157.8485408131
0
LINE
5
5D9
100
AcDbEntity
8
0
100
AcDbLine
62
7
6
CONTINUOUS
10
194.4533522914
20
157.8485408131
11
195.2340898527
21
157.8485408131
0
LINE
5
5DA
100
AcDbEntity
8
0
100
AcDbLine
62
7
6
CONTINUOUS
10
199.4533522914
20
157.8485408131
11
200.2340898527
21
157.8485408131
0
LINE
5
5DB
100
AcDbEntity
8
0
100
AcDbLine
62
7
6
CONTINUOUS
10
211.9533522914
20
157.8485408131
11
212.7340898527
21
157.8485408131
0
LINE
5
5DC
100
AcDbEntity
8
0
100
AcDbLine
62
7
6
CONTINUOUS
10
216.9533522914
20
157.8485408131
11
217.7340898527
21
157.8485408131
0
LINE
5
5DD
100
AcDbEntity
8
0
100
AcDbLine
62
7
6
CONTINUOUS
10
221.9533522914
20
157.8485408131
11
222.7340898527
21
157.8485408131
0
LINE
5
5DE
100
AcDbEntity
8
0
100
AcDbLine
62
7
6
CONTINUOUS
10
226.9533522914
20
157.8485408131
11
227.7340898527
21
157.8485408131
0
LINE
5
5DF
100
AcDbEntity
8
0
100
AcDbLine
62
7
6
CONTINUOUS
10
231.9533522914
20
157.8485408131
11
232.7340898527
21
157.8485408131
0
LINE
5
5E0
100
AcDbEntity
8
0
100
AcDbLine
62
7
6
CONTINUOUS
10
236.9533522914
20
157.8485408131
11
237.7340898527
21
157.8485408131
0
LINE
5
5E1
100
AcDbEntity
8
0
100
AcDbLine
62
7
6
CONTINUOUS
10
241.9533522914
20
157.8485408131
11
242.7340898527
21
157.8485408131
0
LINE
5
5E2
100
AcDbEntity
8
0
100
AcDbLine
62
7
6
CONTINUOUS
10
246.9533522914
20
157.8485408131
11
247.7340898527
21
157.8485408131
0
LINE
5
5E3
100
AcDbEntity
8
0
100
AcDbLine
62
7
6
CONTINUOUS
10
251.9533522914
20
157.8485408131
11
252.7340898527
21
157.8485408131
0
LINE
5
5E4
100
AcDbEntity
8
0
100
AcDbLine
62
7
6
CONTINUOUS
10
255.6937210720
20
157.8485408131
11
255.9437210720
21
157.8485408131
0
LINE
5
5E5
100
AcDbEntity
8
0
100
AcDbLine
62
7
6
CONTINUOUS
10
51.2275763666
20
157.8769031334
11
51.4937210720
21
157.8769031334
0
LINE
5
5E6
100
AcDbEntity
8
0
100
AcDbLine
62
7
6
CONTINUOUS
10
54.5111443442
20
157.8769031334
11
55.1762977998
21
157.8769031334
0
LINE
5
5E7
100
AcDbEntity
8
0
100
AcDbLine
62
7
6
CONTINUOUS
10
59.5111443442
20
157.8769031334
11
60.1762977998
21
157.8769031334
0
LINE
5
5E8
100
AcDbEntity
8
0
100
AcDbLine
62
7
6
CONTINUOUS
10
64.5111443442
20
157.8769031334
11
65.1762977998
21
157.8769031334
0
LINE
5
5E9
100
AcDbEntity
8
0
100
AcDbLine
62
7
6
CONTINUOUS
10
69.5111443442
20
157.8769031334
11
70.1762977998
21
157.8769031334
0
LINE
5
5EA
100
AcDbEntity
8
0
100
AcDbLine
62
7
6
CONTINUOUS
10
74.5111443442
20
157.8769031334
11
75.1762977998
21
157.8769031334
0
LINE
5
5EB
100
AcDbEntity
8
0
100
AcDbLine
62
7
6
CONTINUOUS
10
79.5111443442
20
157.8769031334
11
80.1762977998
21
157.8769031334
0
LINE
5
5EC
100
AcDbEntity
8
0
100
AcDbLine
62
7
6
CONTINUOUS
10
84.5111443442
20
157.8769031334
11
85.1762977998
21
157.8769031334
0
LINE
5
5ED
100
AcDbEntity
8
0
100
AcDbLine
62
7
6
CONTINUOUS
10
89.5111443442
20
157.8769031334
11
90.1762977998
21
157.8769031334
0
LINE
5
5EE
100
AcDbEntity
8
0
100
AcDbLine
62
7
6
CONTINUOUS
10
94.5111443442
20
157.8769031334
11
95.1762977998
21
157.8769031334
0
LINE
5
5EF
100
AcDbEntity
8
0
100
AcDbLine
62
7
6
CONTINUOUS
10
107.0111443442
20
157.8769031334
11
107.6762977998
21
157.8769031334
0
LINE
5
5F0
100
AcDbEntity
8
0
100
AcDbLine
62
7
6
CONTINUOUS
10
112.0111443442
20
157.8769031334
11
112.6762977998
21
157.8769031334
0
LINE
5
5F1
100
AcDbEntity
8
0
100
AcDbLine
62
7
6
CONTINUOUS
10
117.0111443442
20
157.8769031334
11
117.6762977998
21
157.8769031334
0
LINE
5
5F2
100
AcDbEntity
8
0
100
AcDbLine
62
7
6
CONTINUOUS
10
122.0111443442
20
157.8769031334
11
122.6762977998
21
157.8769031334
0
LINE
5
5F3
100
AcDbEntity
8
0
100
AcDbLine
62
7
6
CONTINUOUS
10
127.0111443442
20
157.8769031334
11
127.6762977998
21
157.8769031334
0
LINE
5
5F4
100
AcDbEntity
8
0
100
AcDbLine
62
7
6
CONTINUOUS
10
132.0111443442
20
157.8769031334
11
132.6762977998
21
157.8769031334
0
LINE
5
5F5
100
AcDbEntity
8
0
100
AcDbLine
62
7
6
CONTINUOUS
10
137.0111443442
20
157.8769031334
11
137.6762977998
21
157.8769031334
0
LINE
5
5F6
100
AcDbEntity
8
0
100
AcDbLine
62
7
6
CONTINUOUS
10
142.0111443442
20
157.8769031334
11
142.6762977998
21
157.8769031334
0
LINE
5
5F7
100
AcDbEntity
8
0
100
AcDbLine
62
7
6
CONTINUOUS
10
147.0111443442
20
157.8769031334
11
147.6762977998
21
157.8769031334
0
LINE
5
5F8
100
AcDbEntity
8
0
100
AcDbLine
62
7
6
CONTINUOUS
10
159.5111443442
20
157.8769031334
11
160.1762977998
21
157.8769031334
0
LINE
5
5F9
100
AcDbEntity
8
0
100
AcDbLine
62
7
6
CONTINUOUS
10
164.5111443442
20
157.8769031334
11
165.1762977998
21
157.8769031334
0
LINE
5
5FA
100
AcDbEntity
8
0
100
AcDbLine
62
7
6
CONTINUOUS
10
169.5111443442
20
157.8769031334
11
170.1762977998
21
157.8769031334
0
LINE
5
5FB
100
AcDbEntity
8
0
100
AcDbLine
62
7
6
CONTINUOUS
10
174.5111443442
20
157.8769031334
11
175.1762977998
21
157.8769031334
0
LINE
5
5FC
100
AcDbEntity
8
0
100
AcDbLine
62
7
6
CONTINUOUS
10
179.5111443442
20
157.8769031334
11
180.1762977998
21
157.8769031334
0
LINE
5
5FD
100
AcDbEntity
8
0
100
AcDbLine
62
7
6
CONTINUOUS
10
184.5111443442
20
157.8769031334
11
185.1762977998
21
157.8769031334
0
LINE
5
5FE
100
AcDbEntity
8
0
100
AcDbLine
62
7
6
CONTINUOUS
10
189.5111443442
20
157.8769031334
11
190.1762977998
21
157.8769031334
0
LINE
5
5FF
100
AcDbEntity
8
0
100
AcDbLine
62
7
6
CONTINUOUS
10
194.5111443442
20
157.8769031334
11
195.1762977998
21
157.8769031334
0
LINE
5
600
100
AcDbEntity
8
0
100
AcDbLine
62
7
6
CONTINUOUS
10
199.5111443442
20
157.8769031334
11
200.1762977998
21
157.8769031334
0
LINE
5
601
100
AcDbEntity
8
0
100
AcDbLine
62
7
6
CONTINUOUS
10
212.0111443442
20
157.8769031334
11
212.6762977998
21
157.8769031334
0
LINE
5
602
100
AcDbEntity
8
0
100
AcDbLine
62
7
6
CONTINUOUS
10
217.0111443442
20
157.8769031334
11
217.6762977998
21
157.8769031334
0
LINE
5
603
100
AcDbEntity
8
0
100
AcDbLine
62
7
6
CONTINUOUS
10
222.0111443442
20
157.8769031334
11
222.6762977998
21
157.8769031334
0
LINE
5
604
100
AcDbEntity
8
0
100
AcDbLine
62
7
6
CONTINUOUS
10
227.0111443442
20
157.8769031334
11
227.6762977998
21
157.8769031334
0
LINE
5
605
100
AcDbEntity
8
0
100
AcDbLine
62
7
6
CONTINUOUS
10
232.0111443442
20
157.8769031334
11
232.6762977998
21
157.8769031334
0
LINE
5
606
100
AcDbEntity
8
0
100
AcDbLine
62
7
6
CONTINUOUS
10
237.0111443442
20
157.8769031334
11
237.6762977998
21
157.8769031334
0
LINE
5
607
100
AcDbEntity
8
0
100
AcDbLine
62
7
6
CONTINUOUS
10
242.0111443442
20
157.8769031334
11
242.6762977998
21
157.8769031334
0
LINE
5
608
100
AcDbEntity
8
0
100
AcDbLine
62
7
6
CONTINUOUS
10
247.0111443442
20
157.8769031334
11
247.6762977998
21
157.8769031334
0
LINE
5
609
100
AcDbEntity
8
0
100
AcDbLine
62
7
6
CONTINUOUS
10
252.0111443442
20
157.8769031334
11
252.6762977998
21
157.8769031334
0
LINE
5
60A
100
AcDbEntity
8
0
100
AcDbLine
62
7
6
CONTINUOUS
10
255.6937210720
20
157.8769031334
11
255.9598657774
21
157.8769031334
0
LINE
5
60B
100
AcDbEntity
8
0
100
AcDbLine
62
7
6
CONTINUOUS
10
255.9598657774
20
158.7446137226
11
255.6937210720
21
158.7446137226
0
LINE
5
60C
100
AcDbEntity
8
0
100
AcDbLine
62
7
6
CONTINUOUS
10
51.4937210720
20
158.7446137226
11
51.2275763666
21
158.7446137226
0
LINE
5
60D
100
AcDbEntity
8
0
100
AcDbLine
62
7
6
CONTINUOUS
10
51.2437210720
20
158.7729760429
11
51.4937210720
21
158.7729760429
0
LINE
5
60E
100
AcDbEntity
8
0
100
AcDbLine
62
7
6
CONTINUOUS
10
255.6937210720
20
158.7729760429
11
255.9437210720
21
158.7729760429
0
LINE
5
60F
100
AcDbEntity
8
0
100
AcDbLine
62
9
6
CONTINUOUS
10
255.9742651093
20
159.5607584280
11
255.9437210720
21
159.5607584280
0
LINE
5
610
100
AcDbEntity
8
0
100
AcDbLine
62
7
6
CONTINUOUS
10
255.6937210720
20
159.5607584280
11
51.4937210720
21
159.5607584280
0
LINE
5
611
100
AcDbEntity
8
0
100
AcDbLine
62
9
6
CONTINUOUS
10
50.2742651093
20
159.5607584280
11
50.2437210720
21
159.5607584280
0
LINE
5
612
100
AcDbEntity
8
0
100
AcDbLine
62
9
6
CONTINUOUS
10
51.2131770347
20
159.5607584280
11
51.2437210720
21
159.5607584280
0
LINE
5
613
100
AcDbEntity
8
0
100
AcDbLine
62
9
6
CONTINUOUS
10
256.9131770347
20
159.5607584280
11
256.9437210720
21
159.5607584280
0
LINE
5
614
100
AcDbEntity
8
0
100
AcDbLine
62
7
6
CONTINUOUS
10
255.9437210720
20
160.3485408131
11
51.2437210720
21
160.3485408131
0
LINE
5
615
100
AcDbEntity
8
0
100
AcDbLine
62
7
6
CONTINUOUS
10
255.9437210720
20
160.3607584280
11
251.2937210720
21
160.3607584280
0
LINE
5
616
100
AcDbEntity
8
0
100
AcDbLine
62
7
6
CONTINUOUS
10
55.8937210720
20
160.3607584280
11
51.2437210720
21
160.3607584280
0
LINE
5
617
100
AcDbEntity
8
0
100
AcDbLine
62
7
6
CONTINUOUS
10
55.8937210720
20
160.3913024653
11
251.2937210720
21
160.3913024653
0
LINE
5
618
100
AcDbEntity
8
0
100
AcDbLine
62
7
6
CONTINUOUS
10
100.5937210720
20
160.4407584280
11
101.5937210720
21
160.4407584280
0
LINE
5
619
100
AcDbEntity
8
0
100
AcDbLine
62
7
6
CONTINUOUS
10
153.0937210720
20
160.4407584280
11
154.0937210720
21
160.4407584280
0
LINE
5
61A
100
AcDbEntity
8
0
100
AcDbLine
62
7
6
CONTINUOUS
10
205.5937210720
20
160.4407584280
11
206.5937210720
21
160.4407584280
0
LINE
5
61B
100
AcDbEntity
8
0
100
AcDbLine
62
9
6
CONTINUOUS
10
100.3437210720
20
160.6907584280
11
101.8437210720
21
160.6907584280
0
LINE
5
61C
100
AcDbEntity
8
0
100
AcDbLine
62
9
6
CONTINUOUS
10
152.8437210720
20
160.6907584280
11
154.3437210720
21
160.6907584280
0
LINE
5
61D
100
AcDbEntity
8
0
100
AcDbLine
62
9
6
CONTINUOUS
10
205.3437210720
20
160.6907584280
11
206.8437210720
21
160.6907584280
0
LINE
5
61E
100
AcDbEntity
8
0
100
AcDbLine
62
9
6
CONTINUOUS
10
100.3437210720
20
161.2307584280
11
101.8437210720
21
161.2307584280
0
LINE
5
61F
100
AcDbEntity
8
0
100
AcDbLine
62
9
6
CONTINUOUS
10
152.8437210720
20
161.2307584280
11
154.3437210720
21
161.2307584280
0
LINE
5
620
100
AcDbEntity
8
0
100
AcDbLine
62
9
6
CONTINUOUS
10
205.3437210720
20
161.2307584280
11
206.8437210720
21
161.2307584280
0
LINE
5
621
100
AcDbEntity
8
0
100
AcDbLine
62
7
6
CONTINUOUS
10
206.5937210720
20
161.4807584280
11
205.5937210720
21
161.4807584280
0
LINE
5
622
100
AcDbEntity
8
0
100
AcDbLine
62
7
6
CONTINUOUS
10
154.0937210720
20
161.4807584280
11
153.0937210720
21
161.4807584280
0
LINE
5
623
100
AcDbEntity
8
0
100
AcDbLine
62
7
6
CONTINUOUS
10
101.5937210720
20
161.4807584280
11
100.5937210720
21
161.4807584280
0
LINE
5
624
100
AcDbEntity
8
0
100
AcDbLine
62
7
6
CONTINUOUS
10
251.2937210720
20
161.5302143908
11
55.8937210720
21
161.5302143908
0
LINE
5
625
100
AcDbEntity
8
0
100
AcDbLine
62
7
6
CONTINUOUS
10
49.0937020335
20
161.5607584280
11
142.0640474616
21
161.5607584280
0
LINE
5
626
100
AcDbEntity
8
0
100
AcDbLine
62
7
6
CONTINUOUS
10
145.1233946824
20
161.5607584280
11
162.0640474616
21
161.5607584280
0
LINE
5
627
100
AcDbEntity
8
0
100
AcDbLine
62
7
6
CONTINUOUS
10
165.1233946824
20
161.5607584280
11
258.0937401105
21
161.5607584280
0
LINE
5
628
100
AcDbEntity
8
0
100
AcDbLine
62
7
6
CONTINUOUS
10
165.1478317733
20
160.3485408131
11
165.0937210720
21
160.3755941033
0
LINE
5
629
100
AcDbEntity
8
0
100
AcDbLine
62
7
6
CONTINUOUS
10
255.9437210720
20
79.2607584280
11
255.9598657774
21
79.2446137226
0
LINE
5
62A
100
AcDbEntity
8
0
100
AcDbLine
62
7
6
CONTINUOUS
10
203.4437210720
20
149.6607584280
11
203.4437210720
21
148.1607584280
0
LINE
5
62B
100
AcDbEntity
8
0
100
AcDbLine
62
7
6
CONTINUOUS
10
203.4437210720
20
87.4607584280
11
203.4437210720
21
88.9607584280
0
LINE
5
62C
100
AcDbEntity
8
0
100
AcDbLine
62
7
6
CONTINUOUS
10
205.3437210720
20
161.2307584280
11
205.3437210720
21
160.6907584280
0
LINE
5
62D
100
AcDbEntity
8
0
100
AcDbLine
62
7
6
CONTINUOUS
10
205.3437210720
20
76.4307584280
11
205.3437210720
21
75.8907584280
0
LINE
5
62E
100
AcDbEntity
8
0
100
AcDbLine
62
9
6
CONTINUOUS
10
205.5937210720
20
75.6407584280
11
205.5937210720
21
76.6807584280
0
LINE
5
62F
100
AcDbEntity
8
0
100
AcDbLine
62
9
6
CONTINUOUS
10
205.5937210720
20
160.4407584280
11
205.5937210720
21
161.4807584280
0
LINE
5
630
100
AcDbEntity
8
0
100
AcDbLine
62
9
6
CONTINUOUS
10
206.5937210720
20
75.6407584280
11
206.5937210720
21
76.6807584280
0
LINE
5
631
100
AcDbEntity
8
0
100
AcDbLine
62
9
6
CONTINUOUS
10
206.5937210720
20
160.4407584280
11
206.5937210720
21
161.4807584280
0
LINE
5
632
100
AcDbEntity
8
0
100
AcDbLine
62
7
6
CONTINUOUS
10
206.8437210720
20
75.8907584280
11
206.8437210720
21
76.4307584280
0
LINE
5
633
100
AcDbEntity
8
0
100
AcDbLine
62
7
6
CONTINUOUS
10
206.8437210720
20
160.6907584280
11
206.8437210720
21
161.2307584280
0
LINE
5
634
100
AcDbEntity
8
0
100
AcDbLine
62
7
6
CONTINUOUS
10
208.7437210720
20
149.6607584280
11
208.7437210720
21
148.1607584280
0
LINE
5
635
100
AcDbEntity
8
0
100
AcDbLine
62
7
6
CONTINUOUS
10
208.7437210720
20
87.4607584280
11
208.7437210720
21
88.9607584280
0
LINE
5
636
100
AcDbEntity
8
0
100
AcDbLine
62
7
6
CONTINUOUS
10
216.7937210720
20
149.8107584280
11
216.7937210720
21
87.3107584280
0
LINE
5
637
100
AcDbEntity
8
0
100
AcDbLine
62
7
6
CONTINUOUS
10
218.3937210720
20
149.8107584280
11
218.3937210720
21
87.3107584280
0
LINE
5
638
100
AcDbEntity
8
0
100
AcDbLine
62
7
6
CONTINUOUS
10
231.5437210720
20
149.8107584280
11
231.5437210720
21
87.3107584280
0
LINE
5
639
100
AcDbEntity
8
0
100
AcDbLine
62
7
6
CONTINUOUS
10
233.1437210720
20
149.8107584280
11
233.1437210720
21
87.3107584280
0
LINE
5
63A
100
AcDbEntity
8
0
100
AcDbLine
62
7
6
CONTINUOUS
10
246.2937210720
20
149.8107584280
11
246.2937210720
21
87.3107584280
0
LINE
5
63B
100
AcDbEntity
8
0
100
AcDbLine
62
7
6
CONTINUOUS
10
247.8937210720
20
149.8107584280
11
247.8937210720
21
87.3107584280
0
LINE
5
63C
100
AcDbEntity
8
0
100
AcDbLine
62
9
6
CONTINUOUS
10
251.2937210720
20
160.3913024653
11
251.2937210720
21
160.3607584280
0
LINE
5
63D
100
AcDbEntity
8
0
100
AcDbLine
62
9
6
CONTINUOUS
10
251.2937210720
20
75.5913024653
11
251.2937210720
21
75.5607584280
0
LINE
5
63E
100
AcDbEntity
8
0
100
AcDbLine
62
9
6
CONTINUOUS
10
251.2937210720
20
76.7302143908
11
251.2937210720
21
76.7607584280
0
LINE
5
63F
100
AcDbEntity
8
0
100
AcDbLine
62
9
6
CONTINUOUS
10
251.2937210720
20
161.5302143908
11
251.2937210720
21
161.5607584280
0
LINE
5
640
100
AcDbEntity
8
0
100
AcDbLine
62
7
6
CONTINUOUS
10
255.6937210720
20
77.5607584280
11
255.6937210720
21
87.4607584280
0
LINE
5
641
100
AcDbEntity
8
0
100
AcDbLine
62
7
6
CONTINUOUS
10
255.6937210720
20
149.6607584280
11
255.6937210720
21
159.5607584280
0
LINE
5
642
100
AcDbEntity
8
0
100
AcDbLine
62
7
6
CONTINUOUS
10
255.9437210720
20
157.8607584280
11
255.9437210720
21
150.9607584280
0
LINE
5
643
100
AcDbEntity
8
0
100
AcDbLine
62
7
6
CONTINUOUS
10
255.9437210720
20
149.8607584280
11
255.9437210720
21
149.6607584280
0
LINE
5
644
100
AcDbEntity
8
0
100
AcDbLine
62
7
6
CONTINUOUS
10
255.9437210720
20
87.4607584280
11
255.9437210720
21
87.2607584280
0
LINE
5
645
100
AcDbEntity
8
0
100
AcDbLine
62
7
6
CONTINUOUS
10
255.9437210720
20
86.1607584280
11
255.9437210720
21
79.2607584280
0
LINE
5
646
100
AcDbEntity
8
0
100
AcDbLine
62
7
6
CONTINUOUS
10
255.9437210720
20
76.7607584280
11
255.9437210720
21
78.3607584280
0
LINE
5
647
100
AcDbEntity
8
0
100
AcDbLine
62
7
6
CONTINUOUS
10
255.9437210720
20
158.7607584280
11
255.9437210720
21
160.3607584280
0
LINE
5
648
100
AcDbEntity
8
0
100
AcDbLine
62
7
6
CONTINUOUS
10
255.9598657774
20
158.7446137226
11
255.9598657774
21
157.8769031334
0
LINE
5
649
100
AcDbEntity
8
0
100
AcDbLine
62
7
6
CONTINUOUS
10
255.9598657774
20
79.2446137226
11
255.9598657774
21
78.3769031334
0
LINE
5
64A
100
AcDbEntity
8
0
100
AcDbLine
62
7
6
CONTINUOUS
10
255.9742651093
20
159.5607584280
11
255.9742651093
21
149.6607584280
0
LINE
5
64B
100
AcDbEntity
8
0
100
AcDbLine
62
7
6
CONTINUOUS
10
255.9742651093
20
87.4607584280
11
255.9742651093
21
77.5607584280
0
LINE
5
64C
100
AcDbEntity
8
0
100
AcDbLine
62
7
6
CONTINUOUS
10
256.7437210720
20
97.7107584280
11
256.7437210720
21
139.4107584280
0
LINE
5
64D
100
AcDbEntity
8
0
100
AcDbLine
62
7
6
CONTINUOUS
10
256.8437210720
20
87.4607584280
11
256.8437210720
21
105.7607584280
0
LINE
5
64E
100
AcDbEntity
8
0
100
AcDbLine
62
7
6
CONTINUOUS
10
256.8437210720
20
107.3607584280
11
256.8437210720
21
129.7607584280
0
LINE
5
64F
100
AcDbEntity
8
0
100
AcDbLine
62
7
6
CONTINUOUS
10
256.8437210720
20
131.3607584280
11
256.8437210720
21
149.6607584280
0
LINE
5
650
100
AcDbEntity
8
0
100
AcDbLine
62
9
6
CONTINUOUS
10
256.8966557321
20
115.7107584280
11
256.8966557321
21
121.4107584280
0
LINE
5
651
100
AcDbEntity
8
0
100
AcDbLine
62
7
6
CONTINUOUS
10
256.9131770347
20
77.5607584280
11
256.9131770347
21
105.7607584280
0
LINE
5
652
100
AcDbEntity
8
0
100
AcDbLine
62
7
6
CONTINUOUS
10
256.9131770347
20
107.3607584280
11
256.9131770347
21
113.7107584280
0
LINE
5
653
100
AcDbEntity
8
0
100
AcDbLine
62
7
6
CONTINUOUS
10
256.9131770347
20
123.4107584280
11
256.9131770347
21
129.7607584280
0
LINE
5
654
100
AcDbEntity
8
0
100
AcDbLine
62
7
6
CONTINUOUS
10
256.9131770347
20
131.3607584280
11
256.9131770347
21
159.5607584280
0
LINE
5
655
100
AcDbEntity
8
0
100
AcDbLine
62
7
6
CONTINUOUS
10
256.9437210720
20
77.5607584280
11
256.9437210720
21
105.7607584280
0
LINE
5
656
100
AcDbEntity
8
0
100
AcDbLine
62
7
6
CONTINUOUS
10
256.9437210720
20
107.3607584280
11
256.9437210720
21
113.7107584280
0
LINE
5
657
100
AcDbEntity
8
0
100
AcDbLine
62
7
6
CONTINUOUS
10
256.9437210720
20
123.4107584280
11
256.9437210720
21
129.7607584280
0
LINE
5
658
100
AcDbEntity
8
0
100
AcDbLine
62
7
6
CONTINUOUS
10
256.9437210720
20
131.3607584280
11
256.9437210720
21
159.5607584280
0
LINE
5
659
100
AcDbEntity
8
0
100
AcDbLine
62
7
6
CONTINUOUS
10
257.3437210720
20
131.3607584280
11
257.3437210720
21
129.7607584280
0
LINE
5
65A
100
AcDbEntity
8
0
100
AcDbLine
62
7
6
CONTINUOUS
10
257.3437210720
20
105.7607584280
11
257.3437210720
21
107.3607584280
0
LINE
5
65B
100
AcDbEntity
8
0
100
AcDbLine
62
7
6
CONTINUOUS
10
258.1437210720
20
115.7107584280
11
258.1437210720
21
121.4107584280
0
LINE
5
65C
100
AcDbEntity
8
0
100
AcDbLine
62
7
6
CONTINUOUS
10
258.5937210720
20
161.0607774665
11
258.5937210720
21
123.4107584280
0
LINE
5
65D
100
AcDbEntity
8
0
100
AcDbLine
62
7
6
CONTINUOUS
10
258.5937210720
20
113.7107584280
11
258.5937210720
21
76.0607393896
0
LINE
5
65E
100
AcDbEntity
8
0
100
AcDbLine
62
7
6
CONTINUOUS
10
255.9437210720
20
78.3607584280
11
255.9598657774
21
78.3769031334
0
LINE
5
65F
100
AcDbEntity
8
0
100
AcDbLine
62
7
6
CONTINUOUS
10
255.9437210720
20
158.7607584280
11
255.9598657774
21
158.7446137226
0
ARC
5
660
100
AcDbEntity
8
0
100
AcDbCircle
62
7
6
CONTINUOUS
10
101.5937210720
20
203.6906479448
40
0.2500000000
100
AcDbArc
50
0.0000000000
51
90.0000000000
0
ARC
5
661
100
AcDbEntity
8
0
100
AcDbCircle
62
7
6
CONTINUOUS
10
100.5937210720
20
203.6906479448
40
0.2500000000
100
AcDbArc
50
90.0000000000
51
180.0000000000
0
ARC
5
662
100
AcDbEntity
8
0
100
AcDbCircle
62
7
6
CONTINUOUS
10
154.0937210720
20
203.6906479448
40
0.2500000000
100
AcDbArc
50
0.0000000000
51
90.0000000000
0
ARC
5
663
100
AcDbEntity
8
0
100
AcDbCircle
62
7
6
CONTINUOUS
10
153.0937210720
20
203.6906479448
40
0.2500000000
100
AcDbArc
50
90.0000000000
51
180.0000000000
0
ARC
5
664
100
AcDbEntity
8
0
100
AcDbCircle
62
7
6
CONTINUOUS
10
206.5937210720
20
203.6906479448
40
0.2500000000
100
AcDbArc
50
0.0000000000
51
90.0000000000
0
ARC
5
665
100
AcDbEntity
8
0
100
AcDbCircle
62
7
6
CONTINUOUS
10
205.5937210720
20
203.6906479448
40
0.2500000000
100
AcDbArc
50
90.0000000000
51
180.0000000000
0
CIRCLE
5
666
100
AcDbEntity
8
0
100
AcDbCircle
62
7
6
CONTINUOUS
10
293.3981257557
20
192.9406479448
40
1.5000000000
0
CIRCLE
5
667
100
AcDbEntity
8
0
100
AcDbCircle
62
7
6
CONTINUOUS
10
312.3981257557
20
192.9406479448
40
1.5000000000
0
ARC
5
668
100
AcDbEntity
8
0
100
AcDbCircle
62
7
6
CONTINUOUS
10
289.9781257557
20
203.6906479448
40
0.2500000000
100
AcDbArc
50
90.0000000000
51
180.0000000000
0
ARC
5
669
100
AcDbEntity
8
0
100
AcDbCircle
62
7
6
CONTINUOUS
10
290.5181257557
20
203.6906479448
40
0.2500000000
100
AcDbArc
50
0.0000000000
51
90.0000000000
0
ARC
5
66A
100
AcDbEntity
8
0
100
AcDbCircle
62
7
6
CONTINUOUS
10
374.7781257557
20
203.6906479448
40
0.2500000000
100
AcDbArc
50
90.0000000000
51
180.0000000000
0
ARC
5
66B
100
AcDbEntity
8
0
100
AcDbCircle
62
7
6
CONTINUOUS
10
375.3181257557
20
203.6906479448
40
0.2500000000
100
AcDbArc
50
0.0000000000
51
90.0000000000
0
ARC
5
66C
100
AcDbEntity
8
0
100
AcDbCircle
62
7
6
CONTINUOUS
10
348.4308610296
20
192.1906479448
40
0.2500000000
100
AcDbArc
50
180.5000000000
51
270.0000000000
0
CIRCLE
5
66D
100
AcDbEntity
8
0
100
AcDbCircle
62
7
6
CONTINUOUS
10
212.3437210720
20
79.7607584280
40
0.6250000000
0
CIRCLE
5
66E
100
AcDbEntity
8
0
100
AcDbCircle
62
7
6
CONTINUOUS
10
212.3437210720
20
81.3607584280
40
0.6250000000
0
CIRCLE
5
66F
100
AcDbEntity
8
0
100
AcDbCircle
62
7
6
CONTINUOUS
10
212.3437210720
20
155.7607584280
40
0.6250000000
0
CIRCLE
5
670
100
AcDbEntity
8
0
100
AcDbCircle
62
7
6
CONTINUOUS
10
212.3437210720
20
157.3607584280
40
0.6250000000
0
CIRCLE
5
671
100
AcDbEntity
8
0
100
AcDbCircle
62
7
6
CONTINUOUS
10
159.8437210720
20
79.7607584280
40
0.6250000000
0
CIRCLE
5
672
100
AcDbEntity
8
0
100
AcDbCircle
62
7
6
CONTINUOUS
10
159.8437210720
20
81.3607584280
40
0.6250000000
0
CIRCLE
5
673
100
AcDbEntity
8
0
100
AcDbCircle
62
7
6
CONTINUOUS
10
159.8437210720
20
155.7607584280
40
0.6250000000
0
CIRCLE
5
674
100
AcDbEntity
8
0
100
AcDbCircle
62
7
6
CONTINUOUS
10
159.8437210720
20
157.3607584280
40
0.6250000000
0
CIRCLE
5
675
100
AcDbEntity
8
0
100
AcDbCircle
62
7
6
CONTINUOUS
10
147.3437210720
20
79.7607584280
40
0.6250000000
0
CIRCLE
5
676
100
AcDbEntity
8
0
100
AcDbCircle
62
7
6
CONTINUOUS
10
147.3437210720
20
81.3607584280
40
0.6250000000
0
CIRCLE
5
677
100
AcDbEntity
8
0
100
AcDbCircle
62
7
6
CONTINUOUS
10
147.3437210720
20
155.7607584280
40
0.6250000000
0
CIRCLE
5
678
100
AcDbEntity
8
0
100
AcDbCircle
62
7
6
CONTINUOUS
10
147.3437210720
20
157.3607584280
40
0.6250000000
0
CIRCLE
5
679
100
AcDbEntity
8
0
100
AcDbCircle
62
7
6
CONTINUOUS
10
54.8437210720
20
81.3607584280
40
0.6250000000
0
CIRCLE
5
67A
100
AcDbEntity
8
0
100
AcDbCircle
62
7
6
CONTINUOUS
10
59.8437210720
20
81.3607584280
40
0.6250000000
0
CIRCLE
5
67B
100
AcDbEntity
8
0
100
AcDbCircle
62
7
6
CONTINUOUS
10
64.8437210720
20
81.3607584280
40
0.6250000000
0
CIRCLE
5
67C
100
AcDbEntity
8
0
100
AcDbCircle
62
7
6
CONTINUOUS
10
69.8437210720
20
81.3607584280
40
0.6250000000
0
CIRCLE
5
67D
100
AcDbEntity
8
0
100
AcDbCircle
62
7
6
CONTINUOUS
10
74.8437210720
20
81.3607584280
40
0.6250000000
0
CIRCLE
5
67E
100
AcDbEntity
8
0
100
AcDbCircle
62
7
6
CONTINUOUS
10
79.8437210720
20
81.3607584280
40
0.6250000000
0
CIRCLE
5
67F
100
AcDbEntity
8
0
100
AcDbCircle
62
7
6
CONTINUOUS
10
84.8437210720
20
81.3607584280
40
0.6250000000
0
CIRCLE
5
680
100
AcDbEntity
8
0
100
AcDbCircle
62
7
6
CONTINUOUS
10
89.8437210720
20
81.3607584280
40
0.6250000000
0
CIRCLE
5
681
100
AcDbEntity
8
0
100
AcDbCircle
62
7
6
CONTINUOUS
10
54.8437210720
20
79.7607584280
40
0.6250000000
0
CIRCLE
5
682
100
AcDbEntity
8
0
100
AcDbCircle
62
7
6
CONTINUOUS
10
59.8437210720
20
79.7607584280
40
0.6250000000
0
CIRCLE
5
683
100
AcDbEntity
8
0
100
AcDbCircle
62
7
6
CONTINUOUS
10
64.8437210720
20
79.7607584280
40
0.6250000000
0
CIRCLE
5
684
100
AcDbEntity
8
0
100
AcDbCircle
62
7
6
CONTINUOUS
10
69.8437210720
20
79.7607584280
40
0.6250000000
0
CIRCLE
5
685
100
AcDbEntity
8
0
100
AcDbCircle
62
7
6
CONTINUOUS
10
74.8437210720
20
79.7607584280
40
0.6250000000
0
CIRCLE
5
686
100
AcDbEntity
8
0
100
AcDbCircle
62
7
6
CONTINUOUS
10
79.8437210720
20
79.7607584280
40
0.6250000000
0
CIRCLE
5
687
100
AcDbEntity
8
0
100
AcDbCircle
62
7
6
CONTINUOUS
10
84.8437210720
20
79.7607584280
40
0.6250000000
0
CIRCLE
5
688
100
AcDbEntity
8
0
100
AcDbCircle
62
7
6
CONTINUOUS
10
89.8437210720
20
79.7607584280
40
0.6250000000
0
CIRCLE
5
689
100
AcDbEntity
8
0
100
AcDbCircle
62
7
6
CONTINUOUS
10
54.8437210720
20
155.7607584280
40
0.6250000000
0
CIRCLE
5
68A
100
AcDbEntity
8
0
100
AcDbCircle
62
7
6
CONTINUOUS
10
59.8437210720
20
155.7607584280
40
0.6250000000
0
CIRCLE
5
68B
100
AcDbEntity
8
0
100
AcDbCircle
62
7
6
CONTINUOUS
10
64.8437210720
20
155.7607584280
40
0.6250000000
0
CIRCLE
5
68C
100
AcDbEntity
8
0
100
AcDbCircle
62
7
6
CONTINUOUS
10
69.8437210720
20
155.7607584280
40
0.6250000000
0
CIRCLE
5
68D
100
AcDbEntity
8
0
100
AcDbCircle
62
7
6
CONTINUOUS
10
74.8437210720
20
155.7607584280
40
0.6250000000
0
CIRCLE
5
68E
100
AcDbEntity
8
0
100
AcDbCircle
62
7
6
CONTINUOUS
10
79.8437210720
20
155.7607584280
40
0.6250000000
0
CIRCLE
5
68F
100
AcDbEntity
8
0
100
AcDbCircle
62
7
6
CONTINUOUS
10
84.8437210720
20
155.7607584280
40
0.6250000000
0
CIRCLE
5
690
100
AcDbEntity
8
0
100
AcDbCircle
62
7
6
CONTINUOUS
10
89.8437210720
20
155.7607584280
40
0.6250000000
0
CIRCLE
5
691
100
AcDbEntity
8
0
100
AcDbCircle
62
7
6
CONTINUOUS
10
54.8437210720
20
157.3607584280
40
0.6250000000
0
CIRCLE
5
692
100
AcDbEntity
8
0
100
AcDbCircle
62
7
6
CONTINUOUS
10
59.8437210720
20
157.3607584280
40
0.6250000000
0
CIRCLE
5
693
100
AcDbEntity
8
0
100
AcDbCircle
62
7
6
CONTINUOUS
10
64.8437210720
20
157.3607584280
40
0.6250000000
0
CIRCLE
5
694
100
AcDbEntity
8
0
100
AcDbCircle
62
7
6
CONTINUOUS
10
69.8437210720
20
157.3607584280
40
0.6250000000
0
CIRCLE
5
695
100
AcDbEntity
8
0
100
AcDbCircle
62
7
6
CONTINUOUS
10
74.8437210720
20
157.3607584280
40
0.6250000000
0
CIRCLE
5
696
100
AcDbEntity
8
0
100
AcDbCircle
62
7
6
CONTINUOUS
10
79.8437210720
20
157.3607584280
40
0.6250000000
0
CIRCLE
5
697
100
AcDbEntity
8
0
100
AcDbCircle
62
7
6
CONTINUOUS
10
84.8437210720
20
157.3607584280
40
0.6250000000
0
CIRCLE
5
698
100
AcDbEntity
8
0
100
AcDbCircle
62
7
6
CONTINUOUS
10
89.8437210720
20
157.3607584280
40
0.6250000000
0
CIRCLE
5
699
100
AcDbEntity
8
0
100
AcDbCircle
62
7
6
CONTINUOUS
10
94.8437210720
20
79.7607584280
40
0.6250000000
0
CIRCLE
5
69A
100
AcDbEntity
8
0
100
AcDbCircle
62
7
6
CONTINUOUS
10
94.8437210720
20
81.3607584280
40
0.6250000000
0
CIRCLE
5
69B
100
AcDbEntity
8
0
100
AcDbCircle
62
7
6
CONTINUOUS
10
94.8437210720
20
155.7607584280
40
0.6250000000
0
CIRCLE
5
69C
100
AcDbEntity
8
0
100
AcDbCircle
62
7
6
CONTINUOUS
10
94.8437210720
20
157.3607584280
40
0.6250000000
0
CIRCLE
5
69D
100
AcDbEntity
8
0
100
AcDbCircle
62
7
6
CONTINUOUS
10
142.3437210720
20
157.3607584280
40
0.6250000000
0
CIRCLE
5
69E
100
AcDbEntity
8
0
100
AcDbCircle
62
7
6
CONTINUOUS
10
142.3437210720
20
155.7607584280
40
0.6250000000
0
CIRCLE
5
69F
100
AcDbEntity
8
0
100
AcDbCircle
62
7
6
CONTINUOUS
10
142.3437210720
20
81.3607584280
40
0.6250000000
0
CIRCLE
5
6A0
100
AcDbEntity
8
0
100
AcDbCircle
62
7
6
CONTINUOUS
10
142.3437210720
20
79.7607584280
40
0.6250000000
0
CIRCLE
5
6A1
100
AcDbEntity
8
0
100
AcDbCircle
62
7
6
CONTINUOUS
10
137.3437210720
20
157.3607584280
40
0.6250000000
0
CIRCLE
5
6A2
100
AcDbEntity
8
0
100
AcDbCircle
62
7
6
CONTINUOUS
10
137.3437210720
20
155.7607584280
40
0.6250000000
0
CIRCLE
5
6A3
100
AcDbEntity
8
0
100
AcDbCircle
62
7
6
CONTINUOUS
10
137.3437210720
20
81.3607584280
40
0.6250000000
0
CIRCLE
5
6A4
100
AcDbEntity
8
0
100
AcDbCircle
62
7
6
CONTINUOUS
10
137.3437210720
20
79.7607584280
40
0.6250000000
0
CIRCLE
5
6A5
100
AcDbEntity
8
0
100
AcDbCircle
62
7
6
CONTINUOUS
10
132.3437210720
20
157.3607584280
40
0.6250000000
0
CIRCLE
5
6A6
100
AcDbEntity
8
0
100
AcDbCircle
62
7
6
CONTINUOUS
10
132.3437210720
20
155.7607584280
40
0.6250000000
0
CIRCLE
5
6A7
100
AcDbEntity
8
0
100
AcDbCircle
62
7
6
CONTINUOUS
10
132.3437210720
20
81.3607584280
40
0.6250000000
0
CIRCLE
5
6A8
100
AcDbEntity
8
0
100
AcDbCircle
62
7
6
CONTINUOUS
10
132.3437210720
20
79.7607584280
40
0.6250000000
0
CIRCLE
5
6A9
100
AcDbEntity
8
0
100
AcDbCircle
62
7
6
CONTINUOUS
10
127.3437210720
20
157.3607584280
40
0.6250000000
0
CIRCLE
5
6AA
100
AcDbEntity
8
0
100
AcDbCircle
62
7
6
CONTINUOUS
10
127.3437210720
20
155.7607584280
40
0.6250000000
0
CIRCLE
5
6AB
100
AcDbEntity
8
0
100
AcDbCircle
62
7
6
CONTINUOUS
10
127.3437210720
20
81.3607584280
40
0.6250000000
0
CIRCLE
5
6AC
100
AcDbEntity
8
0
100
AcDbCircle
62
7
6
CONTINUOUS
10
127.3437210720
20
79.7607584280
40
0.6250000000
0
CIRCLE
5
6AD
100
AcDbEntity
8
0
100
AcDbCircle
62
7
6
CONTINUOUS
10
122.3437210720
20
157.3607584280
40
0.6250000000
0
CIRCLE
5
6AE
100
AcDbEntity
8
0
100
AcDbCircle
62
7
6
CONTINUOUS
10
122.3437210720
20
155.7607584280
40
0.6250000000
0
CIRCLE
5
6AF
100
AcDbEntity
8
0
100
AcDbCircle
62
7
6
CONTINUOUS
10
122.3437210720
20
81.3607584280
40
0.6250000000
0
CIRCLE
5
6B0
100
AcDbEntity
8
0
100
AcDbCircle
62
7
6
CONTINUOUS
10
122.3437210720
20
79.7607584280
40
0.6250000000
0
CIRCLE
5
6B1
100
AcDbEntity
8
0
100
AcDbCircle
62
7
6
CONTINUOUS
10
117.3437210720
20
157.3607584280
40
0.6250000000
0
CIRCLE
5
6B2
100
AcDbEntity
8
0
100
AcDbCircle
62
7
6
CONTINUOUS
10
117.3437210720
20
155.7607584280
40
0.6250000000
0
CIRCLE
5
6B3
100
AcDbEntity
8
0
100
AcDbCircle
62
7
6
CONTINUOUS
10
117.3437210720
20
81.3607584280
40
0.6250000000
0
CIRCLE
5
6B4
100
AcDbEntity
8
0
100
AcDbCircle
62
7
6
CONTINUOUS
10
117.3437210720
20
79.7607584280
40
0.6250000000
0
CIRCLE
5
6B5
100
AcDbEntity
8
0
100
AcDbCircle
62
7
6
CONTINUOUS
10
112.3437210720
20
157.3607584280
40
0.6250000000
0
CIRCLE
5
6B6
100
AcDbEntity
8
0
100
AcDbCircle
62
7
6
CONTINUOUS
10
112.3437210720
20
155.7607584280
40
0.6250000000
0
CIRCLE
5
6B7
100
AcDbEntity
8
0
100
AcDbCircle
62
7
6
CONTINUOUS
10
112.3437210720
20
81.3607584280
40
0.6250000000
0
CIRCLE
5
6B8
100
AcDbEntity
8
0
100
AcDbCircle
62
7
6
CONTINUOUS
10
112.3437210720
20
79.7607584280
40
0.6250000000
0
CIRCLE
5
6B9
100
AcDbEntity
8
0
100
AcDbCircle
62
7
6
CONTINUOUS
10
107.3437210720
20
157.3607584280
40
0.6250000000
0
CIRCLE
5
6BA
100
AcDbEntity
8
0
100
AcDbCircle
62
7
6
CONTINUOUS
10
107.3437210720
20
155.7607584280
40
0.6250000000
0
CIRCLE
5
6BB
100
AcDbEntity
8
0
100
AcDbCircle
62
7
6
CONTINUOUS
10
107.3437210720
20
81.3607584280
40
0.6250000000
0
CIRCLE
5
6BC
100
AcDbEntity
8
0
100
AcDbCircle
62
7
6
CONTINUOUS
10
107.3437210720
20
79.7607584280
40
0.6250000000
0
CIRCLE
5
6BD
100
AcDbEntity
8
0
100
AcDbCircle
62
7
6
CONTINUOUS
10
164.8437210720
20
157.3607584280
40
0.6250000000
0
CIRCLE
5
6BE
100
AcDbEntity
8
0
100
AcDbCircle
62
7
6
CONTINUOUS
10
164.8437210720
20
155.7607584280
40
0.6250000000
0
CIRCLE
5
6BF
100
AcDbEntity
8
0
100
AcDbCircle
62
7
6
CONTINUOUS
10
164.8437210720
20
81.3607584280
40
0.6250000000
0
CIRCLE
5
6C0
100
AcDbEntity
8
0
100
AcDbCircle
62
7
6
CONTINUOUS
10
164.8437210720
20
79.7607584280
40
0.6250000000
0
CIRCLE
5
6C1
100
AcDbEntity
8
0
100
AcDbCircle
62
7
6
CONTINUOUS
10
169.8437210720
20
157.3607584280
40
0.6250000000
0
CIRCLE
5
6C2
100
AcDbEntity
8
0
100
AcDbCircle
62
7
6
CONTINUOUS
10
169.8437210720
20
155.7607584280
40
0.6250000000
0
CIRCLE
5
6C3
100
AcDbEntity
8
0
100
AcDbCircle
62
7
6
CONTINUOUS
10
169.8437210720
20
81.3607584280
40
0.6250000000
0
CIRCLE
5
6C4
100
AcDbEntity
8
0
100
AcDbCircle
62
7
6
CONTINUOUS
10
169.8437210720
20
79.7607584280
40
0.6250000000
0
CIRCLE
5
6C5
100
AcDbEntity
8
0
100
AcDbCircle
62
7
6
CONTINUOUS
10
174.8437210720
20
157.3607584280
40
0.6250000000
0
CIRCLE
5
6C6
100
AcDbEntity
8
0
100
AcDbCircle
62
7
6
CONTINUOUS
10
174.8437210720
20
155.7607584280
40
0.6250000000
0
CIRCLE
5
6C7
100
AcDbEntity
8
0
100
AcDbCircle
62
7
6
CONTINUOUS
10
174.8437210720
20
81.3607584280
40
0.6250000000
0
CIRCLE
5
6C8
100
AcDbEntity
8
0
100
AcDbCircle
62
7
6
CONTINUOUS
10
174.8437210720
20
79.7607584280
40
0.6250000000
0
CIRCLE
5
6C9
100
AcDbEntity
8
0
100
AcDbCircle
62
7
6
CONTINUOUS
10
179.8437210720
20
157.3607584280
40
0.6250000000
0
CIRCLE
5
6CA
100
AcDbEntity
8
0
100
AcDbCircle
62
7
6
CONTINUOUS
10
179.8437210720
20
155.7607584280
40
0.6250000000
0
CIRCLE
5
6CB
100
AcDbEntity
8
0
100
AcDbCircle
62
7
6
CONTINUOUS
10
179.8437210720
20
81.3607584280
40
0.6250000000
0
CIRCLE
5
6CC
100
AcDbEntity
8
0
100
AcDbCircle
62
7
6
CONTINUOUS
10
179.8437210720
20
79.7607584280
40
0.6250000000
0
CIRCLE
5
6CD
100
AcDbEntity
8
0
100
AcDbCircle
62
7
6
CONTINUOUS
10
184.8437210720
20
157.3607584280
40
0.6250000000
0
CIRCLE
5
6CE
100
AcDbEntity
8
0
100
AcDbCircle
62
7
6
CONTINUOUS
10
184.8437210720
20
155.7607584280
40
0.6250000000
0
CIRCLE
5
6CF
100
AcDbEntity
8
0
100
AcDbCircle
62
7
6
CONTINUOUS
10
184.8437210720
20
81.3607584280
40
0.6250000000
0
CIRCLE
5
6D0
100
AcDbEntity
8
0
100
AcDbCircle
62
7
6
CONTINUOUS
10
184.8437210720
20
79.7607584280
40
0.6250000000
0
CIRCLE
5
6D1
100
AcDbEntity
8
0
100
AcDbCircle
62
7
6
CONTINUOUS
10
189.8437210720
20
157.3607584280
40
0.6250000000
0
CIRCLE
5
6D2
100
AcDbEntity
8
0
100
AcDbCircle
62
7
6
CONTINUOUS
10
189.8437210720
20
155.7607584280
40
0.6250000000
0
CIRCLE
5
6D3
100
AcDbEntity
8
0
100
AcDbCircle
62
7
6
CONTINUOUS
10
189.8437210720
20
81.3607584280
40
0.6250000000
0
CIRCLE
5
6D4
100
AcDbEntity
8
0
100
AcDbCircle
62
7
6
CONTINUOUS
10
189.8437210720
20
79.7607584280
40
0.6250000000
0
CIRCLE
5
6D5
100
AcDbEntity
8
0
100
AcDbCircle
62
7
6
CONTINUOUS
10
194.8437210720
20
157.3607584280
40
0.6250000000
0
CIRCLE
5
6D6
100
AcDbEntity
8
0
100
AcDbCircle
62
7
6
CONTINUOUS
10
194.8437210720
20
155.7607584280
40
0.6250000000
0
CIRCLE
5
6D7
100
AcDbEntity
8
0
100
AcDbCircle
62
7
6
CONTINUOUS
10
194.8437210720
20
81.3607584280
40
0.6250000000
0
CIRCLE
5
6D8
100
AcDbEntity
8
0
100
AcDbCircle
62
7
6
CONTINUOUS
10
194.8437210720
20
79.7607584280
40
0.6250000000
0
CIRCLE
5
6D9
100
AcDbEntity
8
0
100
AcDbCircle
62
7
6
CONTINUOUS
10
199.8437210720
20
157.3607584280
40
0.6250000000
0
CIRCLE
5
6DA
100
AcDbEntity
8
0
100
AcDbCircle
62
7
6
CONTINUOUS
10
199.8437210720
20
155.7607584280
40
0.6250000000
0
CIRCLE
5
6DB
100
AcDbEntity
8
0
100
AcDbCircle
62
7
6
CONTINUOUS
10
199.8437210720
20
81.3607584280
40
0.6250000000
0
CIRCLE
5
6DC
100
AcDbEntity
8
0
100
AcDbCircle
62
7
6
CONTINUOUS
10
199.8437210720
20
79.7607584280
40
0.6250000000
0
CIRCLE
5
6DD
100
AcDbEntity
8
0
100
AcDbCircle
62
7
6
CONTINUOUS
10
217.3437210720
20
157.3607584280
40
0.6250000000
0
CIRCLE
5
6DE
100
AcDbEntity
8
0
100
AcDbCircle
62
7
6
CONTINUOUS
10
217.3437210720
20
155.7607584280
40
0.6250000000
0
CIRCLE
5
6DF
100
AcDbEntity
8
0
100
AcDbCircle
62
7
6
CONTINUOUS
10
217.3437210720
20
81.3607584280
40
0.6250000000
0
CIRCLE
5
6E0
100
AcDbEntity
8
0
100
AcDbCircle
62
7
6
CONTINUOUS
10
217.3437210720
20
79.7607584280
40
0.6250000000
0
CIRCLE
5
6E1
100
AcDbEntity
8
0
100
AcDbCircle
62
7
6
CONTINUOUS
10
222.3437210720
20
157.3607584280
40
0.6250000000
0
CIRCLE
5
6E2
100
AcDbEntity
8
0
100
AcDbCircle
62
7
6
CONTINUOUS
10
222.3437210720
20
155.7607584280
40
0.6250000000
0
CIRCLE
5
6E3
100
AcDbEntity
8
0
100
AcDbCircle
62
7
6
CONTINUOUS
10
222.3437210720
20
81.3607584280
40
0.6250000000
0
CIRCLE
5
6E4
100
AcDbEntity
8
0
100
AcDbCircle
62
7
6
CONTINUOUS
10
222.3437210720
20
79.7607584280
40
0.6250000000
0
CIRCLE
5
6E5
100
AcDbEntity
8
0
100
AcDbCircle
62
7
6
CONTINUOUS
10
227.3437210720
20
157.3607584280
40
0.6250000000
0
CIRCLE
5
6E6
100
AcDbEntity
8
0
100
AcDbCircle
62
7
6
CONTINUOUS
10
227.3437210720
20
155.7607584280
40
0.6250000000
0
CIRCLE
5
6E7
100
AcDbEntity
8
0
100
AcDbCircle
62
7
6
CONTINUOUS
10
227.3437210720
20
81.3607584280
40
0.6250000000
0
CIRCLE
5
6E8
100
AcDbEntity
8
0
100
AcDbCircle
62
7
6
CONTINUOUS
10
227.3437210720
20
79.7607584280
40
0.6250000000
0
CIRCLE
5
6E9
100
AcDbEntity
8
0
100
AcDbCircle
62
7
6
CONTINUOUS
10
232.3437210720
20
157.3607584280
40
0.6250000000
0
CIRCLE
5
6EA
100
AcDbEntity
8
0
100
AcDbCircle
62
7
6
CONTINUOUS
10
232.3437210720
20
155.7607584280
40
0.6250000000
0
CIRCLE
5
6EB
100
AcDbEntity
8
0
100
AcDbCircle
62
7
6
CONTINUOUS
10
232.3437210720
20
81.3607584280
40
0.6250000000
0
CIRCLE
5
6EC
100
AcDbEntity
8
0
100
AcDbCircle
62
7
6
CONTINUOUS
10
232.3437210720
20
79.7607584280
40
0.6250000000
0
CIRCLE
5
6ED
100
AcDbEntity
8
0
100
AcDbCircle
62
7
6
CONTINUOUS
10
237.3437210720
20
157.3607584280
40
0.6250000000
0
CIRCLE
5
6EE
100
AcDbEntity
8
0
100
AcDbCircle
62
7
6
CONTINUOUS
10
237.3437210720
20
155.7607584280
40
0.6250000000
0
CIRCLE
5
6EF
100
AcDbEntity
8
0
100
AcDbCircle
62
7
6
CONTINUOUS
10
237.3437210720
20
81.3607584280
40
0.6250000000
0
CIRCLE
5
6F0
100
AcDbEntity
8
0
100
AcDbCircle
62
7
6
CONTINUOUS
10
237.3437210720
20
79.7607584280
40
0.6250000000
0
CIRCLE
5
6F1
100
AcDbEntity
8
0
100
AcDbCircle
62
7
6
CONTINUOUS
10
242.3437210720
20
157.3607584280
40
0.6250000000
0
CIRCLE
5
6F2
100
AcDbEntity
8
0
100
AcDbCircle
62
7
6
CONTINUOUS
10
242.3437210720
20
155.7607584280
40
0.6250000000
0
CIRCLE
5
6F3
100
AcDbEntity
8
0
100
AcDbCircle
62
7
6
CONTINUOUS
10
242.3437210720
20
81.3607584280
40
0.6250000000
0
CIRCLE
5
6F4
100
AcDbEntity
8
0
100
AcDbCircle
62
7
6
CONTINUOUS
10
242.3437210720
20
79.7607584280
40
0.6250000000
0
CIRCLE
5
6F5
100
AcDbEntity
8
0
100
AcDbCircle
62
7
6
CONTINUOUS
10
247.3437210720
20
157.3607584280
40
0.6250000000
0
CIRCLE
5
6F6
100
AcDbEntity
8
0
100
AcDbCircle
62
7
6
CONTINUOUS
10
247.3437210720
20
155.7607584280
40
0.6250000000
0
CIRCLE
5
6F7
100
AcDbEntity
8
0
100
AcDbCircle
62
7
6
CONTINUOUS
10
247.3437210720
20
81.3607584280
40
0.6250000000
0
CIRCLE
5
6F8
100
AcDbEntity
8
0
100
AcDbCircle
62
7
6
CONTINUOUS
10
247.3437210720
20
79.7607584280
40
0.6250000000
0
CIRCLE
5
6F9
100
AcDbEntity
8
0
100
AcDbCircle
62
7
6
CONTINUOUS
10
252.3437210720
20
157.3607584280
40
0.6250000000
0
CIRCLE
5
6FA
100
AcDbEntity
8
0
100
AcDbCircle
62
7
6
CONTINUOUS
10
252.3437210720
20
155.7607584280
40
0.6250000000
0
CIRCLE
5
6FB
100
AcDbEntity
8
0
100
AcDbCircle
62
7
6
CONTINUOUS
10
252.3437210720
20
81.3607584280
40
0.6250000000
0
CIRCLE
5
6FC
100
AcDbEntity
8
0
100
AcDbCircle
62
7
6
CONTINUOUS
10
252.3437210720
20
79.7607584280
40
0.6250000000
0
CIRCLE
5
6FD
100
AcDbEntity
8
0
100
AcDbCircle
62
7
6
CONTINUOUS
10
159.8437210720
20
145.5107584280
40
0.6250000000
0
CIRCLE
5
6FE
100
AcDbEntity
8
0
100
AcDbCircle
62
7
6
CONTINUOUS
10
212.3437210720
20
145.5107584280
40
0.6250000000
0
CIRCLE
5
6FF
100
AcDbEntity
8
0
100
AcDbCircle
62
7
6
CONTINUOUS
10
212.3437210720
20
91.6107584280
40
0.6250000000
0
CIRCLE
5
700
100
AcDbEntity
8
0
100
AcDbCircle
62
7
6
CONTINUOUS
10
159.8437210720
20
91.6107584280
40
0.6250000000
0
CIRCLE
5
701
100
AcDbEntity
8
0
100
AcDbCircle
62
7
6
CONTINUOUS
10
94.8437210720
20
145.5107584280
40
0.6250000000
0
CIRCLE
5
702
100
AcDbEntity
8
0
100
AcDbCircle
62
7
6
CONTINUOUS
10
94.8437210720
20
91.6107584280
40
0.6250000000
0
CIRCLE
5
703
100
AcDbEntity
8
0
100
AcDbCircle
62
7
6
CONTINUOUS
10
147.3437210720
20
145.5107584280
40
0.6250000000
0
CIRCLE
5
704
100
AcDbEntity
8
0
100
AcDbCircle
62
7
6
CONTINUOUS
10
147.3437210720
20
91.6107584280
40
0.6250000000
0
ARC
5
705
100
AcDbEntity
8
0
100
AcDbCircle
62
7
6
CONTINUOUS
10
142.3437210720
20
91.6107584280
40
0.6250000000
100
AcDbArc
50
334.5051820699
51
25.4948179301
0
ARC
5
706
100
AcDbEntity
8
0
100
AcDbCircle
62
7
6
CONTINUOUS
10
142.3437210720
20
145.5107584280
40
0.6250000000
100
AcDbArc
50
334.5051820699
51
25.4948179301
0
ARC
5
707
100
AcDbEntity
8
0
100
AcDbCircle
62
7
6
CONTINUOUS
10
89.8437210720
20
91.6107584280
40
0.6250000000
100
AcDbArc
50
334.5051820699
51
25.4948179301
0
ARC
5
708
100
AcDbEntity
8
0
100
AcDbCircle
62
7
6
CONTINUOUS
10
89.8437210720
20
145.5107584280
40
0.6250000000
100
AcDbArc
50
334.5051820699
51
25.4948179301
0
CIRCLE
5
709
100
AcDbEntity
8
0
100
AcDbCircle
62
7
6
CONTINUOUS
10
137.3437210720
20
91.6107584280
40
0.6250000000
0
CIRCLE
5
70A
100
AcDbEntity
8
0
100
AcDbCircle
62
7
6
CONTINUOUS
10
137.3437210720
20
145.5107584280
40
0.6250000000
0
CIRCLE
5
70B
100
AcDbEntity
8
0
100
AcDbCircle
62
7
6
CONTINUOUS
10
84.8437210720
20
91.6107584280
40
0.6250000000
0
CIRCLE
5
70C
100
AcDbEntity
8
0
100
AcDbCircle
62
7
6
CONTINUOUS
10
84.8437210720
20
145.5107584280
40
0.6250000000
0
CIRCLE
5
70D
100
AcDbEntity
8
0
100
AcDbCircle
62
7
6
CONTINUOUS
10
132.3437210720
20
91.6107584280
40
0.6250000000
0
CIRCLE
5
70E
100
AcDbEntity
8
0
100
AcDbCircle
62
7
6
CONTINUOUS
10
132.3437210720
20
145.5107584280
40
0.6250000000
0
CIRCLE
5
70F
100
AcDbEntity
8
0
100
AcDbCircle
62
7
6
CONTINUOUS
10
79.8437210720
20
91.6107584280
40
0.6250000000
0
CIRCLE
5
710
100
AcDbEntity
8
0
100
AcDbCircle
62
7
6
CONTINUOUS
10
79.8437210720
20
145.5107584280
40
0.6250000000
0
CIRCLE
5
711
100
AcDbEntity
8
0
100
AcDbCircle
62
7
6
CONTINUOUS
10
122.3437210720
20
91.6107584280
40
0.6250000000
0
CIRCLE
5
712
100
AcDbEntity
8
0
100
AcDbCircle
62
7
6
CONTINUOUS
10
122.3437210720
20
145.5107584280
40
0.6250000000
0
CIRCLE
5
713
100
AcDbEntity
8
0
100
AcDbCircle
62
7
6
CONTINUOUS
10
69.8437210720
20
91.6107584280
40
0.6250000000
0
CIRCLE
5
714
100
AcDbEntity
8
0
100
AcDbCircle
62
7
6
CONTINUOUS
10
69.8437210720
20
145.5107584280
40
0.6250000000
0
CIRCLE
5
715
100
AcDbEntity
8
0
100
AcDbCircle
62
7
6
CONTINUOUS
10
117.3437210720
20
91.6107584280
40
0.6250000000
0
CIRCLE
5
716
100
AcDbEntity
8
0
100
AcDbCircle
62
7
6
CONTINUOUS
10
117.3437210720
20
145.5107584280
40
0.6250000000
0
CIRCLE
5
717
100
AcDbEntity
8
0
100
AcDbCircle
62
7
6
CONTINUOUS
10
64.8437210720
20
91.6107584280
40
0.6250000000
0
CIRCLE
5
718
100
AcDbEntity
8
0
100
AcDbCircle
62
7
6
CONTINUOUS
10
64.8437210720
20
145.5107584280
40
0.6250000000
0
ARC
5
719
100
AcDbEntity
8
0
100
AcDbCircle
62
7
6
CONTINUOUS
10
112.3437210720
20
91.6107584280
40
0.6250000000
100
AcDbArc
50
154.5051820699
51
205.4948179301
0
ARC
5
71A
100
AcDbEntity
8
0
100
AcDbCircle
62
7
6
CONTINUOUS
10
112.3437210720
20
145.5107584280
40
0.6250000000
100
AcDbArc
50
154.5051820699
51
205.4948179301
0
ARC
5
71B
100
AcDbEntity
8
0
100
AcDbCircle
62
7
6
CONTINUOUS
10
59.8437210720
20
91.6107584280
40
0.6250000000
100
AcDbArc
50
154.5051820699
51
205.4948179301
0
ARC
5
71C
100
AcDbEntity
8
0
100
AcDbCircle
62
7
6
CONTINUOUS
10
59.8437210720
20
145.5107584280
40
0.6250000000
100
AcDbArc
50
154.5051820699
51
205.4948179301
0
CIRCLE
5
71D
100
AcDbEntity
8
0
100
AcDbCircle
62
7
6
CONTINUOUS
10
107.3437210720
20
91.6107584280
40
0.6250000000
0
CIRCLE
5
71E
100
AcDbEntity
8
0
100
AcDbCircle
62
7
6
CONTINUOUS
10
107.3437210720
20
145.5107584280
40
0.6250000000
0
CIRCLE
5
71F
100
AcDbEntity
8
0
100
AcDbCircle
62
7
6
CONTINUOUS
10
54.8437210720
20
91.6107584280
40
0.6250000000
0
CIRCLE
5
720
100
AcDbEntity
8
0
100
AcDbCircle
62
7
6
CONTINUOUS
10
54.8437210720
20
145.5107584280
40
0.6250000000
0
ARC
5
721
100
AcDbEntity
8
0
100
AcDbCircle
62
7
6
CONTINUOUS
10
164.8437210720
20
91.6107584280
40
0.6250000000
100
AcDbArc
50
154.5051820699
51
205.4948179301
0
ARC
5
722
100
AcDbEntity
8
0
100
AcDbCircle
62
7
6
CONTINUOUS
10
217.3437210720
20
91.6107584280
40
0.6250000000
100
AcDbArc
50
154.5051820699
51
205.4948179301
0
ARC
5
723
100
AcDbEntity
8
0
100
AcDbCircle
62
7
6
CONTINUOUS
10
217.3437210720
20
145.5107584280
40
0.6250000000
100
AcDbArc
50
154.5051820699
51
205.4948179301
0
ARC
5
724
100
AcDbEntity
8
0
100
AcDbCircle
62
7
6
CONTINUOUS
10
164.8437210720
20
145.5107584280
40
0.6250000000
100
AcDbArc
50
154.5051820699
51
205.4948179301
0
CIRCLE
5
725
100
AcDbEntity
8
0
100
AcDbCircle
62
7
6
CONTINUOUS
10
169.8437210720
20
91.6107584280
40
0.6250000000
0
CIRCLE
5
726
100
AcDbEntity
8
0
100
AcDbCircle
62
7
6
CONTINUOUS
10
222.3437210720
20
91.6107584280
40
0.6250000000
0
CIRCLE
5
727
100
AcDbEntity
8
0
100
AcDbCircle
62
7
6
CONTINUOUS
10
222.3437210720
20
145.5107584280
40
0.6250000000
0
CIRCLE
5
728
100
AcDbEntity
8
0
100
AcDbCircle
62
7
6
CONTINUOUS
10
169.8437210720
20
145.5107584280
40
0.6250000000
0
CIRCLE
5
729
100
AcDbEntity
8
0
100
AcDbCircle
62
7
6
CONTINUOUS
10
174.8437210720
20
91.6107584280
40
0.6250000000
0
CIRCLE
5
72A
100
AcDbEntity
8
0
100
AcDbCircle
62
7
6
CONTINUOUS
10
227.3437210720
20
91.6107584280
40
0.6250000000
0
CIRCLE
5
72B
100
AcDbEntity
8
0
100
AcDbCircle
62
7
6
CONTINUOUS
10
227.3437210720
20
145.5107584280
40
0.6250000000
0
CIRCLE
5
72C
100
AcDbEntity
8
0
100
AcDbCircle
62
7
6
CONTINUOUS
10
174.8437210720
20
145.5107584280
40
0.6250000000
0
CIRCLE
5
72D
100
AcDbEntity
8
0
100
AcDbCircle
62
7
6
CONTINUOUS
10
184.8437210720
20
91.6107584280
40
0.6250000000
0
CIRCLE
5
72E
100
AcDbEntity
8
0
100
AcDbCircle
62
7
6
CONTINUOUS
10
237.3437210720
20
91.6107584280
40
0.6250000000
0
CIRCLE
5
72F
100
AcDbEntity
8
0
100
AcDbCircle
62
7
6
CONTINUOUS
10
237.3437210720
20
145.5107584280
40
0.6250000000
0
CIRCLE
5
730
100
AcDbEntity
8
0
100
AcDbCircle
62
7
6
CONTINUOUS
10
184.8437210720
20
145.5107584280
40
0.6250000000
0
CIRCLE
5
731
100
AcDbEntity
8
0
100
AcDbCircle
62
7
6
CONTINUOUS
10
189.8437210720
20
91.6107584280
40
0.6250000000
0
CIRCLE
5
732
100
AcDbEntity
8
0
100
AcDbCircle
62
7
6
CONTINUOUS
10
242.3437210720
20
91.6107584280
40
0.6250000000
0
CIRCLE
5
733
100
AcDbEntity
8
0
100
AcDbCircle
62
7
6
CONTINUOUS
10
242.3437210720
20
145.5107584280
40
0.6250000000
0
CIRCLE
5
734
100
AcDbEntity
8
0
100
AcDbCircle
62
7
6
CONTINUOUS
10
189.8437210720
20
145.5107584280
40
0.6250000000
0
ARC
5
735
100
AcDbEntity
8
0
100
AcDbCircle
62
7
6
CONTINUOUS
10
194.8437210720
20
91.6107584280
40
0.6250000000
100
AcDbArc
50
334.5051820699
51
25.4948179302
0
ARC
5
736
100
AcDbEntity
8
0
100
AcDbCircle
62
7
6
CONTINUOUS
10
247.3437210720
20
91.6107584280
40
0.6250000000
100
AcDbArc
50
334.5051820699
51
25.4948179302
0
ARC
5
737
100
AcDbEntity
8
0
100
AcDbCircle
62
7
6
CONTINUOUS
10
247.3437210720
20
145.5107584280
40
0.6250000000
100
AcDbArc
50
334.5051820698
51
25.4948179301
0
ARC
5
738
100
AcDbEntity
8
0
100
AcDbCircle
62
7
6
CONTINUOUS
10
194.8437210720
20
145.5107584280
40
0.6250000000
100
AcDbArc
50
334.5051820698
51
25.4948179301
0
CIRCLE
5
739
100
AcDbEntity
8
0
100
AcDbCircle
62
7
6
CONTINUOUS
10
199.8437210720
20
91.6107584280
40
0.6250000000
0
CIRCLE
5
73A
100
AcDbEntity
8
0
100
AcDbCircle
62
7
6
CONTINUOUS
10
252.3437210720
20
91.6107584280
40
0.6250000000
0
CIRCLE
5
73B
100
AcDbEntity
8
0
100
AcDbCircle
62
7
6
CONTINUOUS
10
252.3437210720
20
145.5107584280
40
0.6250000000
0
CIRCLE
5
73C
100
AcDbEntity
8
0
100
AcDbCircle
62
7
6
CONTINUOUS
10
199.8437210720
20
145.5107584280
40
0.6250000000
0
ARC
5
73D
100
AcDbEntity
8
0
100
AcDbCircle
62
7
6
CONTINUOUS
10
205.5937210720
20
161.2307584280
40
0.2500000000
100
AcDbArc
50
90.0000000000
51
180.0000000000
0
ARC
5
73E
100
AcDbEntity
8
0
100
AcDbCircle
62
7
6
CONTINUOUS
10
206.5937210720
20
161.2307584280
40
0.2500000000
100
AcDbArc
50
0.0000000000
51
90.0000000000
0
ARC
5
73F
100
AcDbEntity
8
0
100
AcDbCircle
62
7
6
CONTINUOUS
10
206.5937210720
20
160.6907584280
40
0.2500000000
100
AcDbArc
50
270.0000000000
51
360.0000000000
0
ARC
5
740
100
AcDbEntity
8
0
100
AcDbCircle
62
7
6
CONTINUOUS
10
205.5937210720
20
160.6907584280
40
0.2500000000
100
AcDbArc
50
180.0000000000
51
270.0000000000
0
ARC
5
741
100
AcDbEntity
8
0
100
AcDbCircle
62
7
6
CONTINUOUS
10
153.0937210720
20
161.2307584280
40
0.2500000000
100
AcDbArc
50
90.0000000000
51
180.0000000000
0
ARC
5
742
100
AcDbEntity
8
0
100
AcDbCircle
62
7
6
CONTINUOUS
10
154.0937210720
20
161.2307584280
40
0.2500000000
100
AcDbArc
50
0.0000000000
51
90.0000000000
0
ARC
5
743
100
AcDbEntity
8
0
100
AcDbCircle
62
7
6
CONTINUOUS
10
154.0937210720
20
160.6907584280
40
0.2500000000
100
AcDbArc
50
270.0000000000
51
360.0000000000
0
ARC
5
744
100
AcDbEntity
8
0
100
AcDbCircle
62
7
6
CONTINUOUS
10
153.0937210720
20
160.6907584280
40
0.2500000000
100
AcDbArc
50
180.0000000000
51
270.0000000000
0
ARC
5
745
100
AcDbEntity
8
0
100
AcDbCircle
62
7
6
CONTINUOUS
10
100.5937210720
20
161.2307584280
40
0.2500000000
100
AcDbArc
50
90.0000000000
51
180.0000000000
0
ARC
5
746
100
AcDbEntity
8
0
100
AcDbCircle
62
7
6
CONTINUOUS
10
101.5937210720
20
161.2307584280
40
0.2500000000
100
AcDbArc
50
0.0000000000
51
90.0000000000
0
ARC
5
747
100
AcDbEntity
8
0
100
AcDbCircle
62
7
6
CONTINUOUS
10
101.5937210720
20
160.6907584280
40
0.2500000000
100
AcDbArc
50
270.0000000000
51
360.0000000000
0
ARC
5
748
100
AcDbEntity
8
0
100
AcDbCircle
62
7
6
CONTINUOUS
10
100.5937210720
20
160.6907584280
40
0.2500000000
100
AcDbArc
50
180.0000000000
51
270.0000000000
0
ARC
5
749
100
AcDbEntity
8
0
100
AcDbCircle
62
7
6
CONTINUOUS
10
100.5937210720
20
76.4307584280
40
0.2500000000
100
AcDbArc
50
90.0000000000
51
180.0000000000
0
ARC
5
74A
100
AcDbEntity
8
0
100
AcDbCircle
62
7
6
CONTINUOUS
10
101.5937210720
20
76.4307584280
40
0.2500000000
100
AcDbArc
50
0.0000000000
51
90.0000000000
0
ARC
5
74B
100
AcDbEntity
8
0
100
AcDbCircle
62
7
6
CONTINUOUS
10
101.5937210720
20
75.8907584280
40
0.2500000000
100
AcDbArc
50
270.0000000000
51
360.0000000000
0
ARC
5
74C
100
AcDbEntity
8
0
100
AcDbCircle
62
7
6
CONTINUOUS
10
100.5937210720
20
75.8907584280
40
0.2500000000
100
AcDbArc
50
180.0000000000
51
270.0000000000
0
ARC
5
74D
100
AcDbEntity
8
0
100
AcDbCircle
62
7
6
CONTINUOUS
10
153.0937210720
20
76.4307584280
40
0.2500000000
100
AcDbArc
50
90.0000000000
51
180.0000000000
0
ARC
5
74E
100
AcDbEntity
8
0
100
AcDbCircle
62
7
6
CONTINUOUS
10
154.0937210720
20
75.8907584280
40
0.2500000000
100
AcDbArc
50
270.0000000000
51
360.0000000000
0
ARC
5
74F
100
AcDbEntity
8
0
100
AcDbCircle
62
7
6
CONTINUOUS
10
153.0937210720
20
75.8907584280
40
0.2500000000
100
AcDbArc
50
180.0000000000
51
270.0000000000
0
ARC
5
750
100
AcDbEntity
8
0
100
AcDbCircle
62
7
6
CONTINUOUS
10
154.0937210720
20
76.4307584280
40
0.2500000000
100
AcDbArc
50
0.0000000000
51
90.0000000000
0
ARC
5
751
100
AcDbEntity
8
0
100
AcDbCircle
62
7
6
CONTINUOUS
10
205.5937210720
20
76.4307584280
40
0.2500000000
100
AcDbArc
50
90.0000000000
51
180.0000000000
0
ARC
5
752
100
AcDbEntity
8
0
100
AcDbCircle
62
7
6
CONTINUOUS
10
206.5937210720
20
76.4307584280
40
0.2500000000
100
AcDbArc
50
0.0000000000
51
90.0000000000
0
ARC
5
753
100
AcDbEntity
8
0
100
AcDbCircle
62
7
6
CONTINUOUS
10
206.5937210720
20
75.8907584280
40
0.2500000000
100
AcDbArc
50
270.0000000000
51
360.0000000000
0
ARC
5
754
100
AcDbEntity
8
0
100
AcDbCircle
62
7
6
CONTINUOUS
10
205.5937210720
20
75.8907584280
40
0.2500000000
100
AcDbArc
50
180.0000000000
51
270.0000000000
0
ARC
5
755
100
AcDbEntity
8
0
100
AcDbCircle
62
7
6
CONTINUOUS
10
251.2937210720
20
76.1607584280
40
0.6000000000
100
AcDbArc
50
270.0000000000
51
90.0000000000
0
ARC
5
756
100
AcDbEntity
8
0
100
AcDbCircle
62
7
6
CONTINUOUS
10
251.2937210720
20
76.1607584280
40
0.5694559627
100
AcDbArc
50
270.0000000000
51
90.0000000000
0
ARC
5
757
100
AcDbEntity
8
0
100
AcDbCircle
62
7
6
CONTINUOUS
10
55.8937210720
20
76.1607584280
40
0.5694559627
100
AcDbArc
50
90.0000000000
51
270.0000000000
0
ARC
5
758
100
AcDbEntity
8
0
100
AcDbCircle
62
7
6
CONTINUOUS
10
55.8937210720
20
76.1607584280
40
0.6000000000
100
AcDbArc
50
90.0000000000
51
270.0000000000
0
ARC
5
759
100
AcDbEntity
8
0
100
AcDbCircle
62
7
6
CONTINUOUS
10
55.8937210720
20
160.9607584280
40
0.6000000000
100
AcDbArc
50
90.0000000000
51
270.0000000000
0
ARC
5
75A
100
AcDbEntity
8
0
100
AcDbCircle
62
7
6
CONTINUOUS
10
55.8937210720
20
160.9607584280
40
0.5694559627
100
AcDbArc
50
90.0000000000
51
270.0000000000
0
ARC
5
75B
100
AcDbEntity
8
0
100
AcDbCircle
62
7
6
CONTINUOUS
10
251.2937210720
20
160.9607584280
40
0.5694559627
100
AcDbArc
50
270.0000000000
51
90.0000000000
0
ARC
5
75C
100
AcDbEntity
8
0
100
AcDbCircle
62
7
6
CONTINUOUS
10
251.2937210720
20
160.9607584280
40
0.6000000000
100
AcDbArc
50
270.0000000000
51
90.0000000000
0
ARC
5
75D
100
AcDbEntity
8
0
100
AcDbCircle
62
7
6
CONTINUOUS
10
50.7437210720
20
77.5607584280
40
0.4694559627
100
AcDbArc
50
180.0000000000
51
360.0000000000
0
ARC
5
75E
100
AcDbEntity
8
0
100
AcDbCircle
62
7
6
CONTINUOUS
10
50.7437210720
20
77.5607584280
40
0.5000000000
100
AcDbArc
50
180.0000000000
51
360.0000000000
0
ARC
5
75F
100
AcDbEntity
8
0
100
AcDbCircle
62
7
6
CONTINUOUS
10
256.4437210720
20
77.5607584280
40
0.4694559627
100
AcDbArc
50
180.0000000000
51
360.0000000000
0
ARC
5
760
100
AcDbEntity
8
0
100
AcDbCircle
62
7
6
CONTINUOUS
10
256.4437210720
20
77.5607584280
40
0.5000000000
100
AcDbArc
50
180.0000000000
51
360.0000000000
0
ARC
5
761
100
AcDbEntity
8
0
100
AcDbCircle
62
7
6
CONTINUOUS
10
256.4437210720
20
159.5607584280
40
0.4694559627
100
AcDbArc
50
0.0000000000
51
180.0000000000
0
ARC
5
762
100
AcDbEntity
8
0
100
AcDbCircle
62
7
6
CONTINUOUS
10
256.4437210720
20
159.5607584280
40
0.5000000000
100
AcDbArc
50
0.0000000000
51
180.0000000000
0
ARC
5
763
100
AcDbEntity
8
0
100
AcDbCircle
62
7
6
CONTINUOUS
10
50.7437210720
20
159.5607584280
40
0.4694559627
100
AcDbArc
50
0.0000000000
51
180.0000000000
0
ARC
5
764
100
AcDbEntity
8
0
100
AcDbCircle
62
7
6
CONTINUOUS
10
50.7437210720
20
159.5607584280
40
0.5000000000
100
AcDbArc
50
0.0000000000
51
180.0000000000
0
SPLINE
5
765
100
AcDbEntity
8
0
100
AcDbSpline
62
7
6
CONTINUOUS
70
0
71
3
72
11
73
7
74
5
42
0.0000001000
43
0.0000001000
44
0.0000000001
40
0.0000000000
40
0.0000000000
40
0.0000000000
40
0.0000000000
40
0.2478573751
40
0.4986690395
40
0.7508712153
40
1.0000000000
40
1.0000000000
40
1.0000000000
40
1.0000000000
10
258.5937210720
20
161.0607774665
30
0.0000000000
10
258.5937210720
20
161.1252479433
30
0.0000000000
10
258.5680129283
20
161.2563456783
30
0.0000000000
10
258.4570660858
20
161.4230755530
30
0.0000000000
10
258.2903521081
20
161.5347762445
30
0.0000000000
10
258.1585412952
20
161.5607584280
30
0.0000000000
10
258.0937401105
20
161.5607584280
30
0.0000000000
11
258.5937210720
21
161.0607774665
31
0.0000000000
11
258.5563134337
21
161.2505369195
31
0.0000000000
11
258.4480303478
21
161.4135701190
31
0.0000000000
11
258.2844348306
21
161.5229660274
31
0.0000000000
11
258.0937401105
21
161.5607584280
31
0.0000000000
0
SPLINE
5
766
100
AcDbEntity
8
0
100
AcDbSpline
62
7
6
CONTINUOUS
70
0
71
3
72
11
73
7
74
5
42
0.0000001000
43
0.0000001000
44
0.0000000001
40
0.0000000000
40
0.0000000000
40
0.0000000000
40
0.0000000000
40
0.2478573751
40
0.4986690395
40
0.7508712153
40
1.0000000000
40
1.0000000000
40
1.0000000000
40
1.0000000000
10
258.0937401105
20
75.5607584280
30
0.0000000000
10
258.1582105873
20
75.5607584280
30
0.0000000000
10
258.2893083222
20
75.5864665718
30
0.0000000000
10
258.4560381969
20
75.6974134142
30
0.0000000000
10
258.5677388885
20
75.8641273920
30
0.0000000000
10
258.5937210720
20
75.9959382049
30
0.0000000000
10
258.5937210720
20
76.0607393896
30
0.0000000000
11
258.0937401105
21
75.5607584280
31
0.0000000000
11
258.2834995635
21
75.5981660664
31
0.0000000000
11
258.4465327629
21
75.7064491522
31
0.0000000000
11
258.5559286714
21
75.8700446694
31
0.0000000000
11
258.5937210720
21
76.0607393896
31
0.0000000000
0
SPLINE
5
767
100
AcDbEntity
8
0
100
AcDbSpline
62
7
6
CONTINUOUS
70
0
71
3
72
11
73
7
74
5
42
0.0000001000
43
0.0000001000
44
0.0000000001
40
0.0000000000
40
0.0000000000
40
0.0000000000
40
0.0000000000
40
0.2478573751
40
0.4986690395
40
0.7508712153
40
1.0000000000
40
1.0000000000
40
1.0000000000
40
1.0000000000
10
49.0937020335
20
161.5607584280
30
0.0000000000
10
49.0292315567
20
161.5607584280
30
0.0000000000
10
48.8981338218
20
161.5350502843
30
0.0000000000
10
48.7314039471
20
161.4241034418
30
0.0000000000
10
48.6197032555
20
161.2573894641
30
0.0000000000
10
48.5937210720
20
161.1255786512
30
0.0000000000
10
48.5937210720
20
161.0607774665
30
0.0000000000
11
49.0937020335
21
161.5607584280
31
0.0000000000
11
48.9039425805
21
161.5233507897
31
0.0000000000
11
48.7409093811
21
161.4150677039
31
0.0000000000
11
48.6315134726
21
161.2514721866
31
0.0000000000
11
48.5937210720
21
161.0607774665
31
0.0000000000
0
SPLINE
5
768
100
AcDbEntity
8
0
100
AcDbSpline
62
7
6
CONTINUOUS
70
0
71
3
72
11
73
7
74
5
42
0.0000001000
43
0.0000001000
44
0.0000000001
40
0.0000000000
40
0.0000000000
40
0.0000000000
40
0.0000000000
40
0.2478573751
40
0.4986690395
40
0.7508712153
40
1.0000000000
40
1.0000000000
40
1.0000000000
40
1.0000000000
10
48.5937210720
20
76.0607393896
30
0.0000000000
10
48.5937210720
20
75.9962689128
30
0.0000000000
10
48.6194292157
20
75.8651711778
30
0.0000000000
10
48.7303760582
20
75.6984413031
30
0.0000000000
10
48.8970900360
20
75.5867406115
30
0.0000000000
10
49.0289008489
20
75.5607584280
30
0.0000000000
10
49.0937020335
20
75.5607584280
30
0.0000000000
11
48.5937210720
21
76.0607393896
31
0.0000000000
11
48.6311287104
21
75.8709799365
31
0.0000000000
11
48.7394117962
21
75.7079467371
31
0.0000000000
11
48.9030073134
21
75.5985508286
31
0.0000000000
11
49.0937020335
21
75.5607584280
31
0.0000000000
0
ENDSEC
0
SECTION
2
OBJECTS
0
DICTIONARY
5
769
100
AcDbDictionary
3
ACAD_GROUP
350
76A
3
ACAD_MLINESTYLE
350
76B
0
DICTIONARY
5
76A
102
{ACAD_REACTORS
330
769
102
}
100
AcDbDictionary
0
DICTIONARY
5
76B
102
{ACAD_REACTORS
330
769
102
}
100
AcDbDictionary
3
STANDARD
350
76C
0
MLINESTYLE
5
76C
102
{ACAD_REACTORS
330
76B
102
}
100
AcDbMlineStyle
2
STANDARD
70
0
3

62
256
51
90.0
52
90.0
71
2
49
0.5
62
256
6
BYLAYER
49
-0.5
62
256
6
BYLAYER
0
ENDSEC
0
EOF
