  0
SECTION
  2
HEADER
  9
$ACADVER
  1
AC1015
  9
$ACADMAINTVER
 70
    10
  9
$DWGCODEPAGE
  3
ANSI_1252
  9
$INSBASE
 10
0.0
 20
0.0
 30
0.0
  9
$EXTMIN
 10
119.941696112857
 20
7.432653104070483
 30
0.0
  9
$EXTMAX
 10
335.8416964705063
 20
286.4326531040705
 30
0.0
  9
$LIMMIN
 10
113.7788878442966
 20
1.554901991788597
  9
$LIMMAX
 10
329.551697808145
 20
280.4079336553424
  9
$ORTHOMODE
 70
     1
  9
$REGENMODE
 70
     1
  9
$FILLMODE
 70
     1
  9
$QTEXTMODE
 70
     0
  9
$MIRRTEXT
 70
     1
  9
$LTSCALE
 40
1.0
  9
$ATTMODE
 70
     1
  9
$TEXTSIZE
 40
5.0
  9
$TRACEWID
 40
1.0
  9
$TEXTSTYLE
  7
Standard
  9
$CLAYER
  8
Dimension
  9
$CELTYPE
  6
ByLayer
  9
$CECOLOR
 62
   256
  9
$CELTSCALE
 40
1.0
  9
$DISPSILH
 70
     0
  9
$DIMSCALE
 40
1.0
  9
$DIMASZ
 40
2.5
  9
$DIMEXO
 40
1.25
  9
$DIMDLI
 40
3.75
  9
$DIMRND
 40
0.0
  9
$DIMDLE
 40
0.0
  9
$DIMEXE
 40
1.25
  9
$DIMTP
 40
0.0
  9
$DIMTM
 40
0.0
  9
$DIMTXT
 40
3.174999999999999
  9
$DIMCEN
 40
2.5
  9
$DIMTSZ
 40
0.0
  9
$DIMTOL
 70
     0
  9
$DIMLIM
 70
     0
  9
$DIMTIH
 70
     1
  9
$DIMTOH
 70
     1
  9
$DIMSE1
 70
     0
  9
$DIMSE2
 70
     0
  9
$DIMTAD
 70
     1
  9
$DIMZIN
 70
     8
  9
$DIMBLK
  1

  9
$DIMASO
 70
     1
  9
$DIMSHO
 70
     1
  9
$DIMPOST
  1

  9
$DIMAPOST
  1

  9
$DIMALT
 70
     0
  9
$DIMALTD
 70
     3
  9
$DIMALTF
 40
0.03937007874016
  9
$DIMLFAC
 40
1.0
  9
$DIMTOFL
 70
     1
  9
$DIMTVP
 40
0.0
  9
$DIMTIX
 70
     0
  9
$DIMSOXD
 70
     0
  9
$DIMSAH
 70
     0
  9
$DIMBLK1
  1

  9
$DIMBLK2
  1

  9
$DIMSTYLE
  2
ISO-25
  9
$DIMCLRD
 70
   256
  9
$DIMCLRE
 70
   256
  9
$DIMCLRT
 70
   256
  9
$DIMTFAC
 40
1.0
  9
$DIMGAP
 40
0.625
  9
$DIMJUST
 70
     0
  9
$DIMSD1
 70
     0
  9
$DIMSD2
 70
     0
  9
$DIMTOLJ
 70
     0
  9
$DIMTZIN
 70
     8
  9
$DIMALTZ
 70
     0
  9
$DIMALTTZ
 70
     0
  9
$DIMUPT
 70
     0
  9
$DIMDEC
 70
     2
  9
$DIMTDEC
 70
     2
  9
$DIMALTU
 70
     2
  9
$DIMALTTD
 70
     3
  9
$DIMTXSTY
  7
Standard
  9
$DIMAUNIT
 70
     0
  9
$DIMADEC
 70
     0
  9
$DIMALTRND
 40
0.0
  9
$DIMAZIN
 70
     0
  9
$DIMDSEP
 70
    44
  9
$DIMATFIT
 70
     3
  9
$DIMFRAC
 70
     0
  9
$DIMLDRBLK
  1

  9
$DIMLUNIT
 70
     2
  9
$DIMLWD
 70
    -1
  9
$DIMLWE
 70
    -1
  9
$DIMTMOVE
 70
     0
  9
$LUNITS
 70
     2
  9
$LUPREC
 70
     4
  9
$SKETCHINC
 40
1.0
  9
$FILLETRAD
 40
10.0
  9
$AUNITS
 70
     0
  9
$AUPREC
 70
     0
  9
$MENU
  1
.
  9
$ELEVATION
 40
0.0
  9
$PELEVATION
 40
0.0
  9
$THICKNESS
 40
0.0
  9
$LIMCHECK
 70
     0
  9
$CHAMFERA
 40
10.0
  9
$CHAMFERB
 40
10.0
  9
$CHAMFERC
 40
20.0
  9
$CHAMFERD
 40
0.0
  9
$SKPOLY
 70
     0
  9
$TDCREATE
 40
2452403.565146875
  9
$TDUCREATE
 40
2452403.773480208
  9
$TDUPDATE
 40
2453055.698478704
  9
$TDUUPDATE
 40
2453055.906812037
  9
$TDINDWG
 40
0.1964196759
  9
$TDUSRTIMER
 40
0.1964196759
  9
$USRTIMER
 70
     1
  9
$ANGBASE
 50
0.0
  9
$ANGDIR
 70
     0
  9
$PDMODE
 70
     0
  9
$PDSIZE
 40
0.0
  9
$PLINEWID
 40
0.0
  9
$SPLFRAME
 70
     0
  9
$SPLINETYPE
 70
     6
  9
$SPLINESEGS
 70
     8
  9
$HANDSEED
  5
4F7
  9
$SURFTAB1
 70
     6
  9
$SURFTAB2
 70
     6
  9
$SURFTYPE
 70
     6
  9
$SURFU
 70
     6
  9
$SURFV
 70
     6
  9
$UCSBASE
  2

  9
$UCSNAME
  2

  9
$UCSORG
 10
0.0
 20
0.0
 30
0.0
  9
$UCSXDIR
 10
1.0
 20
0.0
 30
0.0
  9
$UCSYDIR
 10
0.0
 20
1.0
 30
0.0
  9
$UCSORTHOREF
  2

  9
$UCSORTHOVIEW
 70
     0
  9
$UCSORGTOP
 10
0.0
 20
0.0
 30
0.0
  9
$UCSORGBOTTOM
 10
0.0
 20
0.0
 30
0.0
  9
$UCSORGLEFT
 10
0.0
 20
0.0
 30
0.0
  9
$UCSORGRIGHT
 10
0.0
 20
0.0
 30
0.0
  9
$UCSORGFRONT
 10
0.0
 20
0.0
 30
0.0
  9
$UCSORGBACK
 10
0.0
 20
0.0
 30
0.0
  9
$PUCSBASE
  2

  9
$PUCSNAME
  2

  9
$PUCSORG
 10
0.0
 20
0.0
 30
0.0
  9
$PUCSXDIR
 10
1.0
 20
0.0
 30
0.0
  9
$PUCSYDIR
 10
0.0
 20
1.0
 30
0.0
  9
$PUCSORTHOREF
  2

  9
$PUCSORTHOVIEW
 70
     0
  9
$PUCSORGTOP
 10
0.0
 20
0.0
 30
0.0
  9
$PUCSORGBOTTOM
 10
0.0
 20
0.0
 30
0.0
  9
$PUCSORGLEFT
 10
0.0
 20
0.0
 30
0.0
  9
$PUCSORGRIGHT
 10
0.0
 20
0.0
 30
0.0
  9
$PUCSORGFRONT
 10
0.0
 20
0.0
 30
0.0
  9
$PUCSORGBACK
 10
0.0
 20
0.0
 30
0.0
  9
$USERI1
 70
     0
  9
$USERI2
 70
     0
  9
$USERI3
 70
     0
  9
$USERI4
 70
     0
  9
$USERI5
 70
     0
  9
$USERR1
 40
0.0
  9
$USERR2
 40
0.0
  9
$USERR3
 40
0.0
  9
$USERR4
 40
0.0
  9
$USERR5
 40
0.0
  9
$WORLDVIEW
 70
     1
  9
$SHADEDGE
 70
     3
  9
$SHADEDIF
 70
    70
  9
$TILEMODE
 70
     1
  9
$MAXACTVP
 70
    64
  9
$PINSBASE
 10
0.0
 20
0.0
 30
0.0
  9
$PLIMCHECK
 70
     0
  9
$PEXTMIN
 10
1.000000000000000E+20
 20
1.000000000000000E+20
 30
1.000000000000000E+20
  9
$PEXTMAX
 10
-1.000000000000000E+20
 20
-1.000000000000000E+20
 30
-1.000000000000000E+20
  9
$PLIMMIN
 10
0.0
 20
0.0
  9
$PLIMMAX
 10
420.0
 20
297.0
  9
$UNITMODE
 70
     0
  9
$VISRETAIN
 70
     1
  9
$PLINEGEN
 70
     0
  9
$PSLTSCALE
 70
     1
  9
$TREEDEPTH
 70
  3020
  9
$CMLSTYLE
  2
Standard
  9
$CMLJUST
 70
     0
  9
$CMLSCALE
 40
20.0
  9
$PROXYGRAPHICS
 70
     1
  9
$MEASUREMENT
 70
     1
  9
$CELWEIGHT
370
    -1
  9
$ENDCAPS
280
     0
  9
$JOINSTYLE
280
     0
  9
$LWDISPLAY
290
     0
  9
$INSUNITS
 70
     4
  9
$HYPERLINKBASE
  1

  9
$STYLESHEET
  1
monochrome.ctb
  9
$XEDIT
290
     1
  9
$CEPSNTYPE
380
     0
  9
$PSTYLEMODE
290
     1
  9
$FINGERPRINTGUID
  2
{D4BA06E0-C4F1-11D3-BFDF-9D61E196F537}
  9
$VERSIONGUID
  2
{6C76FDDE-62E5-11D8-BFE2-0080C87EC8F7}
  9
$EXTNAMES
290
     1
  9
$PSVPSCALE
 40
0.0
  9
$OLESTARTUP
290
     0
  0
ENDSEC
  0
SECTION
  2
CLASSES
  0
CLASS
  1
ACDBDICTIONARYWDFLT
  2
AcDbDictionaryWithDefault
  3
AutoCAD 2000
 90
        0
280
     0
281
     0
  0
CLASS
  1
ACDBPLACEHOLDER
  2
AcDbPlaceHolder
  3
AutoCAD 2000
 90
        0
280
     0
281
     0
  0
CLASS
  1
LAYOUT
  2
AcDbLayout
  3
AutoCAD 2000
 90
        0
280
     0
281
     0
  0
ENDSEC
  0
SECTION
  2
TABLES
  0
TABLE
  2
VPORT
  5
8
330
0
100
AcDbSymbolTable
 70
     2
  0
VPORT
  5
4F6
330
8
100
AcDbSymbolTableRecord
100
AcDbViewportTableRecord
  2
*Active
 70
     0
 10
0.0
 20
0.0
 11
1.0
 21
1.0
 12
212.131822243626
 22
146.9285950685105
 13
0.0
 23
0.0
 14
10.0
 24
10.0
 15
10.0
 25
10.0
 16
0.0
 26
0.0
 36
1.0
 17
0.0
 27
0.0
 37
0.0
 40
320.0353322574279
 41
1.830291970802919
 42
50.0
 43
0.0
 44
0.0
 50
0.0
 51
0.0
 71
     0
 72
   100
 73
     1
 74
     2
 75
     0
 76
     0
 77
     0
 78
     0
281
     0
 65
     1
110
0.0
120
0.0
130
0.0
111
1.0
121
0.0
131
0.0
112
0.0
122
1.0
132
0.0
 79
     0
146
0.0
  0
ENDTAB
  0
TABLE
  2
LTYPE
  5
5
330
0
100
AcDbSymbolTable
 70
     3
  0
LTYPE
  5
14
330
5
100
AcDbSymbolTableRecord
100
AcDbLinetypeTableRecord
  2
ByBlock
 70
     0
  3

 72
    65
 73
     0
 40
0.0
  0
LTYPE
  5
15
330
5
100
AcDbSymbolTableRecord
100
AcDbLinetypeTableRecord
  2
ByLayer
 70
     0
  3

 72
    65
 73
     0
 40
0.0
  0
LTYPE
  5
16
330
5
100
AcDbSymbolTableRecord
100
AcDbLinetypeTableRecord
  2
Continuous
 70
     0
  3
Solid line
 72
    65
 73
     0
 40
0.0
  0
LTYPE
  5
2D
330
5
100
AcDbSymbolTableRecord
100
AcDbLinetypeTableRecord
  2
CENTER2
 70
     0
  3
Center (.5x) ___ _ ___ _ ___ _ ___ _ ___ _ ___
 72
    65
 73
     4
 40
28.57499999999999
 49
19.05
 74
     0
 49
-3.174999999999999
 74
     0
 49
3.174999999999999
 74
     0
 49
-3.174999999999999
 74
     0
  0
LTYPE
  5
2E
330
5
100
AcDbSymbolTableRecord
100
AcDbLinetypeTableRecord
  2
HIDDEN2
 70
     0
  3
Hidden (.5x) _ _ _ _ _ _ _ _ _ _ _ _ _ _ _ _ _
 72
    65
 73
     2
 40
4.762499999999999
 49
3.174999999999999
 74
     0
 49
-1.587499999999999
 74
     0
  0
ENDTAB
  0
TABLE
  2
LAYER
  5
2
330
0
100
AcDbSymbolTable
 70
     9
  0
LAYER
  5
10
330
2
100
AcDbSymbolTableRecord
100
AcDbLayerTableRecord
  2
0
 70
     0
 62
     7
  6
Continuous
370
    -3
390
F
  0
LAYER
  5
2F
330
2
100
AcDbSymbolTableRecord
100
AcDbLayerTableRecord
  2
Outline
 70
     0
 62
     5
  6
Continuous
370
    -3
390
F
  0
LAYER
  5
30
330
2
100
AcDbSymbolTableRecord
100
AcDbLayerTableRecord
  2
Dimension
 70
     0
 62
     1
  6
Continuous
370
    -3
390
F
  0
LAYER
  5
31
330
2
100
AcDbSymbolTableRecord
100
AcDbLayerTableRecord
  2
Text
 70
     0
 62
     6
  6
Continuous
370
    -3
390
F
  0
LAYER
  5
32
330
2
100
AcDbSymbolTableRecord
100
AcDbLayerTableRecord
  2
Centerline
 70
     0
 62
     2
  6
CENTER2
370
    -3
390
F
  0
LAYER
  5
33
330
2
100
AcDbSymbolTableRecord
100
AcDbLayerTableRecord
  2
Hidden
 70
     0
 62
     9
  6
HIDDEN2
370
    -3
390
F
  0
LAYER
  5
34
330
2
100
AcDbSymbolTableRecord
100
AcDbLayerTableRecord
  2
Titleblock
 70
     0
 62
    30
  6
Continuous
370
    -3
390
F
  0
LAYER
  5
3A
330
2
100
AcDbSymbolTableRecord
100
AcDbLayerTableRecord
  2
TITLE_BLOCK
 70
     0
 62
    30
  6
Continuous
370
    -3
390
F
  0
LAYER
  5
15B
330
2
100
AcDbSymbolTableRecord
100
AcDbLayerTableRecord
  2
Defpoints
 70
     0
 62
     7
  6
Continuous
290
     0
370
    -3
390
F
  0
ENDTAB
  0
TABLE
  2
STYLE
  5
3
330
0
100
AcDbSymbolTable
 70
     5
  0
STYLE
  5
11
330
3
100
AcDbSymbolTableRecord
100
AcDbTextStyleTableRecord
  2
Standard
 70
     0
 40
0.0
 41
1.0
 50
0.0
 71
     0
 42
5.0
  3
VERDANA.TTF
  4

1001
ACAD
1000
Verdana
1071
       34
  0
STYLE
  5
2C
330
3
100
AcDbSymbolTableRecord
100
AcDbTextStyleTableRecord
  2

 70
     1
 40
0.0
 41
1.0
 50
0.0
 71
     0
 42
2.5
  3
ltypeshp.shx
  4

  0
STYLE
  5
3B
330
3
100
AcDbSymbolTableRecord
100
AcDbTextStyleTableRecord
  2
ROMANT
 70
     0
 40
0.04
 41
1.0
 50
0.0
 71
     0
 42
0.04
  3
romant
  4

  0
STYLE
  5
3C
330
3
100
AcDbSymbolTableRecord
100
AcDbTextStyleTableRecord
  2
ROMANS
 70
     0
 40
0.09375
 41
1.0
 50
0.0
 71
     0
 42
0.09375
  3
romans
  4

  0
STYLE
  5
3D
330
3
100
AcDbSymbolTableRecord
100
AcDbTextStyleTableRecord
  2
S
 70
     0
 40
0.09
 41
0.8
 50
0.0
 71
     0
 42
0.09
  3
romans.shx
  4

  0
ENDTAB
  0
TABLE
  2
VIEW
  5
6
330
0
100
AcDbSymbolTable
 70
     0
  0
ENDTAB
  0
TABLE
  2
UCS
  5
7
330
0
100
AcDbSymbolTable
 70
     0
  0
ENDTAB
  0
TABLE
  2
APPID
  5
9
330
0
100
AcDbSymbolTable
 70
     1
  0
APPID
  5
12
330
9
100
AcDbSymbolTableRecord
100
AcDbRegAppTableRecord
  2
ACAD
 70
     0
  0
ENDTAB
  0
TABLE
  2
DIMSTYLE
  5
A
330
0
100
AcDbSymbolTable
 70
     2
100
AcDbDimStyleTable
 71
     1
340
27
  0
DIMSTYLE
105
27
102
{ACAD_REACTORS
330
2A6
330
2B3
330
2D4
330
2E1
330
43D
330
44E
330
469
330
488
330
495
330
4A3
102
}
330
A
100
AcDbSymbolTableRecord
100
AcDbDimStyleTableRecord
  2
ISO-25
 70
     0
 41
2.5
 42
1.25
 43
3.75
 44
1.25
 77
     1
 78
     8
140
3.174999999999999
141
2.5
143
0.03937007874016
147
0.625
171
     3
172
     1
176
   256
177
   256
178
   256
271
     2
272
     2
274
     3
278
    44
283
     0
284
     8
340
11
371
    -1
372
    -1
  0
DIMSTYLE
105
3E
330
A
100
AcDbSymbolTableRecord
100
AcDbDimStyleTableRecord
  2
STANDARD
 70
     0
340
11
  0
ENDTAB
  0
TABLE
  2
BLOCK_RECORD
  5
1
330
0
100
AcDbSymbolTable
 70
    22
  0
BLOCK_RECORD
  5
1F
330
1
100
AcDbSymbolTableRecord
100
AcDbBlockTableRecord
  2
*Model_Space
340
22
  0
BLOCK_RECORD
  5
1B
330
1
100
AcDbSymbolTableRecord
100
AcDbBlockTableRecord
  2
*Paper_Space
340
1E
  0
BLOCK_RECORD
  5
23
330
1
100
AcDbSymbolTableRecord
100
AcDbBlockTableRecord
  2
*Paper_Space0
340
26
  0
BLOCK_RECORD
  5
2A7
330
1
100
AcDbSymbolTableRecord
100
AcDbBlockTableRecord
  2
*D9
340
0
  0
BLOCK_RECORD
  5
2B4
330
1
100
AcDbSymbolTableRecord
100
AcDbBlockTableRecord
  2
*D10
340
0
  0
BLOCK_RECORD
  5
2D5
330
1
100
AcDbSymbolTableRecord
100
AcDbBlockTableRecord
  2
*D11
340
0
  0
BLOCK_RECORD
  5
2E2
330
1
100
AcDbSymbolTableRecord
100
AcDbBlockTableRecord
  2
*D12
340
0
  0
BLOCK_RECORD
  5
43E
330
1
100
AcDbSymbolTableRecord
100
AcDbBlockTableRecord
  2
*D15
340
0
  0
BLOCK_RECORD
  5
44F
330
1
100
AcDbSymbolTableRecord
100
AcDbBlockTableRecord
  2
*D16
340
0
  0
BLOCK_RECORD
  5
46A
330
1
100
AcDbSymbolTableRecord
100
AcDbBlockTableRecord
  2
*D17
340
0
  0
BLOCK_RECORD
  5
489
330
1
100
AcDbSymbolTableRecord
100
AcDbBlockTableRecord
  2
*D19
340
0
  0
BLOCK_RECORD
  5
496
330
1
100
AcDbSymbolTableRecord
100
AcDbBlockTableRecord
  2
*D20
340
0
  0
BLOCK_RECORD
  5
4A4
330
1
100
AcDbSymbolTableRecord
100
AcDbBlockTableRecord
  2
*D21
340
0
  0
ENDTAB
  0
ENDSEC
  0
SECTION
  2
BLOCKS
  0
BLOCK
  5
20
330
1F
100
AcDbEntity
  8
0
100
AcDbBlockBegin
  2
*Model_Space
 70
     0
 10
0.0
 20
0.0
 30
0.0
  3
*Model_Space
  1

  0
ENDBLK
  5
21
330
1F
100
AcDbEntity
  8
0
100
AcDbBlockEnd
  0
BLOCK
  5
1C
330
1B
100
AcDbEntity
 67
     1
  8
0
100
AcDbBlockBegin
  2
*Paper_Space
 70
     0
 10
0.0
 20
0.0
 30
0.0
  3
*Paper_Space
  1

  0
ENDBLK
  5
1D
330
1B
100
AcDbEntity
 67
     1
  8
0
100
AcDbBlockEnd
  0
BLOCK
  5
24
330
23
100
AcDbEntity
  8
0
100
AcDbBlockBegin
  2
*Paper_Space0
 70
     0
 10
0.0
 20
0.0
 30
0.0
  3
*Paper_Space0
  1

  0
ENDBLK
  5
25
330
23
100
AcDbEntity
  8
0
100
AcDbBlockEnd
  0
BLOCK
  5
2B1
330
2A7
100
AcDbEntity
  8
0
100
AcDbBlockBegin
  2
*D9
 70
     1
 10
0.0
 20
0.0
 30
0.0
  3
*D9
  1

  0
LINE
  5
3A6
330
2A7
100
AcDbEntity
  8
Dimension
100
AcDbLine
 10
134.8357608550302
 20
148.3691843747474
 30
0.0
 11
134.8357608550302
 21
157.2811965663048
 31
0.0
  0
LINE
  5
3A7
330
2A7
100
AcDbEntity
  8
Dimension
100
AcDbLine
 10
175.3357608550302
 20
148.3691843747474
 30
0.0
 11
175.3357608550302
 21
157.2811965663048
 31
0.0
  0
LINE
  5
3A8
330
2A7
100
AcDbEntity
  8
Dimension
100
AcDbLine
 10
137.3357608550302
 20
156.0311965663048
 30
0.0
 11
172.8357608550302
 21
156.0311965663048
 31
0.0
  0
SOLID
  5
3A9
330
2A7
100
AcDbEntity
  8
Dimension
100
AcDbTrace
 10
137.3357608550302
 20
156.4478632329715
 30
0.0
 11
137.3357608550302
 21
155.6145298996381
 31
0.0
 12
134.8357608550302
 22
156.0311965663048
 32
0.0
 13
134.8357608550302
 23
156.0311965663048
 33
0.0
  0
SOLID
  5
3AA
330
2A7
100
AcDbEntity
  8
Dimension
100
AcDbTrace
 10
172.8357608550302
 20
156.4478632329715
 30
0.0
 11
172.8357608550302
 21
155.6145298996381
 31
0.0
 12
175.3357608550302
 22
156.0311965663048
 32
0.0
 13
175.3357608550302
 23
156.0311965663048
 33
0.0
  0
MTEXT
  5
3AB
330
2A7
100
AcDbEntity
  8
Dimension
100
AcDbMText
 10
155.0857608550302
 20
158.7330602331953
 30
0.0
 40
3.174999999999999
 41
0.0
 71
     5
 72
     1
  1
39.50 [1.555]
 73
     1
 44
1.0
  0
POINT
  5
3AC
330
2A7
100
AcDbEntity
  8
Defpoints
 62
     0
100
AcDbPoint
 10
134.8357608550302
 20
147.1191843747474
 30
0.0
  0
POINT
  5
3AD
330
2A7
100
AcDbEntity
  8
Defpoints
 62
     0
100
AcDbPoint
 10
175.3357608550302
 20
147.1191843747474
 30
0.0
  0
POINT
  5
3AE
330
2A7
100
AcDbEntity
  8
Defpoints
 62
     0
100
AcDbPoint
 10
175.3357608550302
 20
156.0311965663048
 30
0.0
  0
ENDBLK
  5
2B2
330
2A7
100
AcDbEntity
  8
0
100
AcDbBlockEnd
  0
BLOCK
  5
2BF
330
2B4
100
AcDbEntity
  8
0
100
AcDbBlockBegin
  2
*D10
 70
     1
 10
0.0
 20
0.0
 30
0.0
  3
*D10
  1

  0
LINE
  5
3AF
330
2B4
100
AcDbEntity
  8
Dimension
100
AcDbLine
 10
176.5857608550302
 20
147.1191843747474
 30
0.0
 11
196.0428501234835
 21
147.1191843747474
 31
0.0
  0
LINE
  5
3B0
330
2B4
100
AcDbEntity
  8
Dimension
100
AcDbLine
 10
176.5857608550302
 20
65.11918437474742
 30
0.0
 11
196.0428501234835
 21
65.11918437474742
 31
0.0
  0
LINE
  5
3B1
330
2B4
100
AcDbEntity
  8
Dimension
100
AcDbLine
 10
194.7928501234835
 20
144.6191843747473
 30
0.0
 11
194.7928501234835
 21
108.8210480416379
 31
0.0
  0
LINE
  5
3B2
330
2B4
100
AcDbEntity
  8
Dimension
100
AcDbLine
 10
194.7928501234835
 20
67.61918437474742
 30
0.0
 11
194.7928501234835
 21
103.4173207078568
 31
0.0
  0
SOLID
  5
3B3
330
2B4
100
AcDbEntity
  8
Dimension
100
AcDbTrace
 10
194.3761834568168
 20
144.6191843747473
 30
0.0
 11
195.2095167901501
 21
144.6191843747473
 31
0.0
 12
194.7928501234835
 22
147.1191843747474
 32
0.0
 13
194.7928501234835
 23
147.1191843747474
 33
0.0
  0
SOLID
  5
3B4
330
2B4
100
AcDbEntity
  8
Dimension
100
AcDbTrace
 10
194.3761834568168
 20
67.61918437474742
 30
0.0
 11
195.2095167901501
 21
67.61918437474742
 31
0.0
 12
194.7928501234835
 22
65.11918437474742
 32
0.0
 13
194.7928501234835
 23
65.11918437474742
 33
0.0
  0
MTEXT
  5
3B5
330
2B4
100
AcDbEntity
  8
Dimension
100
AcDbMText
 10
194.7928501234834
 20
106.1191843747474
 30
0.0
 40
3.174999999999999
 41
0.0
 71
     5
 72
     1
  1
81.00 [3.189]
 73
     1
 44
1.0
  0
POINT
  5
3B6
330
2B4
100
AcDbEntity
  8
Defpoints
 62
     0
100
AcDbPoint
 10
175.3357608550302
 20
147.1191843747474
 30
0.0
  0
POINT
  5
3B7
330
2B4
100
AcDbEntity
  8
Defpoints
 62
     0
100
AcDbPoint
 10
175.3357608550302
 20
65.11918437474742
 30
0.0
  0
POINT
  5
3B8
330
2B4
100
AcDbEntity
  8
Defpoints
 62
     0
100
AcDbPoint
 10
194.7928501234835
 20
65.11918437474742
 30
0.0
  0
ENDBLK
  5
2C0
330
2B4
100
AcDbEntity
  8
0
100
AcDbBlockEnd
  0
BLOCK
  5
2DF
330
2D5
100
AcDbEntity
  8
0
100
AcDbBlockBegin
  2
*D11
 70
     1
 10
0.0
 20
0.0
 30
0.0
  3
*D11
  1

  0
LINE
  5
3C3
330
2D5
100
AcDbEntity
  8
Dimension
100
AcDbLine
 10
253.2038298969652
 20
148.3691843747474
 30
0.0
 11
253.2038298969652
 21
157.2811965663048
 31
0.0
  0
LINE
  5
3C4
330
2D5
100
AcDbEntity
  8
Dimension
100
AcDbLine
 10
326.1038298969651
 20
148.3691843747474
 30
0.0
 11
326.1038298969651
 21
157.2811965663048
 31
0.0
  0
LINE
  5
3C5
330
2D5
100
AcDbEntity
  8
Dimension
100
AcDbLine
 10
255.7038298969652
 20
156.0311965663048
 30
0.0
 11
323.6038298969651
 21
156.0311965663048
 31
0.0
  0
SOLID
  5
3C6
330
2D5
100
AcDbEntity
  8
Dimension
100
AcDbTrace
 10
255.7038298969652
 20
156.4478632329715
 30
0.0
 11
255.7038298969652
 21
155.6145298996381
 31
0.0
 12
253.2038298969652
 22
156.0311965663048
 32
0.0
 13
253.2038298969652
 23
156.0311965663048
 33
0.0
  0
SOLID
  5
3C7
330
2D5
100
AcDbEntity
  8
Dimension
100
AcDbTrace
 10
323.6038298969651
 20
156.4478632329715
 30
0.0
 11
323.6038298969651
 21
155.6145298996381
 31
0.0
 12
326.1038298969651
 22
156.0311965663048
 32
0.0
 13
326.1038298969651
 23
156.0311965663048
 33
0.0
  0
MTEXT
  5
3C8
330
2D5
100
AcDbEntity
  8
Dimension
100
AcDbMText
 10
289.6538298969651
 20
158.7330602331953
 30
0.0
 40
3.174999999999999
 41
0.0
 71
     5
 72
     1
  1
72.60 [2.858]
 73
     1
 44
1.0
  0
POINT
  5
3C9
330
2D5
100
AcDbEntity
  8
Defpoints
 62
     0
100
AcDbPoint
 10
253.2038298969652
 20
147.1191843747474
 30
0.0
  0
POINT
  5
3CA
330
2D5
100
AcDbEntity
  8
Defpoints
 62
     0
100
AcDbPoint
 10
326.1038298969651
 20
147.1191843747474
 30
0.0
  0
POINT
  5
3CB
330
2D5
100
AcDbEntity
  8
Defpoints
 62
     0
100
AcDbPoint
 10
326.1038298969651
 20
156.0311965663048
 30
0.0
  0
ENDBLK
  5
2E0
330
2D5
100
AcDbEntity
  8
0
100
AcDbBlockEnd
  0
BLOCK
  5
2ED
330
2E2
100
AcDbEntity
  8
0
100
AcDbBlockBegin
  2
*D12
 70
     1
 10
0.0
 20
0.0
 30
0.0
  3
*D12
  1

  0
LINE
  5
3B9
330
2E2
100
AcDbEntity
  8
Dimension
100
AcDbLine
 10
251.9538298969651
 20
147.1191843747474
 30
0.0
 11
234.1749268208666
 21
147.1191843747474
 31
0.0
  0
LINE
  5
3BA
330
2E2
100
AcDbEntity
  8
Dimension
100
AcDbLine
 10
251.9538298969652
 20
65.11918437474744
 30
0.0
 11
234.1749268208666
 21
65.11918437474744
 31
0.0
  0
LINE
  5
3BB
330
2E2
100
AcDbEntity
  8
Dimension
100
AcDbLine
 10
235.4249268208666
 20
144.6191843747474
 30
0.0
 11
235.4249268208666
 21
108.8210480416379
 31
0.0
  0
LINE
  5
3BC
330
2E2
100
AcDbEntity
  8
Dimension
100
AcDbLine
 10
235.4249268208666
 20
67.61918437474744
 30
0.0
 11
235.4249268208666
 21
103.4173207078568
 31
0.0
  0
SOLID
  5
3BD
330
2E2
100
AcDbEntity
  8
Dimension
100
AcDbTrace
 10
235.0082601541999
 20
144.6191843747474
 30
0.0
 11
235.8415934875333
 21
144.6191843747474
 31
0.0
 12
235.4249268208666
 22
147.1191843747474
 32
0.0
 13
235.4249268208666
 23
147.1191843747474
 33
0.0
  0
SOLID
  5
3BE
330
2E2
100
AcDbEntity
  8
Dimension
100
AcDbTrace
 10
235.0082601541999
 20
67.61918437474744
 30
0.0
 11
235.8415934875333
 21
67.61918437474744
 31
0.0
 12
235.4249268208666
 22
65.11918437474744
 32
0.0
 13
235.4249268208666
 23
65.11918437474744
 33
0.0
  0
MTEXT
  5
3BF
330
2E2
100
AcDbEntity
  8
Dimension
100
AcDbMText
 10
235.4249268208666
 20
106.1191843747474
 30
0.0
 40
3.174999999999999
 41
0.0
 71
     5
 72
     1
  1
81.0 [3.189]
 73
     1
 44
1.0
  0
POINT
  5
3C0
330
2E2
100
AcDbEntity
  8
Defpoints
 62
     0
100
AcDbPoint
 10
253.2038298969652
 20
147.1191843747474
 30
0.0
  0
POINT
  5
3C1
330
2E2
100
AcDbEntity
  8
Defpoints
 62
     0
100
AcDbPoint
 10
253.2038298969652
 20
65.11918437474744
 30
0.0
  0
POINT
  5
3C2
330
2E2
100
AcDbEntity
  8
Defpoints
 62
     0
100
AcDbPoint
 10
235.4249268208666
 20
65.11918437474744
 30
0.0
  0
ENDBLK
  5
2EE
330
2E2
100
AcDbEntity
  8
0
100
AcDbBlockEnd
  0
BLOCK
  5
44A
330
43E
100
AcDbEntity
  8
0
100
AcDbBlockBegin
  2
*D15
 70
     1
 10
0.0
 20
0.0
 30
0.0
  3
*D15
  1

  0
LINE
  5
4CC
330
43E
100
AcDbEntity
  8
Dimension
100
AcDbLine
 10
197.7126064826122
 20
209.027486803214
 30
0.0
 11
197.7126064826122
 21
203.5150862468467
 31
0.0
  0
LINE
  5
4CD
330
43E
100
AcDbEntity
  8
Dimension
100
AcDbLine
 10
194.3175545240681
 20
209.027486803214
 30
0.0
 11
194.3175545240681
 21
203.5150862468467
 31
0.0
  0
LINE
  5
4CE
330
43E
100
AcDbEntity
  8
Dimension
100
AcDbLine
 10
200.2126064826122
 20
204.7650862468467
 30
0.0
 11
202.7126064826122
 21
204.7650862468467
 31
0.0
  0
LINE
  5
4CF
330
43E
100
AcDbEntity
  8
Dimension
100
AcDbLine
 10
191.8175545240681
 20
204.7650862468467
 30
0.0
 11
162.4969702393132
 21
204.7650862468467
 31
0.0
  0
LINE
  5
4D0
330
43E
100
AcDbEntity
  8
Dimension
100
AcDbLine
 10
197.7126064826122
 20
204.7650862468467
 30
0.0
 11
194.3175545240681
 21
204.7650862468467
 31
0.0
  0
SOLID
  5
4D1
330
43E
100
AcDbEntity
  8
Dimension
100
AcDbTrace
 10
200.2126064826122
 20
205.1817529135134
 30
0.0
 11
200.2126064826122
 21
204.34841958018
 31
0.0
 12
197.7126064826122
 22
204.7650862468467
 32
0.0
 13
197.7126064826122
 23
204.7650862468467
 33
0.0
  0
SOLID
  5
4D2
330
43E
100
AcDbEntity
  8
Dimension
100
AcDbTrace
 10
191.8175545240681
 20
205.1817529135134
 30
0.0
 11
191.8175545240681
 21
204.34841958018
 31
0.0
 12
194.3175545240681
 22
204.7650862468467
 32
0.0
 13
194.3175545240681
 23
204.7650862468467
 33
0.0
  0
MTEXT
  5
4D3
330
43E
100
AcDbEntity
  8
Dimension
100
AcDbMText
 10
175.9072623816906
 20
207.4669499137372
 30
0.0
 40
3.174999999999999
 41
0.0
 71
     5
 72
     1
  1
3.50 [.138]
 73
     1
 44
1.0
  0
POINT
  5
4D4
330
43E
100
AcDbEntity
  8
Defpoints
 62
     0
100
AcDbPoint
 10
197.7126064826122
 20
210.277486803214
 30
0.0
  0
POINT
  5
4D5
330
43E
100
AcDbEntity
  8
Defpoints
 62
     0
100
AcDbPoint
 10
194.3175545240681
 20
210.277486803214
 30
0.0
  0
POINT
  5
4D6
330
43E
100
AcDbEntity
  8
Defpoints
 62
     0
100
AcDbPoint
 10
194.3175545240681
 20
204.7650862468467
 30
0.0
  0
ENDBLK
  5
44B
330
43E
100
AcDbEntity
  8
0
100
AcDbBlockEnd
  0
BLOCK
  5
45C
330
44F
100
AcDbEntity
  8
0
100
AcDbBlockBegin
  2
*D16
 70
     1
 10
0.0
 20
0.0
 30
0.0
  3
*D16
  1

  0
LINE
  5
4D7
330
44F
100
AcDbEntity
  8
Dimension
100
AcDbLine
 10
269.3024036250071
 20
230.6309665800747
 30
0.0
 11
274.6779030547659
 21
230.6309665800747
 31
0.0
  0
LINE
  5
4D8
330
44F
100
AcDbEntity
  8
Dimension
100
AcDbLine
 10
269.3024036250071
 20
235.5779932034384
 30
0.0
 11
274.6779030547659
 21
235.5779932034384
 31
0.0
  0
LINE
  5
4D9
330
44F
100
AcDbEntity
  8
Dimension
100
AcDbLine
 10
273.4279030547659
 20
228.1309665800747
 30
0.0
 11
273.4279030547659
 21
225.6309665800747
 31
0.0
  0
LINE
  5
4DA
330
44F
100
AcDbEntity
  8
Dimension
100
AcDbLine
 10
273.4279030547659
 20
238.0779932034385
 30
0.0
 11
273.4279030547659
 21
240.5779932034385
 31
0.0
  0
LINE
  5
4DB
330
44F
100
AcDbEntity
  8
Dimension
100
AcDbLine
 10
273.4279030547659
 20
240.5779932034385
 30
0.0
 11
310.818081026559
 21
240.5779932034385
 31
0.0
  0
LINE
  5
4DC
330
44F
100
AcDbEntity
  8
Dimension
100
AcDbLine
 10
273.4279030547659
 20
230.6309665800747
 30
0.0
 11
273.4279030547659
 21
235.5779932034384
 31
0.0
  0
SOLID
  5
4DD
330
44F
100
AcDbEntity
  8
Dimension
100
AcDbTrace
 10
273.0112363880992
 20
228.1309665800747
 30
0.0
 11
273.8445697214326
 21
228.1309665800747
 31
0.0
 12
273.4279030547659
 22
230.6309665800747
 32
0.0
 13
273.4279030547659
 23
230.6309665800747
 33
0.0
  0
SOLID
  5
4DE
330
44F
100
AcDbEntity
  8
Dimension
100
AcDbTrace
 10
273.0112363880992
 20
238.0779932034385
 30
0.0
 11
273.8445697214326
 21
238.0779932034385
 31
0.0
 12
273.4279030547659
 22
235.5779932034384
 32
0.0
 13
273.4279030547659
 23
235.5779932034384
 33
0.0
  0
MTEXT
  5
4DF
330
44F
100
AcDbEntity
  8
Dimension
100
AcDbMText
 10
292.4354920406624
 20
243.279856870329
 30
0.0
 40
3.174999999999999
 41
0.0
 71
     5
 72
     1
  1
5.00 [.197] TYP.
 73
     1
 44
1.0
  0
POINT
  5
4E0
330
44F
100
AcDbEntity
  8
Defpoints
 62
     0
100
AcDbPoint
 10
268.0524036250071
 20
230.6309665800747
 30
0.0
  0
POINT
  5
4E1
330
44F
100
AcDbEntity
  8
Defpoints
 62
     0
100
AcDbPoint
 10
268.0524036250071
 20
235.5779932034384
 30
0.0
  0
POINT
  5
4E2
330
44F
100
AcDbEntity
  8
Defpoints
 62
     0
100
AcDbPoint
 10
273.4279030547659
 20
235.5779932034384
 30
0.0
  0
ENDBLK
  5
45D
330
44F
100
AcDbEntity
  8
0
100
AcDbBlockEnd
  0
BLOCK
  5
476
330
46A
100
AcDbEntity
  8
0
100
AcDbBlockBegin
  2
*D17
 70
     1
 10
0.0
 20
0.0
 30
0.0
  3
*D17
  1

  0
LINE
  5
4E3
330
46A
100
AcDbEntity
  8
Dimension
100
AcDbLine
 10
266.0578539812882
 20
209.027486803214
 30
0.0
 11
266.0578539812882
 21
203.5150862468467
 31
0.0
  0
LINE
  5
4E4
330
46A
100
AcDbEntity
  8
Dimension
100
AcDbLine
 10
268.0383014525025
 20
209.027486803214
 30
0.0
 11
268.0383014525025
 21
203.5150862468467
 31
0.0
  0
LINE
  5
4E5
330
46A
100
AcDbEntity
  8
Dimension
100
AcDbLine
 10
263.5578539812882
 20
204.7650862468467
 30
0.0
 11
261.0578539812881
 21
204.7650862468467
 31
0.0
  0
LINE
  5
4E6
330
46A
100
AcDbEntity
  8
Dimension
100
AcDbLine
 10
270.5383014525025
 20
204.7650862468467
 30
0.0
 11
299.8844733799706
 21
204.7650862468467
 31
0.0
  0
LINE
  5
4E7
330
46A
100
AcDbEntity
  8
Dimension
100
AcDbLine
 10
266.0578539812882
 20
204.7650862468467
 30
0.0
 11
268.0383014525025
 21
204.7650862468467
 31
0.0
  0
SOLID
  5
4E8
330
46A
100
AcDbEntity
  8
Dimension
100
AcDbTrace
 10
263.5578539812882
 20
205.1817529135134
 30
0.0
 11
263.5578539812882
 21
204.34841958018
 31
0.0
 12
266.0578539812882
 22
204.7650862468467
 32
0.0
 13
266.0578539812882
 23
204.7650862468467
 33
0.0
  0
SOLID
  5
4E9
330
46A
100
AcDbEntity
  8
Dimension
100
AcDbTrace
 10
270.5383014525025
 20
205.1817529135134
 30
0.0
 11
270.5383014525025
 21
204.34841958018
 31
0.0
 12
268.0383014525025
 22
204.7650862468467
 32
0.0
 13
268.0383014525025
 23
204.7650862468467
 33
0.0
  0
MTEXT
  5
4EA
330
46A
100
AcDbEntity
  8
Dimension
100
AcDbMText
 10
286.4613874162365
 20
207.4669499137372
 30
0.0
 40
3.174999999999999
 41
0.0
 71
     5
 72
     1
  1
2.00 [.079]
 73
     1
 44
1.0
  0
POINT
  5
4EB
330
46A
100
AcDbEntity
  8
Defpoints
 62
     0
100
AcDbPoint
 10
266.0578539812882
 20
210.277486803214
 30
0.0
  0
POINT
  5
4EC
330
46A
100
AcDbEntity
  8
Defpoints
 62
     0
100
AcDbPoint
 10
268.0383014525025
 20
210.277486803214
 30
0.0
  0
POINT
  5
4ED
330
46A
100
AcDbEntity
  8
Defpoints
 62
     0
100
AcDbPoint
 10
268.0383014525025
 20
204.7650862468467
 30
0.0
  0
ENDBLK
  5
477
330
46A
100
AcDbEntity
  8
0
100
AcDbBlockEnd
  0
BLOCK
  5
493
330
489
100
AcDbEntity
  8
0
100
AcDbBlockBegin
  2
*D19
 70
     1
 10
0.0
 20
0.0
 30
0.0
  3
*D19
  1

  0
LINE
  5
4B9
330
489
100
AcDbEntity
  8
Dimension
100
AcDbLine
 10
194.2370065196277
 20
252.2406610561835
 30
0.0
 11
194.2370065196277
 21
259.369941611366
 31
0.0
  0
LINE
  5
4BA
330
489
100
AcDbEntity
  8
Dimension
100
AcDbLine
 10
268.0370065196277
 20
252.2406610561836
 30
0.0
 11
268.0370065196277
 21
259.369941611366
 31
0.0
  0
LINE
  5
4BB
330
489
100
AcDbEntity
  8
Dimension
100
AcDbLine
 10
196.7370065196277
 20
258.119941611366
 30
0.0
 11
265.5370065196277
 21
258.119941611366
 31
0.0
  0
SOLID
  5
4BC
330
489
100
AcDbEntity
  8
Dimension
100
AcDbTrace
 10
196.7370065196277
 20
258.5366082780327
 30
0.0
 11
196.7370065196277
 21
257.7032749446993
 31
0.0
 12
194.2370065196277
 22
258.119941611366
 32
0.0
 13
194.2370065196277
 23
258.119941611366
 33
0.0
  0
SOLID
  5
4BD
330
489
100
AcDbEntity
  8
Dimension
100
AcDbTrace
 10
265.5370065196277
 20
258.5366082780327
 30
0.0
 11
265.5370065196277
 21
257.7032749446993
 31
0.0
 12
268.0370065196277
 22
258.119941611366
 32
0.0
 13
268.0370065196277
 23
258.119941611366
 33
0.0
  0
MTEXT
  5
4BE
330
489
100
AcDbEntity
  8
Dimension
100
AcDbMText
 10
231.1370065196277
 20
260.8218052782565
 30
0.0
 40
3.174999999999999
 41
0.0
 71
     5
 72
     1
  1
73.80 [2.906]
 73
     1
 44
1.0
  0
POINT
  5
4BF
330
489
100
AcDbEntity
  8
Defpoints
 62
     0
100
AcDbPoint
 10
194.2370065196277
 20
250.9906610561836
 30
0.0
  0
POINT
  5
4C0
330
489
100
AcDbEntity
  8
Defpoints
 62
     0
100
AcDbPoint
 10
268.0370065196277
 20
250.9906610561836
 30
0.0
  0
POINT
  5
4C1
330
489
100
AcDbEntity
  8
Defpoints
 62
     0
100
AcDbPoint
 10
268.0370065196277
 20
258.119941611366
 30
0.0
  0
ENDBLK
  5
494
330
489
100
AcDbEntity
  8
0
100
AcDbBlockEnd
  0
BLOCK
  5
4A1
330
496
100
AcDbEntity
  8
0
100
AcDbBlockBegin
  2
*D20
 70
     1
 10
0.0
 20
0.0
 30
0.0
  3
*D20
  1

  0
LINE
  5
4C2
330
496
100
AcDbEntity
  8
Dimension
100
AcDbLine
 10
192.9870065196277
 20
250.9906610561836
 30
0.0
 11
147.8503692931872
 21
250.9906610561836
 31
0.0
  0
LINE
  5
4C3
330
496
100
AcDbEntity
  8
Dimension
100
AcDbLine
 10
192.9870065196277
 20
210.1906610561835
 30
0.0
 11
147.8503692931872
 21
210.1906610561836
 31
0.0
  0
LINE
  5
4C4
330
496
100
AcDbEntity
  8
Dimension
100
AcDbLine
 10
149.1003692931872
 20
248.4906610561836
 30
0.0
 11
149.1003692931872
 21
233.2925247230741
 31
0.0
  0
LINE
  5
4C5
330
496
100
AcDbEntity
  8
Dimension
100
AcDbLine
 10
149.1003692931872
 20
212.6906610561836
 30
0.0
 11
149.1003692931872
 21
227.8887973892931
 31
0.0
  0
SOLID
  5
4C6
330
496
100
AcDbEntity
  8
Dimension
100
AcDbTrace
 10
148.6837026265205
 20
248.4906610561836
 30
0.0
 11
149.5170359598538
 21
248.4906610561836
 31
0.0
 12
149.1003692931872
 22
250.9906610561836
 32
0.0
 13
149.1003692931872
 23
250.9906610561836
 33
0.0
  0
SOLID
  5
4C7
330
496
100
AcDbEntity
  8
Dimension
100
AcDbTrace
 10
148.6837026265205
 20
212.6906610561836
 30
0.0
 11
149.5170359598538
 21
212.6906610561836
 31
0.0
 12
149.1003692931872
 22
210.1906610561836
 32
0.0
 13
149.1003692931872
 23
210.1906610561836
 33
0.0
  0
MTEXT
  5
4C8
330
496
100
AcDbEntity
  8
Dimension
100
AcDbMText
 10
149.1003692931871
 20
230.5906610561836
 30
0.0
 40
3.174999999999999
 41
0.0
 71
     5
 72
     1
  1
40.80 [1.606]
 73
     1
 44
1.0
  0
POINT
  5
4C9
330
496
100
AcDbEntity
  8
Defpoints
 62
     0
100
AcDbPoint
 10
194.2370065196277
 20
250.9906610561836
 30
0.0
  0
POINT
  5
4CA
330
496
100
AcDbEntity
  8
Defpoints
 62
     0
100
AcDbPoint
 10
194.2370065196277
 20
210.1906610561835
 30
0.0
  0
POINT
  5
4CB
330
496
100
AcDbEntity
  8
Defpoints
 62
     0
100
AcDbPoint
 10
149.1003692931872
 20
210.1906610561836
 30
0.0
  0
ENDBLK
  5
4A2
330
496
100
AcDbEntity
  8
0
100
AcDbBlockEnd
  0
BLOCK
  5
4AE
330
4A4
100
AcDbEntity
  8
0
100
AcDbBlockBegin
  2
*D21
 70
     1
 10
0.0
 20
0.0
 30
0.0
  3
*D21
  1

  0
LINE
  5
4B0
330
4A4
100
AcDbEntity
  8
Dimension
100
AcDbLine
 10
197.658739774283
 20
209.0028059959359
 30
0.0
 11
197.658739774283
 21
194.930414331259
 31
0.0
  0
LINE
  5
4B1
330
4A4
100
AcDbEntity
  8
Dimension
100
AcDbLine
 10
265.9767923491163
 20
209.0028059959359
 30
0.0
 11
265.9767923491163
 21
194.930414331259
 31
0.0
  0
LINE
  5
4B2
330
4A4
100
AcDbEntity
  8
Dimension
100
AcDbLine
 10
200.158739774283
 20
196.180414331259
 30
0.0
 11
263.4767923491163
 21
196.180414331259
 31
0.0
  0
SOLID
  5
4B3
330
4A4
100
AcDbEntity
  8
Dimension
100
AcDbTrace
 10
200.158739774283
 20
196.5970809979256
 30
0.0
 11
200.158739774283
 21
195.7637476645923
 31
0.0
 12
197.658739774283
 22
196.180414331259
 32
0.0
 13
197.658739774283
 23
196.180414331259
 33
0.0
  0
SOLID
  5
4B4
330
4A4
100
AcDbEntity
  8
Dimension
100
AcDbTrace
 10
263.4767923491163
 20
196.5970809979256
 30
0.0
 11
263.4767923491163
 21
195.7637476645923
 31
0.0
 12
265.9767923491163
 22
196.180414331259
 32
0.0
 13
265.9767923491163
 23
196.180414331259
 33
0.0
  0
MTEXT
  5
4B5
330
4A4
100
AcDbEntity
  8
Dimension
100
AcDbMText
 10
231.8177660616996
 20
198.8822779981495
 30
0.0
 40
3.174999999999999
 41
0.0
 71
     5
 72
     1
  1
68.23 [2.686]
 73
     1
 44
1.0
  0
POINT
  5
4B6
330
4A4
100
AcDbEntity
  8
Defpoints
 62
     0
100
AcDbPoint
 10
197.658739774283
 20
210.2528059959358
 30
0.0
  0
POINT
  5
4B7
330
4A4
100
AcDbEntity
  8
Defpoints
 62
     0
100
AcDbPoint
 10
265.9767923491163
 20
210.2528059959358
 30
0.0
  0
POINT
  5
4B8
330
4A4
100
AcDbEntity
  8
Defpoints
 62
     0
100
AcDbPoint
 10
265.9767923491163
 20
196.180414331259
 30
0.0
  0
ENDBLK
  5
4AF
330
4A4
100
AcDbEntity
  8
0
100
AcDbBlockEnd
  0
ENDSEC
  0
SECTION
  2
ENTITIES
  0
LINE
  5
37
330
1F
100
AcDbEntity
  8
Titleblock
100
AcDbLine
 10
119.941696112857
 20
286.4326531040704
 30
0.0
 11
119.941696112857
 21
7.43265342673584
 31
0.0
  0
LINE
  5
38
330
1F
100
AcDbEntity
  8
Titleblock
100
AcDbLine
 10
335.8416964705063
 20
286.4326531040704
 30
0.0
 11
335.8416964705063
 21
7.43265342673584
 31
0.0
  0
LINE
  5
39
330
1F
100
AcDbEntity
  8
Titleblock
100
AcDbLine
 10
119.941696112857
 20
7.43265342673584
 30
0.0
 11
323.1416961128569
 21
7.432653426735838
 31
0.0
  0
LINE
  5
81
330
1F
100
AcDbEntity
  8
TITLE_BLOCK
100
AcDbLine
 10
335.8416964705063
 20
7.432653426735838
 30
0.0
 11
119.941696112857
 21
7.43265342673584
 31
0.0
  0
LINE
  5
E6
330
1F
100
AcDbEntity
  8
TITLE_BLOCK
100
AcDbLine
 10
243.7666964705063
 20
39.3009078271882
 30
0.0
 11
119.9416964705063
 21
39.30090782718821
 31
0.0
  0
LINE
  5
E7
330
1F
100
AcDbEntity
  8
TITLE_BLOCK
100
AcDbLine
 10
243.7666964705063
 20
32.83265310407049
 30
0.0
 11
119.9416964705063
 21
32.83265310407049
 31
0.0
  0
TEXT
  5
E8
330
1F
100
AcDbEntity
  8
TITLE_BLOCK
100
AcDbText
 10
128.6324052681852
 20
40.93120684013229
 30
0.0
 40
2.54
  1
REV            DATE                  DESCRIPTION                      BY 
100
AcDbText
  0
LINE
  5
E9
330
1F
100
AcDbEntity
  8
TITLE_BLOCK
100
AcDbLine
 10
119.9416964705063
 20
20.07731738759012
 30
0.0
 11
243.7666964705063
 21
20.07731738759013
 31
0.0
  0
LINE
  5
EB
330
1F
100
AcDbEntity
  8
TITLE_BLOCK
100
AcDbLine
 10
119.9416964705063
 20
13.78265310407049
 30
0.0
 11
335.8416964705063
 21
13.78265310407049
 31
0.0
  0
LINE
  5
EC
330
1F
100
AcDbEntity
  8
TITLE_BLOCK
100
AcDbLine
 10
119.9416964705063
 20
26.48265310407049
 30
0.0
 11
284.4066964705069
 21
26.48265310407049
 31
0.0
  0
LINE
  5
ED
330
1F
100
AcDbEntity
  8
TITLE_BLOCK
100
AcDbLine
 10
335.8416964705063
 20
45.76916255030591
 30
0.0
 11
119.9416964705063
 21
45.76916255030594
 31
0.0
  0
LINE
  5
EF
330
1F
100
AcDbEntity
  8
TITLE_BLOCK
100
AcDbLine
 10
144.8846837545212
 20
45.76916255030595
 30
0.0
 11
144.8846837545211
 21
7.432653104070483
 31
0.0
  0
LINE
  5
F0
330
1F
100
AcDbEntity
  8
TITLE_BLOCK
100
AcDbLine
 10
163.2838413086765
 20
45.76916255030593
 30
0.0
 11
163.2838413086765
 21
7.432653104070483
 31
0.0
  0
LINE
  5
F1
330
1F
100
AcDbEntity
  8
TITLE_BLOCK
100
AcDbLine
 10
228.6301288623084
 20
45.76916255030593
 30
0.0
 11
228.6301288623084
 21
7.432653104070483
 31
0.0
  0
TEXT
  5
F2
330
1F
100
AcDbEntity
  8
TITLE_BLOCK
100
AcDbText
 10
276.5931631018223
 20
40.79533645367226
 30
0.0
 40
3.174999999999999
  1
www.jit-components.com
100
AcDbText
  0
LINE
  5
F3
330
1F
100
AcDbEntity
  8
TITLE_BLOCK
100
AcDbLine
 10
284.4066964705069
 20
20.07731738759012
 30
0.0
 11
335.8416964705063
 21
20.07731738759012
 31
0.0
  0
ATTDEF
  5
F4
330
1F
100
AcDbEntity
  8
TITLE_BLOCK
100
AcDbText
 10
296.8479277942233
 20
21.60359508555211
 30
0.0
 40
2.700019999999999
  1
CAREY ROLAND
100
AcDbAttributeDefinition
  3
Enter the designers name.
  2
JRK
 70
     0
  0
ATTDEF
  5
F5
330
1F
100
AcDbEntity
  8
TITLE_BLOCK
100
AcDbText
 10
295.5231662156614
 20
14.57967986837242
 30
0.0
 40
2.700019999999999
  1
1 OF
100
AcDbAttributeDefinition
  3
Enter sheet number.
  2
1OF1
 70
     0
  0
LINE
  5
F6
330
1F
100
AcDbEntity
  8
TITLE_BLOCK
100
AcDbLine
 10
284.4066964705069
 20
26.57661687924511
 30
0.0
 11
335.8416964705063
 21
26.57661687924511
 31
0.0
  0
TEXT
  5
F7
330
1F
100
AcDbEntity
  8
TITLE_BLOCK
100
AcDbText
 10
286.1213878553988
 20
29.0379454271571
 30
0.0
 40
3.174999999999999
  1
PCB LAYOUTS
100
AcDbText
  0
TEXT
  5
F8
330
1F
100
AcDbEntity
  8
TITLE_BLOCK
100
AcDbText
 10
281.7438533266759
 20
33.79719607050342
 30
0.0
 40
3.174999999999999
  1
DR450 STANDARD
100
AcDbText
  0
LINE
  5
F9
330
1F
100
AcDbEntity
  8
TITLE_BLOCK
100
AcDbLine
 10
335.8416964705063
 20
39.3009078271882
 30
0.0
 11
270.6191041686971
 21
39.30090782718821
 31
0.0
  0
MTEXT
  5
FA
330
1F
100
AcDbEntity
  8
TITLE_BLOCK
100
AcDbMText
 10
245.9066687311564
 20
43.64568231790366
 30
0.0
 40
10.79999999999999
 41
22.84389
 71
     1
 72
     5
  1
{\fArial|b1|i1|c0|p34;JIT}
 73
     1
 44
1.0
  0
TEXT
  5
FB
330
1F
100
AcDbEntity
  8
TITLE_BLOCK
100
AcDbText
 10
245.9680235924933
 20
29.68335572032364
 30
0.0
 40
1.799999999999999
  1
Components, Inc.
100
AcDbText
  0
TEXT
  5
FC
330
1F
100
AcDbEntity
  8
TITLE_BLOCK
100
AcDbText
 10
245.8069635536738
 20
24.69823409185127
 30
0.0
 40
1.371599999999999
  1
TOLERANCES UNLESS OTHERWISE SPECIFIED
 41
0.8
  7
S
100
AcDbText
  0
TEXT
  5
FD
330
1F
100
AcDbEntity
  8
TITLE_BLOCK
100
AcDbText
 10
248.5501635536739
 20
22.49821202167584
 30
0.0
 40
1.371599999999999
  1
2 PLACE DECIMALS (IN)     %%P  .02
 41
0.8
  7
S
100
AcDbText
  0
TEXT
  5
FE
330
1F
100
AcDbEntity
  8
TITLE_BLOCK
100
AcDbText
 10
248.5501635536739
 20
20.46621202167588
 30
0.0
 40
1.371599999999999
  1
3 PLACE DECIMALS (IN)     %%P  .005
 41
0.8
  7
S
100
AcDbText
  0
TEXT
  5
FF
330
1F
100
AcDbEntity
  8
TITLE_BLOCK
100
AcDbText
 10
248.5501635536739
 20
18.45569845530715
 30
0.0
 40
1.371599999999999
  1
4 PLACE DECIMALS (IN)     %%P  .0005
 41
0.8
  7
S
100
AcDbText
  0
TEXT
  5
100
330
1F
100
AcDbEntity
  8
TITLE_BLOCK
100
AcDbText
 10
248.5501635536739
 20
16.36394548114672
 30
0.0
 40
1.371599999999999
  1
ANGLES                  %%P  .5%%d
 41
0.8
  7
S
100
AcDbText
  0
TEXT
  5
101
330
1F
100
AcDbEntity
  8
TITLE_BLOCK
100
AcDbText
 10
248.2727388179913
 20
14.39757859854029
 30
0.0
 40
1.371599999999999
  1
METRIC (MM)              %%P  .15
 41
0.8
  7
S
100
AcDbText
  0
TEXT
  5
102
330
1F
100
AcDbEntity
  8
TITLE_BLOCK
100
AcDbText
 10
244.6468337270653
 20
11.65884377321289
 30
0.0
 40
1.43002
  1
MATERIAL
100
AcDbText
  0
LINE
  5
103
330
1F
100
AcDbEntity
  8
TITLE_BLOCK
100
AcDbLine
 10
243.7666964705064
 20
45.76916255030593
 30
0.0
 11
243.7666964705063
 21
7.432653104070483
 31
0.0
  0
LINE
  5
104
330
1F
100
AcDbEntity
  8
TITLE_BLOCK
100
AcDbLine
 10
270.6191041686971
 20
45.76916255030592
 30
0.0
 11
270.6191041686971
 21
26.51025633485488
 31
0.0
  0
LINE
  5
105
330
1F
100
AcDbEntity
  8
TITLE_BLOCK
100
AcDbLine
 10
284.4066964705069
 20
26.57661687924511
 30
0.0
 11
284.4066964705069
 21
13.78265310407048
 31
0.0
  0
LINE
  5
106
330
1F
100
AcDbEntity
  8
TITLE_BLOCK
100
AcDbLine
 10
284.4066964705069
 20
26.57661687924511
 30
0.0
 11
284.4066964705069
 21
20.22661687924511
 31
0.0
  0
TEXT
  5
107
330
1F
100
AcDbEntity
  8
TITLE_BLOCK
100
AcDbText
 10
285.0848430519229
 20
24.08487132670048
 30
0.0
 40
1.371599999999999
  1
DESIGNER
 41
0.8
  7
S
100
AcDbText
  0
TEXT
  5
108
330
1F
100
AcDbEntity
  8
TITLE_BLOCK
100
AcDbText
 10
285.0162964705069
 20
18.08246082075342
 30
0.0
 40
1.371599999999999
  1
SHEET
 41
0.8
  7
S
100
AcDbText
  0
LINE
  5
109
330
1F
100
AcDbEntity
  8
TITLE_BLOCK
100
AcDbLine
 10
284.4066964705069
 20
32.92661687924511
 30
0.0
 11
284.4066964705069
 21
32.83265310407049
 31
0.0
  0
ATTDEF
  5
10A
330
1F
100
AcDbEntity
  8
TITLE_BLOCK
100
AcDbText
 10
317.8076964705068
 20
21.70926359871561
 30
0.0
 40
2.700019999999999
  1
00/00/00
100
AcDbAttributeDefinition
  3
Enter the date the job started.
  2
05/08/02
 70
     0
  0
LINE
  5
10B
330
1F
100
AcDbEntity
  8
TITLE_BLOCK
100
AcDbLine
 10
312.0926964705062
 20
26.57661687924511
 30
0.0
 11
312.0926964705062
 21
13.78265310407049
 31
0.0
  0
TEXT
  5
10C
330
1F
100
AcDbEntity
  8
TITLE_BLOCK
100
AcDbText
 10
312.7809247011192
 20
11.73622750308047
 30
0.0
 40
1.3716
  1
REV
100
AcDbText
  0
LINE
  5
10D
330
1F
100
AcDbEntity
  8
TITLE_BLOCK
100
AcDbLine
 10
312.0926964705062
 20
13.78265310407049
 30
0.0
 11
312.0926964705062
 21
7.432653104070483
 31
0.0
  0
TEXT
  5
10E
330
1F
100
AcDbEntity
  8
TITLE_BLOCK
100
AcDbText
 10
312.7022964705064
 20
17.90866638716339
 30
0.0
 40
1.371599999999999
  1
SCALE
 41
0.8
  7
S
100
AcDbText
  0
TEXT
  5
10F
330
1F
100
AcDbEntity
  8
TITLE_BLOCK
100
AcDbText
 10
312.7022964705064
 20
24.08487132670048
 30
0.0
 40
1.371599999999999
  1
DATE
 41
0.8
  7
S
100
AcDbText
  0
LINE
  5
110
330
1F
100
AcDbEntity
  8
Titleblock
100
AcDbLine
 10
119.941696112857
 20
286.4326531040705
 30
0.0
 11
335.8416964705063
 21
286.4326531040704
 31
0.0
  0
LINE
  5
29D
330
1F
100
AcDbEntity
  8
Outline
100
AcDbLine
 10
134.8357608550302
 20
147.1191843747474
 30
0.0
 11
175.3357608550301
 21
147.1191843747474
 31
0.0
  0
LINE
  5
29E
330
1F
100
AcDbEntity
  8
Outline
100
AcDbLine
 10
134.8357608550302
 20
147.1191843747474
 30
0.0
 11
134.8357608550302
 21
65.11918437474744
 31
0.0
  0
LINE
  5
29F
330
1F
100
AcDbEntity
  8
Outline
100
AcDbLine
 10
175.3357608550302
 20
147.1191843747474
 30
0.0
 11
175.3357608550302
 21
65.11918437474742
 31
0.0
  0
LINE
  5
2A0
330
1F
100
AcDbEntity
  8
Outline
100
AcDbLine
 10
134.8357608550302
 20
65.11918437474744
 30
0.0
 11
175.3357608550301
 21
65.11918437474742
 31
0.0
  0
LINE
  5
2A1
330
1F
100
AcDbEntity
  8
Outline
100
AcDbLine
 10
326.1038298969652
 20
147.1191843747474
 30
0.0
 11
326.1038298969651
 21
65.11918437474742
 31
0.0
  0
LINE
  5
2A2
330
1F
100
AcDbEntity
  8
Outline
100
AcDbLine
 10
253.2038298969652
 20
147.1191843747474
 30
0.0
 11
253.2038298969652
 21
65.11918437474742
 31
0.0
  0
LINE
  5
2A4
330
1F
100
AcDbEntity
  8
Outline
100
AcDbLine
 10
253.2038298969652
 20
65.11918437474744
 30
0.0
 11
326.1038298969651
 21
65.11918437474742
 31
0.0
  0
LINE
  5
2A5
330
1F
100
AcDbEntity
  8
Outline
100
AcDbLine
 10
253.2038298969652
 20
147.1191843747474
 30
0.0
 11
326.1038298969651
 21
147.1191843747474
 31
0.0
  0
DIMENSION
  5
2A6
330
1F
100
AcDbEntity
  8
Dimension
100
AcDbDimension
  2
*D9
 10
175.3357608550302
 20
156.0311965663048
 30
0.0
 11
155.0857608550302
 21
158.7330602331953
 31
0.0
 70
    32
  1
39.50 [1.555]
 71
     5
 42
40.49999999999999
  3
ISO-25
100
AcDbAlignedDimension
 13
134.8357608550302
 23
147.1191843747474
 33
0.0
 14
175.3357608550302
 24
147.1191843747474
 34
0.0
100
AcDbRotatedDimension
  0
DIMENSION
  5
2B3
330
1F
100
AcDbEntity
  8
Dimension
100
AcDbDimension
  2
*D10
 10
194.7928501234835
 20
65.11918437474742
 30
0.0
 11
194.7928501234834
 21
106.1191843747474
 31
0.0
 70
    32
  1
81.00 [3.189]
 71
     5
 42
81.99999999999999
  3
ISO-25
100
AcDbAlignedDimension
 13
175.3357608550302
 23
147.1191843747474
 33
0.0
 14
175.3357608550302
 24
65.11918437474742
 34
0.0
 50
90.0
100
AcDbRotatedDimension
  0
DIMENSION
  5
2D4
330
1F
100
AcDbEntity
  8
Dimension
100
AcDbDimension
  2
*D11
 10
326.1038298969651
 20
156.0311965663048
 30
0.0
 11
289.6538298969651
 21
158.7330602331953
 31
0.0
 70
    32
  1
72.60 [2.858]
 71
     5
 42
72.89999999999995
  3
ISO-25
100
AcDbAlignedDimension
 13
253.2038298969652
 23
147.1191843747474
 33
0.0
 14
326.1038298969651
 24
147.1191843747474
 34
0.0
100
AcDbRotatedDimension
  0
DIMENSION
  5
2E1
330
1F
100
AcDbEntity
  8
Dimension
100
AcDbDimension
  2
*D12
 10
235.4249268208666
 20
65.11918437474744
 30
0.0
 11
235.4249268208666
 21
106.1191843747474
 31
0.0
 70
    32
  1
81.0 [3.189]
 71
     5
 42
81.99999999999999
  3
ISO-25
100
AcDbAlignedDimension
 13
253.2038298969652
 23
147.1191843747474
 33
0.0
 14
253.2038298969652
 24
65.11918437474744
 34
0.0
 50
90.0
100
AcDbRotatedDimension
  0
TEXT
  5
391
330
1F
100
AcDbEntity
  8
Text
100
AcDbText
 10
190.8287457346168
 20
272.3824713741837
 30
0.0
 40
5.0
  1
HORIZONTAL PCB
100
AcDbText
  0
TEXT
  5
392
330
1F
100
AcDbEntity
  8
Text
100
AcDbText
 10
128.8896036325395
 20
170.884550691514
 30
0.0
 40
5.0
  1
VERTICAL NARROW PCB
100
AcDbText
  0
TEXT
  5
393
330
1F
100
AcDbEntity
  8
Text
100
AcDbText
 10
245.8307016406299
 20
170.884550691514
 30
0.0
 40
5.0
  1
VERTICAL WIDE PCB
100
AcDbText
  0
LINE
  5
3F8
330
1F
100
AcDbEntity
  8
Outline
100
AcDbLine
 10
194.2370065196277
 20
250.9906610561836
 30
0.0
 11
268.0370065196278
 21
250.9906610561836
 31
0.0
  0
LINE
  5
3F9
330
1F
100
AcDbEntity
  8
Outline
100
AcDbLine
 10
194.2370065196277
 20
250.9906610561836
 30
0.0
 11
194.2370065196277
 21
210.1906610561835
 31
0.0
  0
LINE
  5
3FA
330
1F
100
AcDbEntity
  8
Outline
100
AcDbLine
 10
268.0370065196277
 20
250.9906610561836
 30
0.0
 11
268.0370065196277
 21
210.1906610561836
 31
0.0
  0
LINE
  5
3FB
330
1F
100
AcDbEntity
  8
Outline
100
AcDbLine
 10
194.2370065196277
 20
210.1906610561835
 30
0.0
 11
268.0370065196278
 21
210.1906610561836
 31
0.0
  0
CIRCLE
  5
409
330
1F
100
AcDbEntity
  8
Outline
100
AcDbCircle
 10
266.0370065196277
 20
245.5906610561835
 30
0.0
 40
0.75
  0
CIRCLE
  5
40A
330
1F
100
AcDbEntity
  8
Outline
100
AcDbCircle
 10
266.0370065196277
 20
240.5906610561836
 30
0.0
 40
0.75
  0
CIRCLE
  5
40B
330
1F
100
AcDbEntity
  8
Outline
100
AcDbCircle
 10
266.0370065196277
 20
235.5906610561835
 30
0.0
 40
0.75
  0
CIRCLE
  5
40C
330
1F
100
AcDbEntity
  8
Outline
100
AcDbCircle
 10
266.0370065196277
 20
230.5906610561835
 30
0.0
 40
0.75
  0
CIRCLE
  5
40D
330
1F
100
AcDbEntity
  8
Outline
100
AcDbCircle
 10
266.0370065196277
 20
225.5906610561836
 30
0.0
 40
0.75
  0
CIRCLE
  5
40E
330
1F
100
AcDbEntity
  8
Outline
100
AcDbCircle
 10
266.0370065196277
 20
220.5906610561835
 30
0.0
 40
0.75
  0
CIRCLE
  5
40F
330
1F
100
AcDbEntity
  8
Outline
100
AcDbCircle
 10
266.0370065196277
 20
215.5906610561836
 30
0.0
 40
0.75
  0
CIRCLE
  5
414
330
1F
100
AcDbEntity
  8
Outline
100
AcDbCircle
 10
197.7370065196277
 20
245.5906610561835
 30
0.0
 40
0.75
  0
CIRCLE
  5
415
330
1F
100
AcDbEntity
  8
Outline
100
AcDbCircle
 10
197.7370065196277
 20
238.0906610561836
 30
0.0
 40
0.75
  0
CIRCLE
  5
416
330
1F
100
AcDbEntity
  8
Outline
100
AcDbCircle
 10
197.7370065196277
 20
230.5906610561835
 30
0.0
 40
0.75
  0
CIRCLE
  5
417
330
1F
100
AcDbEntity
  8
Outline
100
AcDbCircle
 10
197.7370065196277
 20
223.0906610561835
 30
0.0
 40
0.75
  0
CIRCLE
  5
418
330
1F
100
AcDbEntity
  8
Outline
100
AcDbCircle
 10
197.7370065196277
 20
215.5906610561836
 30
0.0
 40
0.75
  0
LINE
  5
41B
330
1F
100
AcDbEntity
  8
Dimension
100
AcDbLine
 10
195.2370065196277
 20
238.0906610561836
 30
0.0
 11
200.2370065196277
 21
238.0906610561836
 31
0.0
  0
LINE
  5
41C
330
1F
100
AcDbEntity
  8
Dimension
100
AcDbLine
 10
197.7370065196277
 20
235.5906610561835
 30
0.0
 11
197.7370065196277
 21
240.5906610561836
 31
0.0
  0
LINE
  5
41F
330
1F
100
AcDbEntity
  8
Dimension
100
AcDbLine
 10
263.5370065196277
 20
215.5906610561836
 30
0.0
 11
268.5370065196277
 21
215.5906610561836
 31
0.0
  0
LINE
  5
420
330
1F
100
AcDbEntity
  8
Dimension
100
AcDbLine
 10
266.0370065196277
 20
213.0906610561836
 30
0.0
 11
266.0370065196277
 21
218.0906610561835
 31
0.0
  0
LINE
  5
423
330
1F
100
AcDbEntity
  8
Dimension
100
AcDbLine
 10
195.2370065196277
 20
215.5906610561836
 30
0.0
 11
200.2370065196277
 21
215.5906610561836
 31
0.0
  0
LINE
  5
424
330
1F
100
AcDbEntity
  8
Dimension
100
AcDbLine
 10
197.7370065196277
 20
213.0906610561836
 30
0.0
 11
197.7370065196277
 21
218.0906610561835
 31
0.0
  0
LINE
  5
425
330
1F
100
AcDbEntity
  8
Centerline
100
AcDbLine
 10
194.2370065196277
 20
230.5906610561835
 30
0.0
 11
268.0370065196277
 21
230.5906610561835
 31
0.0
  0
LINE
  5
435
330
1F
100
AcDbEntity
  8
Dimension
100
AcDbLine
 10
192.9870065196277
 20
230.5906610561835
 30
0.0
 11
187.9749771807285
 21
230.5906610561835
 31
0.0
  0
LINE
  5
436
330
1F
100
AcDbEntity
  8
Dimension
100
AcDbLine
 10
192.9870065196277
 20
238.122178175546
 30
0.0
 11
187.9749771807285
 21
238.122178175546
 31
0.0
  0
LINE
  5
437
330
1F
100
AcDbEntity
  8
Dimension
100
AcDbLine
 10
189.2249771807285
 20
233.0906610561835
 30
0.0
 11
189.2249771807285
 21
235.622178175546
 31
0.0
  0
LINE
  5
438
330
1F
100
AcDbEntity
  8
Dimension
100
AcDbLine
 10
189.2249771807285
 20
238.122178175546
 30
0.0
 11
189.2249771807285
 21
240.622178175546
 31
0.0
  0
LINE
  5
439
330
1F
100
AcDbEntity
  8
Dimension
100
AcDbLine
 10
151.6940671740125
 20
240.6221781755461
 30
0.0
 11
189.2249771807285
 21
240.622178175546
 31
0.0
  0
SOLID
  5
43A
330
1F
100
AcDbEntity
  8
Dimension
100
AcDbTrace
 10
188.8083105140618
 20
233.0906610561835
 30
0.0
 11
189.6416438473951
 21
233.0906610561835
 31
0.0
 12
189.2249771807285
 22
230.5906610561835
 32
0.0
 13
189.2249771807285
 23
230.5906610561835
 33
0.0
  0
SOLID
  5
43B
330
1F
100
AcDbEntity
  8
Dimension
100
AcDbTrace
 10
188.8083105140618
 20
235.622178175546
 30
0.0
 11
189.6416438473951
 21
235.622178175546
 31
0.0
 12
189.2249771807285
 22
238.122178175546
 32
0.0
 13
189.2249771807285
 23
238.122178175546
 33
0.0
  0
MTEXT
  5
43C
330
1F
100
AcDbEntity
  8
Dimension
100
AcDbMText
 10
170.7720221773705
 20
243.3240418424366
 30
0.0
 40
3.174999999999999
 41
0.0
 71
     5
 72
     1
  1
7.50 [.295] TYP.
 73
     1
 44
1.0
  0
DIMENSION
  5
43D
330
1F
100
AcDbEntity
  8
Dimension
100
AcDbDimension
  2
*D15
 10
194.3175545240681
 20
204.7650862468467
 30
0.0
 11
175.9072623816906
 21
207.4669499137372
 31
0.0
 70
    32
  1
3.50 [.138]
 71
     5
 42
3.395051958544172
  3
ISO-25
100
AcDbAlignedDimension
 13
197.7126064826122
 23
210.277486803214
 33
0.0
 14
194.3175545240681
 24
210.277486803214
 34
0.0
100
AcDbRotatedDimension
  0
LINE
  5
44C
330
1F
100
AcDbEntity
  8
Dimension
100
AcDbLine
 10
263.5370065196277
 20
235.5906610561835
 30
0.0
 11
268.5370065196277
 21
235.5906610561835
 31
0.0
  0
LINE
  5
44D
330
1F
100
AcDbEntity
  8
Dimension
100
AcDbLine
 10
266.0370065196277
 20
233.0906610561835
 30
0.0
 11
266.0370065196277
 21
238.0906610561836
 31
0.0
  0
DIMENSION
  5
44E
330
1F
100
AcDbEntity
  8
Dimension
100
AcDbDimension
  2
*D16
 10
273.4279030547659
 20
235.5779932034384
 30
0.0
 11
292.4354920406624
 21
243.279856870329
 31
0.0
 70
    32
  1
5.00 [.197] TYP.
 71
     5
 42
4.94702662336374
  3
ISO-25
100
AcDbAlignedDimension
 13
268.0524036250071
 23
230.6309665800747
 33
0.0
 14
268.0524036250071
 24
235.5779932034384
 34
0.0
 50
90.0
100
AcDbRotatedDimension
  0
DIMENSION
  5
469
330
1F
100
AcDbEntity
  8
Dimension
100
AcDbDimension
  2
*D17
 10
268.0383014525025
 20
204.7650862468467
 30
0.0
 11
286.4613874162365
 21
207.4669499137372
 31
0.0
 70
    32
  1
2.00 [.079]
 71
     5
 42
1.980447471214347
  3
ISO-25
100
AcDbAlignedDimension
 13
266.0578539812882
 23
210.277486803214
 33
0.0
 14
268.0383014525025
 24
210.277486803214
 34
0.0
100
AcDbRotatedDimension
  0
LINE
  5
483
330
1F
100
AcDbEntity
  8
Dimension
100
AcDbLine
 10
315.5407652248552
 20
252.3088314414494
 30
0.0
 11
275.2527867157888
 21
252.3088314414494
 31
0.0
  0
LINE
  5
484
330
1F
100
AcDbEntity
  8
Dimension
100
AcDbLine
 10
275.2527867157888
 20
252.3088314414494
 30
0.0
 11
268.6632574424513
 21
247.5051599698339
 31
0.0
  0
MTEXT
  5
485
330
1F
100
AcDbEntity
  8
Dimension
100
AcDbMText
 10
295.709275970322
 20
255.0693334562244
 30
0.0
 40
3.174999999999999
 41
0.0
 71
     5
 72
     1
  1
%%c1.50 [.059] TYP.
 73
     1
 44
1.0
  0
SOLID
  5
487
330
1F
100
AcDbEntity
  8
Dimension
100
AcDbTrace
 10
268.4178088637782
 20
247.8418588060933
 30
0.0
 11
268.9087060211245
 21
247.1684611335744
 31
0.0
 12
266.6430644248947
 22
246.0324684977951
 32
0.0
 13
266.6430644248947
 23
246.0324684977951
 33
0.0
  0
DIMENSION
  5
488
330
1F
100
AcDbEntity
  8
Dimension
100
AcDbDimension
  2
*D19
 10
268.0370065196277
 20
258.119941611366
 30
0.0
 11
231.1370065196277
 21
260.8218052782565
 31
0.0
 70
    32
  1
73.80 [2.906]
 71
     5
 42
73.79999999999999
  3
ISO-25
100
AcDbAlignedDimension
 13
194.2370065196277
 23
250.9906610561836
 33
0.0
 14
268.0370065196277
 24
250.9906610561836
 34
0.0
100
AcDbRotatedDimension
  0
DIMENSION
  5
495
330
1F
100
AcDbEntity
  8
Dimension
100
AcDbDimension
  2
*D20
 10
149.1003692931872
 20
210.1906610561836
 30
0.0
 11
149.1003692931871
 21
230.5906610561836
 31
0.0
 70
    32
  1
40.80 [1.606]
 71
     5
 42
40.80000000000004
  3
ISO-25
100
AcDbAlignedDimension
 13
194.2370065196277
 23
250.9906610561836
 33
0.0
 14
194.2370065196277
 24
210.1906610561835
 34
0.0
 50
90.0
100
AcDbRotatedDimension
  0
DIMENSION
  5
4A3
330
1F
100
AcDbEntity
  8
Dimension
100
AcDbDimension
  2
*D21
 10
265.9767923491163
 20
196.180414331259
 30
0.0
 11
231.8177660616996
 21
198.8822779981495
 31
0.0
 70
    32
  1
68.23 [2.686]
 71
     5
 42
68.31805257483324
  3
ISO-25
100
AcDbAlignedDimension
 13
197.658739774283
 23
210.2528059959358
 33
0.0
 14
265.9767923491163
 24
210.2528059959358
 34
0.0
100
AcDbRotatedDimension
  0
ENDSEC
  0
SECTION
  2
OBJECTS
  0
DICTIONARY
  5
C
330
0
100
AcDbDictionary
281
     1
  3
ACAD_GROUP
350
D
  3
ACAD_LAYOUT
350
1A
  3
ACAD_MLINESTYLE
350
17
  3
ACAD_PLOTSETTINGS
350
19
  3
ACAD_PLOTSTYLENAME
350
E
  0
DICTIONARY
  5
D
102
{ACAD_REACTORS
330
C
102
}
330
C
100
AcDbDictionary
281
     1
  0
DICTIONARY
  5
1A
102
{ACAD_REACTORS
330
C
102
}
330
C
100
AcDbDictionary
281
     1
  3
Layout1
350
1E
  3
Layout2
350
26
  3
Model
350
22
  0
DICTIONARY
  5
17
102
{ACAD_REACTORS
330
C
102
}
330
C
100
AcDbDictionary
281
     1
  3
Standard
350
18
  0
DICTIONARY
  5
19
102
{ACAD_REACTORS
330
C
102
}
330
C
100
AcDbDictionary
281
     1
  0
ACDBDICTIONARYWDFLT
  5
E
102
{ACAD_REACTORS
330
C
102
}
330
C
100
AcDbDictionary
281
     1
  3
Normal
350
F
100
AcDbDictionaryWithDefault
340
F
  0
LAYOUT
  5
1E
102
{ACAD_REACTORS
330
1A
102
}
330
1A
100
AcDbPlotSettings
  1

  2
Digital DEClaser 5100
  4

  6

 40
0.0
 41
0.0
 42
0.0
 43
0.0
 44
0.0
 45
0.0
 46
0.0
 47
0.0
 48
0.0
 49
0.0
140
0.0
141
0.0
142
1.0
143
1.0
 70
   688
 72
     0
 73
     0
 74
     5
  7
monochrome.ctb
 75
    16
147
1.0
148
0.0
149
0.0
100
AcDbLayout
  1
Layout1
 70
     1
 71
     1
 10
0.0
 20
0.0
 11
420.0
 21
297.0
 12
0.0
 22
0.0
 32
0.0
 14
1.000000000000000E+20
 24
1.000000000000000E+20
 34
1.000000000000000E+20
 15
-1.000000000000000E+20
 25
-1.000000000000000E+20
 35
-1.000000000000000E+20
146
0.0
 13
0.0
 23
0.0
 33
0.0
 16
1.0
 26
0.0
 36
0.0
 17
0.0
 27
1.0
 37
0.0
 76
     0
330
1B
  0
LAYOUT
  5
26
102
{ACAD_REACTORS
330
1A
102
}
330
1A
100
AcDbPlotSettings
  1

  2
Digital DEClaser 5100
  4

  6

 40
0.0
 41
0.0
 42
0.0
 43
0.0
 44
0.0
 45
0.0
 46
0.0
 47
0.0
 48
0.0
 49
0.0
140
0.0
141
0.0
142
1.0
143
1.0
 70
   688
 72
     0
 73
     0
 74
     5
  7
monochrome.ctb
 75
    16
147
1.0
148
0.0
149
0.0
100
AcDbLayout
  1
Layout2
 70
     1
 71
     2
 10
0.0
 20
0.0
 11
12.0
 21
9.0
 12
0.0
 22
0.0
 32
0.0
 14
0.0
 24
0.0
 34
0.0
 15
0.0
 25
0.0
 35
0.0
146
0.0
 13
0.0
 23
0.0
 33
0.0
 16
1.0
 26
0.0
 36
0.0
 17
0.0
 27
1.0
 37
0.0
 76
     0
330
23
  0
LAYOUT
  5
22
102
{ACAD_REACTORS
330
1A
102
}
330
1A
100
AcDbPlotSettings
  1

  2
Jaws PDF Creator
  4
Letter
  6

 40
3.174999952316284
 41
3.174999952316284
 42
3.175003051757812
 43
3.17498779296875
 44
215.8999938964843
 45
279.3999938964843
 46
0.0
 47
1.016
 48
119.941696112857
 49
7.432653426735838
140
335.8416964705063
141
286.4326531040704
142
1.0
143
26.16969815045176
 70
 11956
 72
     0
 73
     0
 74
     4
  7
monochrome.ctb
 75
     0
147
0.0382121335237005
148
-3046.519081266569
149
-188.7893970390903
100
AcDbLayout
  1
Model
 70
     1
 71
     0
 10
0.0
 20
0.0
 11
12.0
 21
9.0
 12
0.0
 22
0.0
 32
0.0
 14
0.0
 24
0.0
 34
0.0
 15
0.0
 25
0.0
 35
0.0
146
0.0
 13
0.0
 23
0.0
 33
0.0
 16
1.0
 26
0.0
 36
0.0
 17
0.0
 27
1.0
 37
0.0
 76
     0
330
1F
  0
MLINESTYLE
  5
18
102
{ACAD_REACTORS
330
17
102
}
330
17
100
AcDbMlineStyle
  2
STANDARD
 70
     0
  3

 62
   256
 51
90.0
 52
90.0
 71
     2
 49
0.5
 62
   256
  6
BYLAYER
 49
-0.5
 62
   256
  6
BYLAYER
  0
ACDBPLACEHOLDER
  5
F
102
{ACAD_REACTORS
330
E
102
}
330
E
  0
ENDSEC
  0
EOF
