999
DXF file: 525_encl-10.dxf
999
Pro/ENGINEER 2001440 by Parametric Technology Corporation
0
SECTION
2
HEADER
9
$ACADVER
1
AC1014
9
$EXTMAX
10
420.0000000000
20
297.0000000000
9
$EXTMIN
10
0.0000000000
20
0.0000000000
9
$LIMMIN
10
0.0000000000
20
0.0000000000
9
$LIMMAX
10
420.0000000000
20
297.0000000000
9
$VIEWCTR
10
210.0000000000
20
148.5000000000
9
$VIEWSIZE
40
297.0000000000
9
$CLAYER
8
0
9
$LTSCALE
40
23.1000000000
9
$CELTYPE
6
BYLAYER
9
$DIMSCALE
40
1
9
$DIMASZ
40
3.5000000000
9
$DIMEXO
40
2.6250000000
9
$DIMDLI
40
15.9600000000
9
$DIMEXE
40
7.5600000000
9
$DIMCEN
40
3.7800000000
9
$DIMLFAC
40
1.0000000000
9
$DIMTXT
40
3.5000000000
9
$DIMTOL
70
1
9
$DIMLIM
70
0
9
$DIMTFAC
40
1.0000000000
9
$DIMTP
40
0.0100000000
9
$DIMTM
40
0.0100000000
9
$HANDSEED
5
81D
0
ENDSEC
0
SECTION
2
CLASSES
0
ENDSEC
0
SECTION
2
TABLES
0
TABLE
2
VPORT
5
8
100
AcDbSymbolTable
70
2
0
VPORT
5
1F4
100
AcDbSymbolTableRecord
100
AcDbViewportTableRecord
2
*ACTIVE
70
0
10
0.0
20
0.0
11
1.0
21
1.0
12
210.0000000000
22
148.5000000000
13
0.0
23
0.0
14
1.0
24
1.0
15
0.0
25
0.0
16
0.0
26
0.0
36
1.0
17
0.0
27
0.0
37
0.0
40
297.0000000000
41
1.4141414141
42
50.0
43
0.0
44
0.0
50
0.0
51
0.0
71
0
72
100
73
1
74
1
75
0
76
0
77
0
78
0
0
ENDTAB
0
TABLE
2
LTYPE
5
5
100
AcDbSymbolTable
70
6
0
LTYPE
5
14
100
AcDbSymbolTableRecord
100
AcDbLinetypeTableRecord
2
BYBLOCK
70
0
3

72
65
73
0
40
0.0
0
LTYPE
5
15
100
AcDbSymbolTableRecord
100
AcDbLinetypeTableRecord
2
BYLAYER
70
0
3

72
65
73
0
40
0.0
0
LTYPE
5
16
100
AcDbSymbolTableRecord
100
AcDbLinetypeTableRecord
2
CONTINUOUS
70
64
3
Solid line
72
65
73
0
40
0
0
LTYPE
5
1F5
100
AcDbSymbolTableRecord
100
AcDbLinetypeTableRecord
2
CENTER
70
64
3
____ _ ____ _ ____ _ ____ _ ____ _ ____ _ ____
72
65
73
4
40
0.6
49
0.375
74
0
49
-0.075
74
0
49
0.075
74
0
49
-0.075
74
0
0
LTYPE
5
1F6
100
AcDbSymbolTableRecord
100
AcDbLinetypeTableRecord
2
HIDDEN
70
64
3
- - - - - - - - - - - - - - - - - - - -
72
65
73
2
40
0.2
49
0.1
74
0
49
-0.1
74
0
0
LTYPE
5
1F7
100
AcDbSymbolTableRecord
100
AcDbLinetypeTableRecord
2
PHANTOM
70
64
3
_____ _ _ _____ _ _ _____ _ _ _____
72
65
73
6
40
0.8
49
0.45
74
0
49
-0.05
74
0
49
0.1
74
0
49
-0.05
74
0
49
0.1
74
0
49
-0.05
74
0
0
LTYPE
5
1F8
100
AcDbSymbolTableRecord
100
AcDbLinetypeTableRecord
2
DOT
70
64
3
. . . . . . . . . . . . . . . . . . . .
72
65
73
2
40
0.2
49
0.1
74
0
49
-0.1
74
0
0
LTYPE
5
1F9
100
AcDbSymbolTableRecord
100
AcDbLinetypeTableRecord
2
DASHED
70
64
3
- - - - - - - - - - - - - - - - - - - -
72
65
73
2
40
0.2
49
0.1
74
0
49
-0.1
74
0
0
ENDTAB
0
TABLE
2
LAYER
5
2
100
AcDbSymbolTable
70
36
0
LAYER
5
10
100
AcDbSymbolTableRecord
100
AcDbLayerTableRecord
2
0
70
0
62
7
6
CONTINUOUS
0
LAYER
5
1FA
100
AcDbSymbolTableRecord
100
AcDbLayerTableRecord
2
DEFAULT_1
70
0
62
7
6
CENTER
0
LAYER
5
1FB
100
AcDbSymbolTableRecord
100
AcDbLayerTableRecord
2
DEFAULT_2
70
0
62
8
6
HIDDEN
0
LAYER
5
1FC
100
AcDbSymbolTableRecord
100
AcDbLayerTableRecord
2
DEFAULT_3
70
0
62
7
6
PHANTOM
0
ENDTAB
0
TABLE
2
STYLE
5
3
100
AcDbSymbolTable
70
1
0
STYLE
5
11
100
AcDbSymbolTableRecord
100
AcDbTextStyleTableRecord
2
STANDARD
70
0
40
0.0
41
0.8500000000
50
0.0
71
0
42
0.0
3
txt
4

0
STYLE
5
1FD
100
AcDbSymbolTableRecord
100
AcDbTextStyleTableRecord
2
TEXTSTYLE_0
70
0
40
0.0
41
0.80
50
0.0
71
0
42
0.2
3
txt
4

0
STYLE
5
1FE
100
AcDbSymbolTableRecord
100
AcDbTextStyleTableRecord
2
TEXTSTYLE_1
70
0
40
0.0
41
0.80
50
0.0
71
0
42
0.2
3
txt
4

0
STYLE
5
1FF
100
AcDbSymbolTableRecord
100
AcDbTextStyleTableRecord
2
TEXTSTYLE_2
70
0
40
0.0
41
0.80
50
0.0
71
0
42
0.2
3
txt
4

0
ENDTAB
0
TABLE
2
VIEW
5
6
100
AcDbSymbolTable
70
0
0
ENDTAB
0
TABLE
2
UCS
5
7
100
AcDbSymbolTable
70
0
0
ENDTAB
0
TABLE
2
APPID
5
9
100
AcDbSymbolTable
70
1
0
APPID
5
200
100
AcDbSymbolTableRecord
100
AcDbRegAppTableRecord
2
ACAD
70
0
0
ENDTAB
0
TABLE
2
DIMSTYLE
5
A
100
AcDbSymbolTable
70
1
0
DIMSTYLE
105
201
100
AcDbSymbolTableRecord
100
AcDbDimStyleTableRecord
2
STANDARD
70
0
3

4

5

6

7

40
1.0
41
3.5000000000
42
0.0625
43
0.38
44
0.18
45
0.0
46
0.0
47
0.0100000000
48
0.0100000000
140
3.5000000000
141
0.09
142
0.0
143
25.4
144
1.0000000000
145
0.0
146
1.0000000000
147
0.09
71
1
72
0
73
0
74
0
75
0
76
0
77
1
78
0
170
0
171
2
172
0
173
0
174
0
175
0
176
0
177
0
178
0
270
2
271
2
272
2
273
2
274
2
340
11
275
0
280
0
281
0
282
0
283
1
284
0
285
0
286
0
287
3
288
0
0
DIMSTYLE
105
202
100
AcDbSymbolTableRecord
100
AcDbDimStyleTableRecord
2
DIMSTYLE_1
70
0
3

4

5

6

7

40
1.0
41
3.5000000000
42
0.0625
43
0.38
44
0.18
45
0.0
46
0.0
47
0.5000000000
48
0.5000000000
140
3.5000000000
141
0.09
142
0.0
143
25.4
144
1.0000000000
145
0.0
146
1.0000000000
147
0.09
71
0
72
0
73
1
74
1
75
0
76
0
77
0
78
0
170
0
171
2
172
0
173
0
174
0
175
0
176
0
177
0
178
0
270
2
271
1
272
1
273
2
274
2
340
11
275
0
280
0
281
0
282
0
283
1
284
0
285
0
286
0
287
3
288
0
0
DIMSTYLE
105
203
100
AcDbSymbolTableRecord
100
AcDbDimStyleTableRecord
2
DIMSTYLE_2
70
0
3

4

5

6

7

40
1.0
41
3.5000000000
42
0.0625
43
0.38
44
0.18
45
0.0
46
0.0
47
0.0100000000
48
0.0100000000
140
3.5000000000
141
0.09
142
0.0
143
25.4
144
1.0000000000
145
0.0
146
1.0000000000
147
0.09
71
0
72
0
73
0
74
0
75
0
76
0
77
1
78
0
170
0
171
2
172
0
173
0
174
0
175
0
176
0
177
0
178
0
270
2
271
2
272
2
273
2
274
2
340
11
275
0
280
0
281
0
282
0
283
1
284
0
285
0
286
0
287
3
288
0
0
ENDTAB
0
TABLE
2
BLOCK_RECORD
5
1
100
AcDbSymbolTable
70
0
0
BLOCK_RECORD
5
1B
100
AcDbSymbolTableRecord
100
AcDbBlockTableRecord
2
*MODEL_SPACE
0
BLOCK_RECORD
5
1C
100
AcDbSymbolTableRecord
100
AcDbBlockTableRecord
2
*PAPER_SPACE
0
BLOCK_RECORD
5
204
100
AcDbSymbolTableRecord
100
AcDbBlockTableRecord
2
*D0
0
BLOCK_RECORD
5
205
100
AcDbSymbolTableRecord
100
AcDbBlockTableRecord
2
*D1
0
BLOCK_RECORD
5
206
100
AcDbSymbolTableRecord
100
AcDbBlockTableRecord
2
*D2
0
BLOCK_RECORD
5
207
100
AcDbSymbolTableRecord
100
AcDbBlockTableRecord
2
*D3
0
ENDTAB
0
ENDSEC
0
SECTION
2
BLOCKS
0
BLOCK
5
1E
100
AcDbEntity
8
0
100
AcDbBlockBegin
2
*MODEL_SPACE
70
0
10
0.0
20
0.0
30
0.0
3
*MODEL_SPACE
1

0
ENDBLK
5
1F
100
AcDbEntity
8
0
100
AcDbBlockEnd
0
BLOCK
5
20
100
AcDbEntity
8
0
100
AcDbBlockBegin
2
*PAPER_SPACE
70
0
10
0.0
20
0.0
30
0.0
3
*PAPER_SPACE
1

0
ENDBLK
5
21
100
AcDbEntity
8
0
100
AcDbBlockEnd
0
BLOCK
5
208
100
AcDbEntity
8
0
100
AcDbBlockBegin
62
2
6
CONTINUOUS
2
*D0
70
65
10
0.0000000000
20
0.0000000000
3
*D0
1

0
TEXT
5
209
100
AcDbEntity
8
0
100
AcDbText
62
2
6
CONTINUOUS
10
312.4316197660
20
264.9720643938
7
TEXTSTYLE_0
40
3.5000000000
1
2%%d
72
5
11
317.7399529803
21
264.9720643938
100
AcDbText
0
LINE
5
20A
100
AcDbEntity
8
0
100
AcDbLine
62
2
6
CONTINUOUS
10
303.0035822964
20
216.7588370580
11
303.9153676681
21
268.9949860169
0
LINE
5
20B
100
AcDbEntity
8
0
100
AcDbLine
62
2
6
CONTINUOUS
10
300.9689820933
20
216.7588370580
11
300.0571967216
21
268.9949860169
0
ARC
5
20C
100
AcDbEntity
8
0
100
AcDbCircle
62
2
6
CONTINUOUS
10
301.9862821948
20
158.4777532708
40
109.0340676200
100
AcDbArc
50
83.0997374426
51
89.0000000000
0
ARC
5
20D
100
AcDbEntity
8
0
100
AcDbCircle
62
2
6
CONTINUOUS
10
301.9862821948
20
158.4777532708
40
109.0340676200
100
AcDbArc
50
91.0000000000
51
95.2038809164
0
SOLID
5
20E
100
AcDbEntity
8
0
100
AcDbTrace
62
2
6
CONTINUOUS
10
303.8891890585
20
267.4952144742
11
307.4123477061
21
268.1275538953
12
307.3621021242
22
266.6283956710
13
307.3621021242
23
266.6283956710
0
SOLID
5
20F
100
AcDbEntity
8
0
100
AcDbTrace
62
2
6
CONTINUOUS
10
300.0833753312
20
267.4952144742
11
296.6104622655
21
266.6283956710
12
296.5602166836
22
268.1275538953
13
296.5602166836
23
268.1275538953
0
ENDBLK
5
210
100
AcDbEntity
8
0
100
AcDbBlockEnd
0
BLOCK
5
211
100
AcDbEntity
8
0
100
AcDbBlockBegin
62
2
6
CONTINUOUS
2
*D1
70
65
10
0.0000000000
20
0.0000000000
3
*D1
1

0
TEXT
5
212
100
AcDbEntity
8
0
100
AcDbText
62
2
6
CONTINUOUS
10
278.5922740964
20
258.3097620260
7
TEXTSTYLE_0
40
3.5000000000
1
3
72
5
11
281.5672740664
21
258.3097620260
100
AcDbText
0
LINE
5
213
100
AcDbEntity
8
0
100
AcDbLine
62
2
6
CONTINUOUS
10
286.9862821948
20
260.4026880381
11
286.9862821948
21
255.9347620260
0
LINE
5
214
100
AcDbEntity
8
0
100
AcDbLine
62
2
6
CONTINUOUS
10
289.9862821948
20
259.8074991363
11
289.9862821948
21
255.9347620260
0
LINE
5
215
100
AcDbEntity
8
0
100
AcDbLine
62
2
6
CONTINUOUS
10
286.9862821948
20
257.4347620260
11
278.5922740964
21
257.4347620260
0
LINE
5
216
100
AcDbEntity
8
0
100
AcDbLine
62
2
6
CONTINUOUS
10
278.5922740964
20
257.4347620260
11
288.4862821948
21
257.4347620260
0
LINE
5
217
100
AcDbEntity
8
0
100
AcDbLine
62
2
6
CONTINUOUS
10
289.9862821948
20
257.4347620260
11
297.9862821948
21
257.4347620260
0
LINE
5
218
100
AcDbEntity
8
0
100
AcDbLine
62
2
6
CONTINUOUS
10
297.9862821948
20
257.4347620260
11
288.4862821948
21
257.4347620260
0
SOLID
5
219
100
AcDbEntity
8
0
100
AcDbTrace
62
2
6
CONTINUOUS
10
283.4862821948
20
256.6847620260
11
286.9862821948
21
257.4347620260
12
283.4862821948
22
258.1847620260
13
283.4862821948
23
258.1847620260
0
SOLID
5
21A
100
AcDbEntity
8
0
100
AcDbTrace
62
2
6
CONTINUOUS
10
293.4862821948
20
258.1847620260
11
289.9862821948
21
257.4347620260
12
293.4862821948
22
256.6847620260
13
293.4862821948
23
256.6847620260
0
ENDBLK
5
21B
100
AcDbEntity
8
0
100
AcDbBlockEnd
0
BLOCK
5
21C
100
AcDbEntity
8
0
100
AcDbBlockBegin
62
2
6
CONTINUOUS
2
*D2
70
65
10
0.0000000000
20
0.0000000000
3
*D2
1

0
TEXT
5
21D
100
AcDbEntity
8
0
100
AcDbText
62
2
6
CONTINUOUS
10
291.6859576817
20
248.3899469958
7
TEXTSTYLE_0
40
3.5000000000
1
6
72
5
11
294.6609576517
21
248.3899469958
100
AcDbText
0
LINE
5
21E
100
AcDbEntity
8
0
100
AcDbLine
62
2
6
CONTINUOUS
10
289.9862821948
20
259.8074991363
11
289.9862821948
21
246.0149469958
0
LINE
5
21F
100
AcDbEntity
8
0
100
AcDbLine
62
2
6
CONTINUOUS
10
295.9862821948
20
250.9788637594
11
295.9862821948
21
246.0149469958
0
LINE
5
220
100
AcDbEntity
8
0
100
AcDbLine
62
2
6
CONTINUOUS
10
289.9862821948
20
247.5149469958
11
281.9862821948
21
247.5149469958
0
LINE
5
221
100
AcDbEntity
8
0
100
AcDbLine
62
2
6
CONTINUOUS
10
281.9862821948
20
247.5149469958
11
292.9862821948
21
247.5149469958
0
LINE
5
222
100
AcDbEntity
8
0
100
AcDbLine
62
2
6
CONTINUOUS
10
295.9862821948
20
247.5149469958
11
303.9862821948
21
247.5149469958
0
LINE
5
223
100
AcDbEntity
8
0
100
AcDbLine
62
2
6
CONTINUOUS
10
303.9862821948
20
247.5149469958
11
292.9862821948
21
247.5149469958
0
SOLID
5
224
100
AcDbEntity
8
0
100
AcDbTrace
62
2
6
CONTINUOUS
10
286.4862821948
20
246.7649469958
11
289.9862821948
21
247.5149469958
12
286.4862821948
22
248.2649469958
13
286.4862821948
23
248.2649469958
0
SOLID
5
225
100
AcDbEntity
8
0
100
AcDbTrace
62
2
6
CONTINUOUS
10
299.4862821948
20
248.2649469958
11
295.9862821948
21
247.5149469958
12
299.4862821948
22
246.7649469958
13
299.4862821948
23
246.7649469958
0
ENDBLK
5
226
100
AcDbEntity
8
0
100
AcDbBlockEnd
0
BLOCK
5
227
100
AcDbEntity
8
0
100
AcDbBlockBegin
62
2
6
CONTINUOUS
2
*D3
70
65
10
0.0000000000
20
0.0000000000
3
*D3
1

0
TEXT
5
228
100
AcDbEntity
8
0
100
AcDbText
62
2
6
CONTINUOUS
10
325.9099115238
20
196.5355405897
7
TEXTSTYLE_0
40
3.5000000000
1
26.1
50
90.0000000000
72
5
11
325.9099115238
21
208.4355405897
100
AcDbText
0
LINE
5
229
100
AcDbEntity
8
0
100
AcDbLine
62
2
6
CONTINUOUS
10
313.2362882872
20
189.6764417693
11
328.2849115238
21
189.6764417693
0
LINE
5
22A
100
AcDbEntity
8
0
100
AcDbLine
62
2
6
CONTINUOUS
10
334.1662690265
20
215.7764417693
11
325.2849115238
21
215.7764417693
0
LINE
5
22B
100
AcDbEntity
8
0
100
AcDbLine
62
2
6
CONTINUOUS
10
326.7849115238
20
189.6764417693
11
326.7849115238
21
202.7264417693
0
LINE
5
22C
100
AcDbEntity
8
0
100
AcDbLine
62
2
6
CONTINUOUS
10
326.7849115238
20
215.7764417693
11
326.7849115238
21
202.7264417693
0
SOLID
5
22D
100
AcDbEntity
8
0
100
AcDbTrace
62
2
6
CONTINUOUS
10
326.0349115238
20
193.1764417693
11
326.7849115238
21
189.6764417693
12
327.5349115238
22
193.1764417693
13
327.5349115238
23
193.1764417693
0
SOLID
5
22E
100
AcDbEntity
8
0
100
AcDbTrace
62
2
6
CONTINUOUS
10
327.5349115238
20
212.2764417693
11
326.7849115238
21
215.7764417693
12
326.0349115238
22
212.2764417693
13
326.0349115238
23
212.2764417693
0
ENDBLK
5
22F
100
AcDbEntity
8
0
100
AcDbBlockEnd
0
ENDSEC
0
SECTION
2
ENTITIES
0
SOLID
5
230
100
AcDbEntity
8
0
100
AcDbTrace
62
7
6
CONTINUOUS
10
200.9470429146
20
112.5862961926
11
202.4470429146
21
108.5862961926
12
199.4470429146
22
108.5862961926
13
199.4470429146
23
108.5862961926
0
TEXT
5
231
100
AcDbEntity
8
0
100
AcDbText
62
7
6
CONTINUOUS
10
202.4345428996
20
101.6375279955
7
TEXTSTYLE_0
40
3.5000000000
1
A
72
5
11
205.4095428695
21
101.6375279955
100
AcDbText
0
SOLID
5
232
100
AcDbEntity
8
0
100
AcDbTrace
62
7
6
CONTINUOUS
10
73.0914053751
20
112.5862961926
11
74.5914053751
21
108.5862961926
12
71.5914053751
22
108.5862961926
13
71.5914053751
23
108.5862961926
0
TEXT
5
233
100
AcDbEntity
8
0
100
AcDbText
62
7
6
CONTINUOUS
10
68.6289053902
20
101.6375279955
7
TEXTSTYLE_0
40
3.5000000000
1
A
72
5
11
71.6039053601
21
101.6375279955
100
AcDbText
0
SOLID
5
234
100
AcDbEntity
8
0
100
AcDbTrace
62
7
6
CONTINUOUS
10
136.3868281075
20
157.8256578947
11
132.3868281075
21
156.3256578947
12
132.3868281075
22
159.3256578947
13
132.3868281075
23
159.3256578947
0
TEXT
5
235
100
AcDbEntity
8
0
100
AcDbText
62
7
6
CONTINUOUS
10
124.1834686300
20
159.5756578947
7
TEXTSTYLE_0
40
3.5000000000
1
B
72
5
11
127.1584686000
21
159.5756578947
100
AcDbText
0
SOLID
5
236
100
AcDbEntity
8
0
100
AcDbTrace
62
7
6
CONTINUOUS
10
87.1780916748
20
61.0620799844
11
83.1780916748
21
59.5620799844
12
83.1780916748
22
62.5620799844
13
83.1780916748
23
62.5620799844
0
TEXT
5
237
100
AcDbEntity
8
0
100
AcDbText
62
7
6
CONTINUOUS
10
74.9747321973
20
55.8120799844
7
TEXTSTYLE_0
40
3.5000000000
1
B
72
5
11
77.9497321673
21
55.8120799844
100
AcDbText
0
DIMENSION
5
238
100
AcDbEntity
8
0
100
AcDbDimension
62
2
6
CONTINUOUS
2
*D0
10
300.9689820933
20
216.7588370580
11
315.0857863732
21
266.7220643938
70
162
3
DIMSTYLE_1
100
AcDb2LineAngularDimension
13
303.0035822964
23
216.7588370580
14
303.9153676681
24
268.9949860169
15
300.0571967216
25
268.9949860169
16
315.0857864327
26
266.7220643938
0
DIMENSION
5
239
100
AcDbEntity
8
0
100
AcDbDimension
62
2
6
CONTINUOUS
2
*D1
10
289.9862821948
20
257.4347620260
11
280.0797740814
21
260.0597620260
70
160
3
DIMSTYLE_2
100
AcDbAlignedDimension
13
286.9862821948
23
260.4026880381
14
289.9862821948
24
259.8074991363
100
AcDbRotatedDimension
0
DIMENSION
5
23A
100
AcDbEntity
8
0
100
AcDbDimension
62
2
6
CONTINUOUS
2
*D2
10
295.9862821948
20
247.5149469958
11
293.1734576667
21
250.1399469958
70
160
3
DIMSTYLE_2
100
AcDbAlignedDimension
13
289.9862821948
23
259.8074991363
14
295.9862821948
24
250.9788637594
100
AcDbRotatedDimension
0
DIMENSION
5
23B
100
AcDbEntity
8
0
100
AcDbDimension
62
2
6
CONTINUOUS
2
*D3
10
326.7849115238
20
215.7764417693
11
324.1599115238
21
202.4855405897
70
160
3
DIMSTYLE_2
100
AcDbAlignedDimension
13
313.2362882872
23
189.6764417693
14
334.1662690265
24
215.7764417693
50
90.000000
100
AcDbRotatedDimension
0
LINE
5
23C
100
AcDbEntity
8
0
100
AcDbLine
62
7
6
CONTINUOUS
10
272.5000000000
20
78.5000000000
11
412.5000000000
21
78.5000000000
0
LINE
5
23D
100
AcDbEntity
8
0
100
AcDbLine
62
7
6
CONTINUOUS
10
272.5000000000
20
78.5000000000
11
272.5000000000
21
24.5000000000
0
LINE
5
23E
100
AcDbEntity
8
0
100
AcDbLine
62
7
6
CONTINUOUS
10
272.5000000000
20
64.5000000000
11
412.5000000000
21
64.5000000000
0
LINE
5
23F
100
AcDbEntity
8
0
100
AcDbLine
62
7
6
CONTINUOUS
10
272.5000000000
20
54.5000000000
11
412.5000000000
21
54.5000000000
0
LINE
5
240
100
AcDbEntity
8
0
100
AcDbLine
62
7
6
CONTINUOUS
10
272.5000000000
20
44.5000000000
11
412.5000000000
21
44.5000000000
0
LINE
5
241
100
AcDbEntity
8
0
100
AcDbLine
62
7
6
CONTINUOUS
10
272.5000000000
20
34.5000000000
11
412.5000000000
21
34.5000000000
0
LINE
5
242
100
AcDbEntity
8
0
100
AcDbLine
62
7
6
CONTINUOUS
10
272.5000000000
20
24.5000000000
11
412.5000000000
21
24.5000000000
0
LINE
5
243
100
AcDbEntity
8
0
100
AcDbLine
62
7
6
CONTINUOUS
10
293.5000000000
20
78.5000000000
11
293.5000000000
21
54.5000000000
0
LINE
5
244
100
AcDbEntity
8
0
100
AcDbLine
62
7
6
CONTINUOUS
10
314.5000000000
20
54.5000000000
11
314.5000000000
21
34.5000000000
0
LINE
5
245
100
AcDbEntity
8
0
100
AcDbLine
62
7
6
CONTINUOUS
10
377.5000000000
20
64.5000000000
11
377.5000000000
21
24.5000000000
0
LINE
5
246
100
AcDbEntity
8
0
100
AcDbLine
62
7
6
CONTINUOUS
10
412.5000000000
20
78.5000000000
11
412.5000000000
21
24.5000000000
0
TEXT
5
247
100
AcDbEntity
8
0
100
AcDbText
62
7
6
CONTINUOUS
10
272.5625000000
20
78.2656250000
7
TEXTSTYLE_0
40
0.1562500000
1
 
72
5
11
272.6875000000
21
78.2656250000
100
AcDbText
0
TEXT
5
248
100
AcDbEntity
8
0
100
AcDbText
62
7
6
CONTINUOUS
10
272.5625000000
20
75.7265625000
7
TEXTSTYLE_0
40
2.0000000000
1
 Dato:
72
5
11
282.1625000000
21
75.7265625000
100
AcDbText
0
TEXT
5
249
100
AcDbEntity
8
0
100
AcDbText
62
7
6
CONTINUOUS
10
272.5625000000
20
73.3515625000
7
TEXTSTYLE_0
40
1.5000000000
1
 
72
5
11
273.7625000000
21
73.3515625000
100
AcDbText
0
TEXT
5
24A
100
AcDbEntity
8
0
100
AcDbText
62
7
6
CONTINUOUS
10
272.5625000000
20
69.7265625000
7
TEXTSTYLE_0
40
0.2000000000
1
 
72
5
11
272.7225000000
21
69.7265625000
100
AcDbText
0
TEXT
5
24B
100
AcDbEntity
8
0
100
AcDbText
62
7
6
CONTINUOUS
10
272.7225000000
20
69.7265625000
7
TEXTSTYLE_0
40
2.6000000000
1
26-Mar-12
72
5
11
291.4425000000
21
69.7265625000
100
AcDbText
0
TEXT
5
24C
100
AcDbEntity
8
0
100
AcDbText
62
7
6
CONTINUOUS
10
293.5625000000
20
69.0000000000
7
TEXTSTYLE_1
40
5.0000000000
1
             Bernic A/S
72
5
11
368.7977941176
21
69.0000000000
100
AcDbText
0
TEXT
5
24D
100
AcDbEntity
8
0
100
AcDbText
62
7
6
CONTINUOUS
10
272.5625000000
20
64.2656250000
7
TEXTSTYLE_0
40
0.1562500000
1
 
72
5
11
272.6875000000
21
64.2656250000
100
AcDbText
0
TEXT
5
24E
100
AcDbEntity
8
0
100
AcDbText
62
7
6
CONTINUOUS
10
272.5625000000
20
61.7265625000
7
TEXTSTYLE_0
40
2.0000000000
1
 Skala:
72
5
11
283.7625000000
21
61.7265625000
100
AcDbText
0
TEXT
5
24F
100
AcDbEntity
8
0
100
AcDbText
62
7
6
CONTINUOUS
10
272.5625000000
20
61.0312500000
7
TEXTSTYLE_0
40
0.1562500000
1
 
72
5
11
272.6875000000
21
61.0312500000
100
AcDbText
0
TEXT
5
250
100
AcDbEntity
8
0
100
AcDbText
62
7
6
CONTINUOUS
10
272.5625000000
20
57.2421875000
7
TEXTSTYLE_0
40
0.1562500000
1
 
72
5
11
272.6875000000
21
57.2421875000
100
AcDbText
0
TEXT
5
251
100
AcDbEntity
8
0
100
AcDbText
62
7
6
CONTINUOUS
10
272.6875000000
20
57.2421875000
7
TEXTSTYLE_0
40
3.0000000000
1
 
72
5
11
275.0875000000
21
57.2421875000
100
AcDbText
0
TEXT
5
252
100
AcDbEntity
8
0
100
AcDbText
62
7
6
CONTINUOUS
10
275.0875000000
20
57.2421875000
7
TEXTSTYLE_0
40
2.6000000000
1
1.000
72
5
11
285.4875000000
21
57.2421875000
100
AcDbText
0
TEXT
5
253
100
AcDbEntity
8
0
100
AcDbText
62
7
6
CONTINUOUS
10
293.5625000000
20
64.2656250000
7
TEXTSTYLE_0
40
0.1562500000
1
 
72
5
11
293.6875000000
21
64.2656250000
100
AcDbText
0
TEXT
5
254
100
AcDbEntity
8
0
100
AcDbText
62
7
6
CONTINUOUS
10
293.5625000000
20
61.7265625000
7
TEXTSTYLE_0
40
2.0000000000
1
 Kunde:
72
5
11
304.7625000000
21
61.7265625000
100
AcDbText
0
TEXT
5
255
100
AcDbEntity
8
0
100
AcDbText
62
7
6
CONTINUOUS
10
293.5625000000
20
61.0312500000
7
TEXTSTYLE_0
40
0.1562500000
1
 
72
5
11
293.6875000000
21
61.0312500000
100
AcDbText
0
TEXT
5
256
100
AcDbEntity
8
0
100
AcDbText
62
7
6
CONTINUOUS
10
293.5625000000
20
60.7968750000
7
TEXTSTYLE_0
40
0.1562500000
1
 
72
5
11
293.6875000000
21
60.7968750000
100
AcDbText
0
TEXT
5
257
100
AcDbEntity
8
0
100
AcDbText
62
7
6
CONTINUOUS
10
345.1875000000
20
57.5000000000
7
TEXTSTYLE_2
40
4.0000000000
1
 
72
5
11
346.8125000000
21
57.5000000000
100
AcDbText
0
TEXT
5
258
100
AcDbEntity
8
0
100
AcDbText
62
7
6
CONTINUOUS
10
377.5625000000
20
58.2000000000
7
TEXTSTYLE_0
40
2.6000000000
1
Sheet 
72
5
11
390.0425000000
21
58.2000000000
100
AcDbText
0
TEXT
5
259
100
AcDbEntity
8
0
100
AcDbText
62
7
6
CONTINUOUS
10
390.0425000000
20
58.2000000000
7
TEXTSTYLE_0
40
2.6000000000
1
1
72
5
11
392.1225000000
21
58.2000000000
100
AcDbText
0
TEXT
5
25A
100
AcDbEntity
8
0
100
AcDbText
62
7
6
CONTINUOUS
10
392.1225000000
20
58.2000000000
7
TEXTSTYLE_0
40
2.6000000000
1
 of 
72
5
11
400.4425000000
21
58.2000000000
100
AcDbText
0
TEXT
5
25B
100
AcDbEntity
8
0
100
AcDbText
62
7
6
CONTINUOUS
10
400.4425000000
20
58.2000000000
7
TEXTSTYLE_0
40
2.6000000000
1
1
72
5
11
402.5225000000
21
58.2000000000
100
AcDbText
0
TEXT
5
25C
100
AcDbEntity
8
0
100
AcDbText
6
CONTINUOUS
10
272.5625000000
20
51.8750000000
7
TEXTSTYLE_0
40
2.0000000000
1
 Tol.:
72
5
11
282.1625000000
21
51.8750000000
100
AcDbText
0
TEXT
5
25D
100
AcDbEntity
8
0
100
AcDbText
6
CONTINUOUS
10
272.5625000000
20
48.8750000000
7
TEXTSTYLE_0
40
2.0000000000
1
 
72
5
11
274.1625000000
21
48.8750000000
100
AcDbText
0
TEXT
5
25E
100
AcDbEntity
8
0
100
AcDbText
6
CONTINUOUS
10
272.5625000000
20
45.1250000000
7
TEXTSTYLE_0
40
2.6000000000
1
 
72
5
11
274.6425000000
21
45.1250000000
100
AcDbText
0
TEXT
5
25F
100
AcDbEntity
8
0
100
AcDbText
6
CONTINUOUS
10
274.6425000000
20
45.1250000000
7
TEXTSTYLE_0
40
2.6000000000
1
DS/ISO 2768 - m
72
5
11
305.8425000000
21
45.1250000000
100
AcDbText
0
TEXT
5
260
100
AcDbEntity
8
0
100
AcDbText
6
CONTINUOUS
10
314.5625000000
20
51.8750000000
7
TEXTSTYLE_0
40
2.0000000000
1
 Materiale:
72
5
11
332.1625000000
21
51.8750000000
100
AcDbText
0
TEXT
5
261
100
AcDbEntity
8
0
100
AcDbText
6
CONTINUOUS
10
314.5625000000
20
48.8750000000
7
TEXTSTYLE_0
40
2.0000000000
1
 
72
5
11
316.1625000000
21
48.8750000000
100
AcDbText
0
TEXT
5
262
100
AcDbEntity
8
0
100
AcDbText
6
CONTINUOUS
10
314.5625000000
20
45.1250000000
7
TEXTSTYLE_0
40
2.6000000000
1
 
72
5
11
316.6425000000
21
45.1250000000
100
AcDbText
0
TEXT
5
263
100
AcDbEntity
8
0
100
AcDbText
6
CONTINUOUS
10
316.6425000000
20
45.1250000000
7
TEXTSTYLE_0
40
2.6000000000
1
PC
72
5
11
320.8025000000
21
45.1250000000
100
AcDbText
0
TEXT
5
264
100
AcDbEntity
8
0
100
AcDbText
6
CONTINUOUS
10
377.5625000000
20
51.8750000000
7
TEXTSTYLE_0
40
2.0000000000
1
 Farve:
72
5
11
388.7625000000
21
51.8750000000
100
AcDbText
0
TEXT
5
265
100
AcDbEntity
8
0
100
AcDbText
6
CONTINUOUS
10
377.5625000000
20
48.8750000000
7
TEXTSTYLE_0
40
2.0000000000
1
 
72
5
11
379.1625000000
21
48.8750000000
100
AcDbText
0
TEXT
5
266
100
AcDbEntity
8
0
100
AcDbText
6
CONTINUOUS
10
377.5625000000
20
45.1250000000
7
TEXTSTYLE_0
40
2.6000000000
1
 
72
5
11
379.6425000000
21
45.1250000000
100
AcDbText
0
TEXT
5
267
100
AcDbEntity
8
0
100
AcDbText
6
CONTINUOUS
10
379.6425000000
20
45.1250000000
7
TEXTSTYLE_0
40
2.6000000000
1
Grey 70350
72
5
11
400.4425000000
21
45.1250000000
100
AcDbText
0
TEXT
5
268
100
AcDbEntity
8
0
100
AcDbText
62
7
6
CONTINUOUS
10
272.5625000000
20
44.2656250000
7
TEXTSTYLE_0
40
0.1562500000
1
 
72
5
11
272.6875000000
21
44.2656250000
100
AcDbText
0
TEXT
5
269
100
AcDbEntity
8
0
100
AcDbText
62
7
6
CONTINUOUS
10
272.5625000000
20
41.7265625000
7
TEXTSTYLE_0
40
2.0000000000
1
 Emne nr.:
72
5
11
288.5625000000
21
41.7265625000
100
AcDbText
0
TEXT
5
26A
100
AcDbEntity
8
0
100
AcDbText
62
7
6
CONTINUOUS
10
272.5625000000
20
41.0312500000
7
TEXTSTYLE_0
40
0.1562500000
1
 
72
5
11
272.6875000000
21
41.0312500000
100
AcDbText
0
TEXT
5
26B
100
AcDbEntity
8
0
100
AcDbText
62
7
6
CONTINUOUS
10
272.5625000000
20
37.2421875000
7
TEXTSTYLE_0
40
3.0000000000
1
 
72
5
11
274.9625000000
21
37.2421875000
100
AcDbText
0
TEXT
5
26C
100
AcDbEntity
8
0
100
AcDbText
62
7
6
CONTINUOUS
10
274.9625000000
20
37.2421875000
7
TEXTSTYLE_0
40
2.6000000000
1
n.nnn.nnn.nnn
72
5
11
302.0025000000
21
37.2421875000
100
AcDbText
0
TEXT
5
26D
100
AcDbEntity
8
0
100
AcDbText
62
7
6
CONTINUOUS
10
314.5625000000
20
44.2656250000
7
TEXTSTYLE_0
40
0.1562500000
1
 
72
5
11
314.6875000000
21
44.2656250000
100
AcDbText
0
TEXT
5
26E
100
AcDbEntity
8
0
100
AcDbText
62
7
6
CONTINUOUS
10
314.5625000000
20
41.7265625000
7
TEXTSTYLE_0
40
2.0000000000
1
 3D model:
72
5
11
330.5625000000
21
41.7265625000
100
AcDbText
0
TEXT
5
26F
100
AcDbEntity
8
0
100
AcDbText
62
7
6
CONTINUOUS
10
314.5625000000
20
41.0312500000
7
TEXTSTYLE_0
40
0.1562500000
1
 
72
5
11
314.6875000000
21
41.0312500000
100
AcDbText
0
TEXT
5
270
100
AcDbEntity
8
0
100
AcDbText
62
7
6
CONTINUOUS
10
314.5625000000
20
37.2421875000
7
TEXTSTYLE_0
40
3.0000000000
1
 
72
5
11
316.9625000000
21
37.2421875000
100
AcDbText
0
TEXT
5
271
100
AcDbEntity
8
0
100
AcDbText
62
7
6
CONTINUOUS
10
316.9625000000
20
37.2421875000
7
TEXTSTYLE_0
40
2.6000000000
1
525_ENCL-10
72
5
11
339.8425000000
21
37.2421875000
100
AcDbText
0
TEXT
5
272
100
AcDbEntity
8
0
100
AcDbText
62
7
6
CONTINUOUS
10
377.5625000000
20
44.2656250000
7
TEXTSTYLE_0
40
0.1562500000
1
 
72
5
11
377.6875000000
21
44.2656250000
100
AcDbText
0
TEXT
5
273
100
AcDbEntity
8
0
100
AcDbText
62
7
6
CONTINUOUS
10
377.5625000000
20
41.7265625000
7
TEXTSTYLE_0
40
2.0000000000
1
 Tegn. nr.:
72
5
11
395.1625000000
21
41.7265625000
100
AcDbText
0
TEXT
5
274
100
AcDbEntity
8
0
100
AcDbText
62
7
6
CONTINUOUS
10
377.5625000000
20
41.0312500000
7
TEXTSTYLE_0
40
0.1562500000
1
 
72
5
11
377.6875000000
21
41.0312500000
100
AcDbText
0
TEXT
5
275
100
AcDbEntity
8
0
100
AcDbText
62
7
6
CONTINUOUS
10
377.5625000000
20
37.2421875000
7
TEXTSTYLE_0
40
3.0000000000
1
 
72
5
11
379.9625000000
21
37.2421875000
100
AcDbText
0
TEXT
5
276
100
AcDbEntity
8
0
100
AcDbText
62
7
6
CONTINUOUS
10
379.9625000000
20
37.2421875000
7
TEXTSTYLE_0
40
2.6000000000
1
BC 344
72
5
11
392.4425000000
21
37.2421875000
100
AcDbText
0
TEXT
5
277
100
AcDbEntity
8
0
100
AcDbText
62
7
6
CONTINUOUS
10
272.5625000000
20
34.2656250000
7
TEXTSTYLE_0
40
0.1562500000
1
 
72
5
11
272.6875000000
21
34.2656250000
100
AcDbText
0
TEXT
5
278
100
AcDbEntity
8
0
100
AcDbText
62
7
6
CONTINUOUS
10
272.5625000000
20
31.7265625000
7
TEXTSTYLE_0
40
2.0000000000
1
 Betegnelse:
72
5
11
291.7625000000
21
31.7265625000
100
AcDbText
0
TEXT
5
279
100
AcDbEntity
8
0
100
AcDbText
62
7
6
CONTINUOUS
10
293.5625000000
20
27.9000000000
7
TEXTSTYLE_2
40
3.2000000000
1
Type 525, fixed terminals, ventilated
72
5
11
366.8125000000
21
27.9000000000
100
AcDbText
0
TEXT
5
27A
100
AcDbEntity
8
0
100
AcDbText
62
7
6
CONTINUOUS
10
377.5625000000
20
30.3750000000
7
TEXTSTYLE_0
40
2.0000000000
1
   Fil:
72
5
11
388.7625000000
21
30.3750000000
100
AcDbText
0
TEXT
5
27B
100
AcDbEntity
8
0
100
AcDbText
62
7
6
CONTINUOUS
10
377.5625000000
20
26.6250000000
7
TEXTSTYLE_0
40
0.1562500000
1
   
72
5
11
377.9375000000
21
26.6250000000
100
AcDbText
0
TEXT
5
27C
100
AcDbEntity
8
0
100
AcDbText
62
7
6
CONTINUOUS
10
377.9375000000
20
26.6250000000
7
TEXTSTYLE_0
40
2.6000000000
1
525_ENCL-10
72
5
11
400.8175000000
21
26.6250000000
100
AcDbText
0
TEXT
5
27D
100
AcDbEntity
8
0
100
AcDbText
62
2
6
CONTINUOUS
10
155.1992663207
20
29.5954814953
7
TEXTSTYLE_0
40
3.0000000000
1
Registrated design file: 2020060001255
72
5
11
252.0992663207
21
29.5954814953
100
AcDbText
0
TEXT
5
27E
100
AcDbEntity
8
0
100
AcDbText
62
2
6
CONTINUOUS
10
155.4060849306
20
65.4259375325
7
TEXTSTYLE_0
40
3.5000000000
1
All rights strictly reserved.
72
5
11
241.6810849306
21
65.4259375325
100
AcDbText
0
TEXT
5
27F
100
AcDbEntity
8
0
100
AcDbText
62
2
6
CONTINUOUS
10
155.4060849306
20
60.1759375325
7
TEXTSTYLE_0
40
3.5000000000
1
Production or issue to
72
5
11
220.8560849306
21
60.1759375325
100
AcDbText
0
TEXT
5
280
100
AcDbEntity
8
0
100
AcDbText
62
2
6
CONTINUOUS
10
155.4060849306
20
54.9259375325
7
TEXTSTYLE_0
40
3.5000000000
1
third parties in any form
72
5
11
229.7810849306
21
54.9259375325
100
AcDbText
0
TEXT
5
281
100
AcDbEntity
8
0
100
AcDbText
62
2
6
CONTINUOUS
10
155.4060849306
20
49.6759375325
7
TEXTSTYLE_0
40
3.5000000000
1
whatever is not permitted
72
5
11
229.7810849306
21
49.6759375325
100
AcDbText
0
TEXT
5
282
100
AcDbEntity
8
0
100
AcDbText
62
2
6
CONTINUOUS
10
155.4060849306
20
44.4259375325
7
TEXTSTYLE_0
40
3.5000000000
1
without written authority
72
5
11
229.7810849306
21
44.4259375325
100
AcDbText
0
TEXT
5
283
100
AcDbEntity
8
0
100
AcDbText
62
2
6
CONTINUOUS
10
155.4060849306
20
39.1759375325
7
TEXTSTYLE_0
40
3.5000000000
1
from the proprietors.
72
5
11
217.8810849306
21
39.1759375325
100
AcDbText
0
TEXT
5
284
100
AcDbEntity
8
0
100
AcDbText
62
2
6
CONTINUOUS
10
255.0576616756
20
28.1962739855
7
TEXTSTYLE_2
40
7.0000000000
1
©
72
5
11
260.2529741756
21
28.1962739855
100
AcDbText
0
TEXT
5
285
100
AcDbEntity
8
0
100
AcDbText
62
2
6
CONTINUOUS
10
272.5699174204
20
82.7352185535
7
TEXTSTYLE_0
40
3.5000000000
1
Missing measures:  look at drawing no BC 331
72
5
11
403.4699174204
21
82.7352185535
100
AcDbText
0
TEXT
5
286
100
AcDbEntity
8
0
100
AcDbText
62
2
6
CONTINUOUS
10
38.9634658455
20
269.9677351624
7
TEXTSTYLE_0
40
3.5000000000
1
SECTION  
72
5
11
65.7384658455
21
269.9677351624
100
AcDbText
0
TEXT
5
287
100
AcDbEntity
8
0
100
AcDbText
62
2
6
CONTINUOUS
10
65.7384658455
20
269.9677351624
7
TEXTSTYLE_0
40
3.5000000000
1
A-A
72
5
11
74.6634658455
21
269.9677351624
100
AcDbText
0
TEXT
5
288
100
AcDbEntity
8
0
100
AcDbText
62
2
6
CONTINUOUS
10
330.2414613662
20
269.9677351624
7
TEXTSTYLE_0
40
3.5000000000
1
SECTION  
72
5
11
357.0164613662
21
269.9677351624
100
AcDbText
0
TEXT
5
289
100
AcDbEntity
8
0
100
AcDbText
62
2
6
CONTINUOUS
10
357.0164613662
20
269.9677351624
7
TEXTSTYLE_0
40
3.5000000000
1
B-B
72
5
11
365.9414613662
21
269.9677351624
100
AcDbText
0
LINE
5
28A
100
AcDbEntity
8
0
100
AcDbLine
62
7
6
CONTINUOUS
10
-2.3437500000
20
9.3437500000
11
-2.6562500000
21
9.6562500000
0
LINE
5
28B
100
AcDbEntity
8
0
100
AcDbLine
62
7
6
CONTINUOUS
10
12.5000000000
20
14.5000000000
11
12.5000000000
21
287.5000000000
0
LINE
5
28C
100
AcDbEntity
8
0
100
AcDbLine
62
7
6
CONTINUOUS
10
22.5000000000
20
24.5000000000
11
22.5000000000
21
277.5000000000
0
LINE
5
28D
100
AcDbEntity
8
0
100
AcDbLine
62
7
6
CONTINUOUS
10
422.5000000000
20
14.5000000000
11
12.5000000000
21
14.5000000000
0
LINE
5
28E
100
AcDbEntity
8
0
100
AcDbLine
62
7
6
CONTINUOUS
10
412.5000000000
20
24.5000000000
11
22.5000000000
21
24.5000000000
0
LINE
5
28F
100
AcDbEntity
8
0
100
AcDbLine
62
7
6
CONTINUOUS
10
-2.3437500000
20
9.6562500000
11
-2.6562500000
21
9.3437500000
0
LINE
5
290
100
AcDbEntity
8
0
100
AcDbLine
62
7
6
CONTINUOUS
10
217.5000000000
20
24.5000000000
11
217.5000000000
21
19.5000000000
0
LINE
5
291
100
AcDbEntity
8
0
100
AcDbLine
62
7
6
CONTINUOUS
10
217.5000000000
20
277.5000000000
11
217.5000000000
21
282.5000000000
0
LINE
5
292
100
AcDbEntity
8
0
100
AcDbLine
62
7
6
CONTINUOUS
10
22.5000000000
20
277.5000000000
11
412.5000000000
21
277.5000000000
0
LINE
5
293
100
AcDbEntity
8
0
100
AcDbLine
62
7
6
CONTINUOUS
10
12.5000000000
20
287.5000000000
11
422.5000000000
21
287.5000000000
0
LINE
5
294
100
AcDbEntity
8
0
100
AcDbLine
62
7
6
CONTINUOUS
10
412.5000000000
20
277.5000000000
11
412.5000000000
21
24.5000000000
0
LINE
5
295
100
AcDbEntity
8
0
100
AcDbLine
62
7
6
CONTINUOUS
10
422.5000000000
20
287.5000000000
11
422.5000000000
21
14.5000000000
0
LINE
5
296
100
AcDbEntity
8
0
100
AcDbLine
62
7
6
CONTINUOUS
10
73.0914053751
20
112.5862961926
11
73.0914053751
21
99.8875279955
0
LINE
5
297
100
AcDbEntity
8
0
100
AcDbLine
62
7
6
CONTINUOUS
10
87.1780916748
20
61.0620799844
11
73.4872322123
21
61.0620799844
0
LINE
5
298
100
AcDbEntity
8
DEFAULT_1
100
AcDbLine
62
7
6
CENTER
10
87.1780916748
20
112.5862961926
11
87.1780916748
21
102.5862961926
0
LINE
5
299
100
AcDbEntity
8
DEFAULT_1
100
AcDbLine
62
9
6
CENTER
10
87.1780916748
20
102.5862961926
11
87.1780916748
21
71.0620799844
0
LINE
5
29A
100
AcDbEntity
8
DEFAULT_1
100
AcDbLine
62
7
6
CENTER
10
87.1780916748
20
71.0620799844
11
87.1780916748
21
61.0620799844
0
LINE
5
29B
100
AcDbEntity
8
0
100
AcDbLine
62
7
6
CONTINUOUS
10
93.3868281075
20
87.3362901003
11
93.3868281075
21
91.0362961926
0
LINE
5
29C
100
AcDbEntity
8
0
100
AcDbLine
62
7
6
CONTINUOUS
10
93.3868281075
20
134.1362961926
11
93.3868281075
21
137.8363022850
0
LINE
5
29D
100
AcDbEntity
8
0
100
AcDbLine
62
7
6
CONTINUOUS
10
93.4363956596
20
91.0362961926
11
93.4363956596
21
134.1362961926
0
LINE
5
29E
100
AcDbEntity
8
0
100
AcDbLine
62
7
6
CONTINUOUS
10
93.4531630732
20
137.7699673193
11
93.4531630732
21
87.4026250659
0
LINE
5
29F
100
AcDbEntity
8
0
100
AcDbLine
62
9
6
CONTINUOUS
10
94.4531569808
20
86.4026311583
11
94.4531569808
21
138.7699612269
0
LINE
5
2A0
100
AcDbEntity
8
0
100
AcDbLine
62
7
6
CONTINUOUS
10
102.5740621441
20
91.9612961926
11
102.7612961808
21
91.8237961926
0
LINE
5
2A1
100
AcDbEntity
8
0
100
AcDbLine
62
7
6
CONTINUOUS
10
102.7612961808
20
92.0987961926
11
102.6676791706
21
92.2362961926
0
LINE
5
2A2
100
AcDbEntity
8
0
100
AcDbLine
62
7
6
CONTINUOUS
10
103.2293813297
20
92.1904629030
11
103.4166153499
21
91.9154629030
0
LINE
5
2A3
100
AcDbEntity
8
0
100
AcDbLine
62
7
6
CONTINUOUS
10
103.5570408651
20
92.0987961926
11
103.4634238550
21
92.2362961926
0
LINE
5
2A4
100
AcDbEntity
8
0
100
AcDbLine
62
7
6
CONTINUOUS
10
104.2123600670
20
92.9696295150
11
104.3059770772
21
92.8321295150
0
LINE
5
2A5
100
AcDbEntity
8
0
100
AcDbLine
62
7
6
CONTINUOUS
10
102.4336366167
20
92.1904629030
11
102.5740621441
21
91.9612961926
0
LINE
5
2A6
100
AcDbEntity
8
0
100
AcDbLine
62
7
6
CONTINUOUS
10
104.5400196024
20
92.8779628702
11
104.3995940873
21
93.1071295314
0
LINE
5
2A7
100
AcDbEntity
8
0
100
AcDbLine
62
7
6
CONTINUOUS
10
102.4336366167
20
97.1446294822
11
102.5740621441
21
96.9154629030
0
LINE
5
2A8
100
AcDbEntity
8
0
100
AcDbLine
62
7
6
CONTINUOUS
10
102.7612961808
20
97.0529629030
11
102.6676791706
21
97.2362961926
0
LINE
5
2A9
100
AcDbEntity
8
0
100
AcDbLine
62
7
6
CONTINUOUS
10
102.6676791706
20
92.2362961926
11
102.6208706656
21
92.3737961926
0
LINE
5
2AA
100
AcDbEntity
8
0
100
AcDbLine
62
7
6
CONTINUOUS
10
103.4634238550
20
92.2362961926
11
103.4166153499
21
92.3737961926
0
LINE
5
2AB
100
AcDbEntity
8
0
100
AcDbLine
62
7
6
CONTINUOUS
10
104.3059770772
20
92.8321295150
11
104.3527855822
21
92.6946295478
0
LINE
5
2AC
100
AcDbEntity
8
0
100
AcDbLine
62
7
6
CONTINUOUS
10
102.3868281075
20
92.4196295478
11
102.4336366167
21
92.1904629030
0
LINE
5
2AD
100
AcDbEntity
8
0
100
AcDbLine
62
7
6
CONTINUOUS
10
103.1825727591
20
92.4196295478
11
103.2293813297
21
92.1904629030
0
LINE
5
2AE
100
AcDbEntity
8
0
100
AcDbLine
62
7
6
CONTINUOUS
10
102.3868281075
20
133.0612961926
11
102.3868281075
21
132.7862961926
0
LINE
5
2AF
100
AcDbEntity
8
0
100
AcDbLine
62
7
6
CONTINUOUS
10
102.3868281075
20
128.3362961926
11
102.3868281075
21
126.6862961926
0
LINE
5
2B0
100
AcDbEntity
8
0
100
AcDbLine
62
7
6
CONTINUOUS
10
102.3868281075
20
122.6946295478
11
102.3868281075
21
122.3279628374
0
LINE
5
2B1
100
AcDbEntity
8
0
100
AcDbLine
62
7
6
CONTINUOUS
10
102.3868281075
20
117.2362961926
11
102.3868281075
21
116.9612961926
0
LINE
5
2B2
100
AcDbEntity
8
0
100
AcDbLine
62
7
6
CONTINUOUS
10
102.3868281075
20
112.6487961926
11
102.3868281075
21
112.3737961926
0
LINE
5
2B3
100
AcDbEntity
8
0
100
AcDbLine
62
7
6
CONTINUOUS
10
102.3868281075
20
107.6029628374
11
102.3868281075
21
107.3737961926
0
LINE
5
2B4
100
AcDbEntity
8
0
100
AcDbLine
62
7
6
CONTINUOUS
10
102.3868281075
20
97.6487961926
11
102.3868281075
21
97.3737961926
0
LINE
5
2B5
100
AcDbEntity
8
0
100
AcDbLine
62
7
6
CONTINUOUS
10
102.3868281075
20
92.6029628374
11
102.3868281075
21
92.4196295478
0
LINE
5
2B6
100
AcDbEntity
8
0
100
AcDbLine
62
7
6
CONTINUOUS
10
102.3885479590
20
102.8779628702
11
102.3885479590
21
102.6029628374
0
LINE
5
2B7
100
AcDbEntity
8
0
100
AcDbLine
62
7
6
CONTINUOUS
10
102.6208706656
20
92.3737961926
11
102.6208706656
21
92.6487961926
0
LINE
5
2B8
100
AcDbEntity
8
0
100
AcDbLine
62
7
6
CONTINUOUS
10
102.6208706656
20
97.4196295478
11
102.6208706656
21
97.6029628374
0
LINE
5
2B9
100
AcDbEntity
8
0
100
AcDbLine
62
7
6
CONTINUOUS
10
102.6208706656
20
107.3279628374
11
102.6208706656
21
107.6487961926
0
LINE
5
2BA
100
AcDbEntity
8
0
100
AcDbLine
62
7
6
CONTINUOUS
10
102.6208706656
20
112.3737961926
11
102.6208706656
21
112.6487961926
0
LINE
5
2BB
100
AcDbEntity
8
0
100
AcDbLine
62
7
6
CONTINUOUS
10
102.6208706656
20
122.3737961926
11
102.6208706656
21
122.6487961926
0
LINE
5
2BC
100
AcDbEntity
8
0
100
AcDbLine
62
7
6
CONTINUOUS
10
102.6208706656
20
126.6862961926
11
102.6208706656
21
127.9696295150
0
LINE
5
2BD
100
AcDbEntity
8
0
100
AcDbLine
62
7
6
CONTINUOUS
10
102.9017217287
20
93.0154628702
11
102.9017217287
21
93.2446295232
0
LINE
5
2BE
100
AcDbEntity
8
0
100
AcDbLine
62
7
6
CONTINUOUS
10
102.9017217287
20
123.1071295314
11
102.9017217287
21
123.3362961926
0
LINE
5
2BF
100
AcDbEntity
8
0
100
AcDbLine
62
7
6
CONTINUOUS
10
102.9485302338
20
113.0612961926
11
102.9485302338
21
113.3362961926
0
LINE
5
2C0
100
AcDbEntity
8
0
100
AcDbLine
62
7
6
CONTINUOUS
10
103.0421472439
20
118.3362961926
11
103.0421472439
21
117.2362961926
0
LINE
5
2C1
100
AcDbEntity
8
0
100
AcDbLine
62
7
6
CONTINUOUS
10
103.0421472439
20
116.9612961926
11
103.0421472439
21
116.5029629030
0
LINE
5
2C2
100
AcDbEntity
8
0
100
AcDbLine
62
7
6
CONTINUOUS
10
103.1825727591
20
92.6487961926
11
103.1825727591
21
92.4196295478
0
LINE
5
2C3
100
AcDbEntity
8
0
100
AcDbLine
62
7
6
CONTINUOUS
10
103.4166153499
20
122.4196295478
11
103.3698068449
21
122.1446294822
0
LINE
5
2C4
100
AcDbEntity
8
0
100
AcDbLine
62
7
6
CONTINUOUS
10
104.5400196024
20
127.0987961926
11
104.5868281075
21
127.3737961926
0
LINE
5
2C5
100
AcDbEntity
8
0
100
AcDbLine
62
7
6
CONTINUOUS
10
102.6208706656
20
122.6487961926
11
102.6676791706
21
122.8779628702
0
LINE
5
2C6
100
AcDbEntity
8
0
100
AcDbLine
62
7
6
CONTINUOUS
10
104.3527855822
20
127.4196295478
11
104.3059770772
21
127.1904629030
0
LINE
5
2C7
100
AcDbEntity
8
0
100
AcDbLine
62
7
6
CONTINUOUS
10
104.3527855822
20
122.4196295478
11
104.3059770772
21
122.1904629030
0
LINE
5
2C8
100
AcDbEntity
8
0
100
AcDbLine
62
7
6
CONTINUOUS
10
102.4336366167
20
112.8779628702
11
102.3868281075
21
112.6487961926
0
LINE
5
2C9
100
AcDbEntity
8
0
100
AcDbLine
62
7
6
CONTINUOUS
10
102.4336366167
20
122.8779628702
11
102.3868281075
21
122.6946295478
0
LINE
5
2CA
100
AcDbEntity
8
0
100
AcDbLine
62
7
6
CONTINUOUS
10
103.4166153499
20
121.8237961926
11
103.5102323600
21
122.0529629030
0
LINE
5
2CB
100
AcDbEntity
8
0
100
AcDbLine
62
7
6
CONTINUOUS
10
104.4464025923
20
126.9154629030
11
104.5400196024
21
127.0987961926
0
LINE
5
2CC
100
AcDbEntity
8
0
100
AcDbLine
62
7
6
CONTINUOUS
10
102.5272536391
20
123.0612961926
11
102.4336366167
21
122.8779628702
0
LINE
5
2CD
100
AcDbEntity
8
0
100
AcDbLine
62
7
6
CONTINUOUS
10
102.6676791706
20
122.8779628702
11
102.7144876757
21
122.9696295150
0
LINE
5
2CE
100
AcDbEntity
8
0
100
AcDbLine
62
7
6
CONTINUOUS
10
104.3059770772
20
127.1904629030
11
104.2123600670
21
127.0529629030
0
LINE
5
2CF
100
AcDbEntity
8
0
100
AcDbLine
62
7
6
CONTINUOUS
10
102.6208706656
20
123.1987961926
11
102.5272536391
21
123.0612961926
0
LINE
5
2D0
100
AcDbEntity
8
0
100
AcDbLine
62
7
6
CONTINUOUS
10
102.9017217287
20
92.0071294822
11
102.7612961808
21
92.0987961926
0
LINE
5
2D1
100
AcDbEntity
8
0
100
AcDbLine
62
7
6
CONTINUOUS
10
103.6974663803
20
92.0071294822
11
103.5570408651
21
92.0987961926
0
LINE
5
2D2
100
AcDbEntity
8
0
100
AcDbLine
62
7
6
CONTINUOUS
10
104.0719345519
20
93.0612961926
11
104.2123600670
21
92.9696295150
0
LINE
5
2D3
100
AcDbEntity
8
0
100
AcDbLine
62
7
6
CONTINUOUS
10
104.3995940873
20
93.1071295314
11
104.2123600670
21
93.2446295232
0
LINE
5
2D4
100
AcDbEntity
8
0
100
AcDbLine
62
7
6
CONTINUOUS
10
102.5740621441
20
96.9154629030
11
102.7144876757
21
96.7779629030
0
LINE
5
2D5
100
AcDbEntity
8
0
100
AcDbLine
62
7
6
CONTINUOUS
10
103.5570408651
20
96.9612961926
11
103.6974663803
21
96.8237961926
0
LINE
5
2D6
100
AcDbEntity
8
0
100
AcDbLine
62
7
6
CONTINUOUS
10
103.7910833904
20
97.0529629030
11
103.6506578752
21
97.2362961926
0
LINE
5
2D7
100
AcDbEntity
8
0
100
AcDbLine
62
7
6
CONTINUOUS
10
103.4634238550
20
98.0612961926
11
103.3229983398
21
98.2446295232
0
LINE
5
2D8
100
AcDbEntity
8
0
100
AcDbLine
62
7
6
CONTINUOUS
10
104.1655515620
20
97.9696295150
11
104.3059770772
21
97.7862961926
0
LINE
5
2D9
100
AcDbEntity
8
0
100
AcDbLine
62
7
6
CONTINUOUS
10
104.5400196024
20
97.8321295150
11
104.3995940873
21
98.0612961926
0
LINE
5
2DA
100
AcDbEntity
8
0
100
AcDbLine
62
7
6
CONTINUOUS
10
103.5102323600
20
97.0529629030
11
103.5570408651
21
96.9612961926
0
LINE
5
2DB
100
AcDbEntity
8
0
100
AcDbLine
62
7
6
CONTINUOUS
10
103.2761898347
20
97.9696295150
11
103.3698068449
21
97.7862961926
0
LINE
5
2DC
100
AcDbEntity
8
0
100
AcDbLine
62
7
6
CONTINUOUS
10
103.5102323600
20
97.9696295150
11
103.4634238550
21
98.0612961926
0
LINE
5
2DD
100
AcDbEntity
8
0
100
AcDbLine
62
7
6
CONTINUOUS
10
102.6676791706
20
107.1904629030
11
102.6208706656
21
107.3279628374
0
LINE
5
2DE
100
AcDbEntity
8
0
100
AcDbLine
62
7
6
CONTINUOUS
10
102.6676791706
20
97.2362961926
11
102.6208706656
21
97.4196295478
0
LINE
5
2DF
100
AcDbEntity
8
0
100
AcDbLine
62
7
6
CONTINUOUS
10
103.3698068449
20
97.7862961926
11
103.4166153499
21
97.6029628374
0
LINE
5
2E0
100
AcDbEntity
8
0
100
AcDbLine
62
7
6
CONTINUOUS
10
103.6506578752
20
97.2362961926
11
103.6038493701
21
97.4196295478
0
LINE
5
2E1
100
AcDbEntity
8
0
100
AcDbLine
62
7
6
CONTINUOUS
10
104.3059770772
20
97.7862961926
11
104.3527855822
21
97.6029628374
0
LINE
5
2E2
100
AcDbEntity
8
0
100
AcDbLine
62
7
6
CONTINUOUS
10
102.3868281075
20
97.3737961926
11
102.4336366167
21
97.1446294822
0
LINE
5
2E3
100
AcDbEntity
8
0
100
AcDbLine
62
7
6
CONTINUOUS
10
104.5868281075
20
92.6487961926
11
104.5400196024
21
92.8779628702
0
LINE
5
2E4
100
AcDbEntity
8
0
100
AcDbLine
62
7
6
CONTINUOUS
10
102.3868281075
20
107.3737961926
11
102.4336366167
21
107.1446294822
0
LINE
5
2E5
100
AcDbEntity
8
0
100
AcDbLine
62
7
6
CONTINUOUS
10
104.5868281075
20
97.6029628374
11
104.5400196024
21
97.8321295150
0
LINE
5
2E6
100
AcDbEntity
8
0
100
AcDbLine
62
7
6
CONTINUOUS
10
102.3868281075
20
112.3737961926
11
102.4336366167
21
112.1446294822
0
LINE
5
2E7
100
AcDbEntity
8
0
100
AcDbLine
62
7
6
CONTINUOUS
10
103.3229983398
20
116.5029629030
11
103.3229983398
21
116.9612961926
0
LINE
5
2E8
100
AcDbEntity
8
0
100
AcDbLine
62
7
6
CONTINUOUS
10
103.3229983398
20
117.2362961926
11
103.3229983398
21
118.0154628702
0
LINE
5
2E9
100
AcDbEntity
8
0
100
AcDbLine
62
7
6
CONTINUOUS
10
103.3698068449
20
113.3362961926
11
103.3698068449
21
113.0154628702
0
LINE
5
2EA
100
AcDbEntity
8
0
100
AcDbLine
62
7
6
CONTINUOUS
10
103.4166153499
20
122.6029628374
11
103.4166153499
21
122.4196295478
0
LINE
5
2EB
100
AcDbEntity
8
0
100
AcDbLine
62
7
6
CONTINUOUS
10
103.4166153499
20
97.6029628374
11
103.4166153499
21
97.4196295478
0
LINE
5
2EC
100
AcDbEntity
8
0
100
AcDbLine
62
7
6
CONTINUOUS
10
103.4166153499
20
92.3737961926
11
103.4166153499
21
92.6946295478
0
LINE
5
2ED
100
AcDbEntity
8
0
100
AcDbLine
62
7
6
CONTINUOUS
10
103.5570408651
20
112.6487961926
11
103.5570408651
21
112.3737961926
0
LINE
5
2EE
100
AcDbEntity
8
0
100
AcDbLine
62
7
6
CONTINUOUS
10
103.5570408651
20
107.6487961926
11
103.5570408651
21
107.3279628374
0
LINE
5
2EF
100
AcDbEntity
8
0
100
AcDbLine
62
7
6
CONTINUOUS
10
103.6038493701
20
97.4196295478
11
103.6038493701
21
97.6029628374
0
LINE
5
2F0
100
AcDbEntity
8
0
100
AcDbLine
62
7
6
CONTINUOUS
10
103.6038493701
20
122.4196295478
11
103.6038493701
21
122.6029628374
0
LINE
5
2F1
100
AcDbEntity
8
0
100
AcDbLine
62
7
6
CONTINUOUS
10
103.7910833904
20
107.3737961926
11
103.7910833904
21
107.6029628374
0
LINE
5
2F2
100
AcDbEntity
8
0
100
AcDbLine
62
7
6
CONTINUOUS
10
103.7910833904
20
112.3737961926
11
103.7910833904
21
112.6487961926
0
LINE
5
2F3
100
AcDbEntity
8
0
100
AcDbLine
62
7
6
CONTINUOUS
10
104.0719345519
20
128.2904628579
11
104.0719345519
21
128.0612961926
0
LINE
5
2F4
100
AcDbEntity
8
0
100
AcDbLine
62
7
6
CONTINUOUS
10
104.0719345519
20
123.2904628579
11
104.0719345519
21
123.0612961926
0
LINE
5
2F5
100
AcDbEntity
8
0
100
AcDbLine
62
7
6
CONTINUOUS
10
104.0719345519
20
107.0071294822
11
104.0719345519
21
106.7779629030
0
LINE
5
2F6
100
AcDbEntity
8
0
100
AcDbLine
62
7
6
CONTINUOUS
10
104.3527855822
20
127.6029628374
11
104.3527855822
21
127.4196295478
0
LINE
5
2F7
100
AcDbEntity
8
0
100
AcDbLine
62
7
6
CONTINUOUS
10
104.3527855822
20
122.6029628374
11
104.3527855822
21
122.4196295478
0
LINE
5
2F8
100
AcDbEntity
8
0
100
AcDbLine
62
7
6
CONTINUOUS
10
104.3527855822
20
113.1071295314
11
104.3527855822
21
111.7779629030
0
LINE
5
2F9
100
AcDbEntity
8
0
100
AcDbLine
62
7
6
CONTINUOUS
10
104.3527855822
20
107.6487961926
11
104.3527855822
21
107.3737961926
0
LINE
5
2FA
100
AcDbEntity
8
0
100
AcDbLine
62
7
6
CONTINUOUS
10
104.3527855822
20
97.6029628374
11
104.3527855822
21
97.4196295478
0
LINE
5
2FB
100
AcDbEntity
8
0
100
AcDbLine
62
7
6
CONTINUOUS
10
104.3527855822
20
92.6946295478
11
104.3527855822
21
92.3737961926
0
LINE
5
2FC
100
AcDbEntity
8
0
100
AcDbLine
62
7
6
CONTINUOUS
10
104.3545054337
20
103.3362961926
11
104.3545054337
21
101.9612961926
0
LINE
5
2FD
100
AcDbEntity
8
0
100
AcDbLine
62
7
6
CONTINUOUS
10
104.5868281075
20
92.4196295478
11
104.5868281075
21
92.6487961926
0
LINE
5
2FE
100
AcDbEntity
8
0
100
AcDbLine
62
7
6
CONTINUOUS
10
104.5868281075
20
97.4196295478
11
104.5868281075
21
97.6029628374
0
LINE
5
2FF
100
AcDbEntity
8
0
100
AcDbLine
62
7
6
CONTINUOUS
10
104.5868281075
20
107.4196295478
11
104.5868281075
21
107.6029628374
0
LINE
5
300
100
AcDbEntity
8
0
100
AcDbLine
62
7
6
CONTINUOUS
10
104.5868281075
20
111.7779629030
11
104.5868281075
21
113.3362961926
0
LINE
5
301
100
AcDbEntity
8
0
100
AcDbLine
62
7
6
CONTINUOUS
10
104.5868281075
20
116.9612961926
11
104.5868281075
21
117.2362961926
0
LINE
5
302
100
AcDbEntity
8
0
100
AcDbLine
62
7
6
CONTINUOUS
10
104.5868281075
20
122.4654628374
11
104.5868281075
21
122.5571295478
0
LINE
5
303
100
AcDbEntity
8
0
100
AcDbLine
62
7
6
CONTINUOUS
10
104.5868281075
20
127.3737961926
11
104.5868281075
21
127.5571295478
0
LINE
5
304
100
AcDbEntity
8
0
100
AcDbLine
62
7
6
CONTINUOUS
10
104.5868281075
20
132.7862961926
11
104.5868281075
21
133.0612961926
0
LINE
5
305
100
AcDbEntity
8
0
100
AcDbLine
62
7
6
CONTINUOUS
10
104.5885479590
20
101.6862961926
11
104.5885479590
21
103.3362961926
0
LINE
5
306
100
AcDbEntity
8
0
100
AcDbLine
62
9
6
CONTINUOUS
10
105.3903126878
20
87.4026250659
11
105.3903126878
21
137.7699673193
0
LINE
5
307
100
AcDbEntity
8
0
100
AcDbLine
62
7
6
CONTINUOUS
10
106.3903065955
20
87.4095820419
11
106.3903065955
21
137.7630103434
0
LINE
5
308
100
AcDbEntity
8
0
100
AcDbLine
62
7
6
CONTINUOUS
10
106.4496724005
20
137.7036445383
11
106.4496724005
21
128.7942247228
0
LINE
5
309
100
AcDbEntity
8
0
100
AcDbLine
62
7
6
CONTINUOUS
10
106.4496724005
20
126.3783676624
11
106.4496724005
21
122.7942247228
0
LINE
5
30A
100
AcDbEntity
8
0
100
AcDbLine
62
7
6
CONTINUOUS
10
106.4496724005
20
120.3783676624
11
106.4496724005
21
116.7942247228
0
LINE
5
30B
100
AcDbEntity
8
0
100
AcDbLine
62
7
6
CONTINUOUS
10
106.4496724005
20
114.3783676624
11
106.4496724005
21
110.7942247228
0
LINE
5
30C
100
AcDbEntity
8
0
100
AcDbLine
62
7
6
CONTINUOUS
10
106.4496724005
20
108.3783676624
11
106.4496724005
21
104.7942247228
0
LINE
5
30D
100
AcDbEntity
8
0
100
AcDbLine
62
7
6
CONTINUOUS
10
106.4496724005
20
102.3783676624
11
106.4496724005
21
98.7942247228
0
LINE
5
30E
100
AcDbEntity
8
0
100
AcDbLine
62
7
6
CONTINUOUS
10
106.4496724005
20
96.3783676624
11
106.4496724005
21
87.4689478469
0
LINE
5
30F
100
AcDbEntity
8
0
100
AcDbLine
62
7
6
CONTINUOUS
10
104.5400196024
20
122.1446294822
11
104.5868281075
21
122.4654628374
0
LINE
5
310
100
AcDbEntity
8
0
100
AcDbLine
62
7
6
CONTINUOUS
10
106.4496724005
20
128.7942247228
11
106.4080602902
21
128.5861438878
0
LINE
5
311
100
AcDbEntity
8
0
100
AcDbLine
62
7
6
CONTINUOUS
10
106.4496724005
20
122.7942247228
11
106.4080602902
21
122.5861438878
0
LINE
5
312
100
AcDbEntity
8
0
100
AcDbLine
62
7
6
CONTINUOUS
10
106.4496724005
20
116.7942247228
11
106.4080602902
21
116.5861438878
0
LINE
5
313
100
AcDbEntity
8
0
100
AcDbLine
62
7
6
CONTINUOUS
10
102.4336366167
20
107.8321295150
11
102.3868281075
21
107.6029628374
0
LINE
5
314
100
AcDbEntity
8
0
100
AcDbLine
62
7
6
CONTINUOUS
10
103.7442748853
20
112.1446294822
11
103.7910833904
21
112.3737961926
0
LINE
5
315
100
AcDbEntity
8
0
100
AcDbLine
62
7
6
CONTINUOUS
10
103.7442748853
20
107.1446294822
11
103.7910833904
21
107.3737961926
0
LINE
5
316
100
AcDbEntity
8
0
100
AcDbLine
62
7
6
CONTINUOUS
10
102.4336366167
20
97.8779628702
11
102.3868281075
21
97.6487961926
0
LINE
5
317
100
AcDbEntity
8
0
100
AcDbLine
62
7
6
CONTINUOUS
10
104.5400196024
20
107.1904629030
11
104.5868281075
21
107.4196295478
0
LINE
5
318
100
AcDbEntity
8
0
100
AcDbLine
62
7
6
CONTINUOUS
10
102.6208706656
20
112.6487961926
11
102.6676791706
21
112.8321295150
0
LINE
5
319
100
AcDbEntity
8
0
100
AcDbLine
62
7
6
CONTINUOUS
10
103.5570408651
20
112.3737961926
11
103.5102323600
21
112.1904629030
0
LINE
5
31A
100
AcDbEntity
8
0
100
AcDbLine
62
7
6
CONTINUOUS
10
102.6208706656
20
107.6487961926
11
102.6676791706
21
107.7862961926
0
LINE
5
31B
100
AcDbEntity
8
0
100
AcDbLine
62
7
6
CONTINUOUS
10
104.4464025923
20
121.9612961926
11
104.5400196024
21
122.1446294822
0
LINE
5
31C
100
AcDbEntity
8
0
100
AcDbLine
62
7
6
CONTINUOUS
10
103.3698068449
20
122.1446294822
11
103.2761898347
21
122.0071294822
0
LINE
5
31D
100
AcDbEntity
8
0
100
AcDbLine
62
7
6
CONTINUOUS
10
104.3059770772
20
122.1904629030
11
104.2123600670
21
122.0529629030
0
LINE
5
31E
100
AcDbEntity
8
0
100
AcDbLine
62
7
6
CONTINUOUS
10
104.2591685721
20
126.7321294822
11
104.4464025923
21
126.9154629030
0
LINE
5
31F
100
AcDbEntity
8
0
100
AcDbLine
62
7
6
CONTINUOUS
10
102.7144876757
20
122.9696295150
11
102.8081047186
21
123.0612961926
0
POLYLINE
5
320
100
AcDbEntity
8
0
100
AcDb2dPolyline
62
7
6
CONTINUOUS
66
1
70
0
0
VERTEX
5
321
100
AcDbEntity
8
0
100
AcDbVertex
62
7
6
CONTINUOUS
100
AcDb2dVertex
10
178.3204992342
20
86.4026311583
0
VERTEX
5
322
100
AcDbEntity
8
0
100
AcDbVertex
62
7
6
CONTINUOUS
100
AcDb2dVertex
10
178.6263665649
20
86.4505610477
0
VERTEX
5
323
100
AcDbEntity
8
0
100
AcDbVertex
62
7
6
CONTINUOUS
100
AcDb2dVertex
10
178.9061215593
20
86.5920556736
0
VERTEX
5
324
100
AcDbEntity
8
0
100
AcDbVertex
62
7
6
CONTINUOUS
100
AcDb2dVertex
10
179.1283160397
20
86.8132116110
0
VERTEX
5
325
100
AcDbEntity
8
0
100
AcDbVertex
62
7
6
CONTINUOUS
100
AcDb2dVertex
10
179.2712338343
20
87.0926503027
0
VERTEX
5
326
100
AcDbEntity
8
0
100
AcDbVertex
62
7
6
CONTINUOUS
100
AcDb2dVertex
10
179.3204931418
20
87.4026250659
0
SEQEND
5
327
100
AcDbEntity
8
0
0
POLYLINE
5
328
100
AcDbEntity
8
0
100
AcDb2dPolyline
62
7
6
CONTINUOUS
66
1
70
0
0
VERTEX
5
329
100
AcDbEntity
8
0
100
AcDbVertex
62
7
6
CONTINUOUS
100
AcDb2dVertex
10
165.3239899069
20
86.4689539392
0
VERTEX
5
32A
100
AcDbEntity
8
0
100
AcDbVertex
62
7
6
CONTINUOUS
100
AcDb2dVertex
10
165.6298572375
20
86.5168838286
0
VERTEX
5
32B
100
AcDbEntity
8
0
100
AcDbVertex
62
7
6
CONTINUOUS
100
AcDb2dVertex
10
165.9096122320
20
86.6583784545
0
VERTEX
5
32C
100
AcDbEntity
8
0
100
AcDbVertex
62
7
6
CONTINUOUS
100
AcDb2dVertex
10
166.1318067124
20
86.8795343920
0
VERTEX
5
32D
100
AcDbEntity
8
0
100
AcDbVertex
62
7
6
CONTINUOUS
100
AcDb2dVertex
10
166.2747245069
20
87.1589730837
0
VERTEX
5
32E
100
AcDbEntity
8
0
100
AcDbVertex
62
7
6
CONTINUOUS
100
AcDb2dVertex
10
166.3239838145
20
87.4689478469
0
SEQEND
5
32F
100
AcDbEntity
8
0
0
POLYLINE
5
330
100
AcDbEntity
8
0
100
AcDb2dPolyline
62
7
6
CONTINUOUS
66
1
70
0
0
VERTEX
5
331
100
AcDbEntity
8
0
100
AcDbVertex
62
7
6
CONTINUOUS
100
AcDb2dVertex
10
107.4496663082
20
86.4689539392
0
VERTEX
5
332
100
AcDbEntity
8
0
100
AcDbVertex
62
7
6
CONTINUOUS
100
AcDb2dVertex
10
107.1437989775
20
86.5168838286
0
VERTEX
5
333
100
AcDbEntity
8
0
100
AcDbVertex
62
7
6
CONTINUOUS
100
AcDb2dVertex
10
106.8640439830
20
86.6583784545
0
VERTEX
5
334
100
AcDbEntity
8
0
100
AcDbVertex
62
7
6
CONTINUOUS
100
AcDb2dVertex
10
106.6418495026
20
86.8795343920
0
VERTEX
5
335
100
AcDbEntity
8
0
100
AcDbVertex
62
7
6
CONTINUOUS
100
AcDb2dVertex
10
106.4989317081
20
87.1589730837
0
VERTEX
5
336
100
AcDbEntity
8
0
100
AcDbVertex
62
7
6
CONTINUOUS
100
AcDb2dVertex
10
106.4496724005
20
87.4689478469
0
SEQEND
5
337
100
AcDbEntity
8
0
0
POLYLINE
5
338
100
AcDbEntity
8
0
100
AcDb2dPolyline
62
7
6
CONTINUOUS
66
1
70
0
0
VERTEX
5
339
100
AcDbEntity
8
0
100
AcDbVertex
62
7
6
CONTINUOUS
100
AcDb2dVertex
10
94.4531569808
20
86.4026311583
0
VERTEX
5
33A
100
AcDbEntity
8
0
100
AcDbVertex
62
7
6
CONTINUOUS
100
AcDb2dVertex
10
94.1441441867
20
86.4515773560
0
VERTEX
5
33B
100
AcDbEntity
8
0
100
AcDbVertex
62
7
6
CONTINUOUS
100
AcDb2dVertex
10
93.8653792525
20
86.5936172975
0
VERTEX
5
33C
100
AcDbEntity
8
0
100
AcDbVertex
62
7
6
CONTINUOUS
100
AcDb2dVertex
10
93.6441492124
20
86.8148473376
0
VERTEX
5
33D
100
AcDbEntity
8
0
100
AcDbVertex
62
7
6
CONTINUOUS
100
AcDb2dVertex
10
93.5021092709
20
87.0936122718
0
VERTEX
5
33E
100
AcDbEntity
8
0
100
AcDbVertex
62
7
6
CONTINUOUS
100
AcDb2dVertex
10
93.4531630732
20
87.4026250659
0
SEQEND
5
33F
100
AcDbEntity
8
0
0
LINE
5
340
100
AcDbEntity
8
0
100
AcDbLine
62
7
6
CONTINUOUS
10
103.0421472439
20
91.9612961926
11
102.9017217287
21
92.0071294822
0
LINE
5
341
100
AcDbEntity
8
0
100
AcDbLine
62
7
6
CONTINUOUS
10
102.7612961808
20
91.8237961926
11
102.9953387388
21
91.7321294822
0
LINE
5
342
100
AcDbEntity
8
0
100
AcDbLine
62
7
6
CONTINUOUS
10
103.9315089056
20
96.9612961926
11
103.7910833904
21
97.0529629030
0
LINE
5
343
100
AcDbEntity
8
0
100
AcDbLine
62
7
6
CONTINUOUS
10
104.0251259157
20
98.0612961926
11
104.1655515620
21
97.9696295150
0
LINE
5
344
100
AcDbEntity
8
0
100
AcDbLine
62
7
6
CONTINUOUS
10
102.9485302338
20
96.9154629030
11
102.7612961808
21
97.0529629030
0
LINE
5
345
100
AcDbEntity
8
0
100
AcDbLine
62
7
6
CONTINUOUS
10
103.0889557489
20
98.1071295314
11
103.2761898347
21
97.9696295150
0
LINE
5
346
100
AcDbEntity
8
0
100
AcDbLine
62
7
6
CONTINUOUS
10
104.3995940873
20
98.0612961926
11
104.2591685721
21
98.1987961926
0
LINE
5
347
100
AcDbEntity
8
0
100
AcDbLine
62
7
6
CONTINUOUS
10
102.7612961808
20
107.0529629030
11
102.6676791706
21
107.1904629030
0
LINE
5
348
100
AcDbEntity
8
0
100
AcDbLine
62
7
6
CONTINUOUS
10
103.4166153499
20
107.9237961926
11
103.5102323600
21
107.7862961926
0
LINE
5
349
100
AcDbEntity
8
0
100
AcDbLine
62
7
6
CONTINUOUS
10
102.4336366167
20
107.1446294822
11
102.5740621441
21
106.9154629030
0
LINE
5
34A
100
AcDbEntity
8
0
100
AcDbLine
62
7
6
CONTINUOUS
10
103.5102323600
20
107.7862961926
11
103.5570408651
21
107.6487961926
0
LINE
5
34B
100
AcDbEntity
8
0
100
AcDbLine
62
7
6
CONTINUOUS
10
104.3059770772
20
107.7862961926
11
104.3527855822
21
107.6487961926
0
LINE
5
34C
100
AcDbEntity
8
0
100
AcDbLine
62
7
6
CONTINUOUS
10
102.6676791706
20
112.1904629030
11
102.6208706656
21
112.3737961926
0
LINE
5
34D
100
AcDbEntity
8
0
100
AcDbLine
62
7
6
CONTINUOUS
10
103.5102323600
20
112.8321295150
11
103.5570408651
21
112.6487961926
0
LINE
5
34E
100
AcDbEntity
8
0
100
AcDbLine
62
7
6
CONTINUOUS
10
102.3868281075
20
122.3279628374
11
102.4336366167
21
122.1446294822
0
LINE
5
34F
100
AcDbEntity
8
0
100
AcDbLine
62
7
6
CONTINUOUS
10
103.7910833904
20
107.6029628374
11
103.7442748853
21
107.8321295150
0
LINE
5
350
100
AcDbEntity
8
0
100
AcDbLine
62
7
6
CONTINUOUS
10
104.5868281075
20
107.6029628374
11
104.5400196024
21
107.8321295150
0
LINE
5
351
100
AcDbEntity
8
0
100
AcDbLine
62
7
6
CONTINUOUS
10
103.7910833904
20
112.6487961926
11
103.7442748853
21
112.8779628702
0
LINE
5
352
100
AcDbEntity
8
0
100
AcDbLine
62
7
6
CONTINUOUS
10
102.6676791706
20
122.1446294822
11
102.6208706656
21
122.3737961926
0
LINE
5
353
100
AcDbEntity
8
0
100
AcDbLine
62
7
6
CONTINUOUS
10
106.4080602902
20
96.5864484975
11
106.4496724005
21
96.3783676624
0
LINE
5
354
100
AcDbEntity
8
0
100
AcDbLine
62
7
6
CONTINUOUS
10
106.4080602902
20
102.5864484975
11
106.4496724005
21
102.3783676624
0
LINE
5
355
100
AcDbEntity
8
0
100
AcDbLine
62
7
6
CONTINUOUS
10
106.4080602902
20
108.5864484975
11
106.4496724005
21
108.3783676624
0
LINE
5
356
100
AcDbEntity
8
0
100
AcDbLine
62
7
6
CONTINUOUS
10
104.5868281075
20
122.5571295478
11
104.5400196024
21
122.8779628702
0
LINE
5
357
100
AcDbEntity
8
0
100
AcDbLine
62
9
6
CONTINUOUS
10
107.4496663082
20
138.7036384460
11
107.4496663082
21
128.8116188582
0
LINE
5
358
100
AcDbEntity
8
0
100
AcDbLine
62
9
6
CONTINUOUS
10
107.4496663082
20
126.3609735270
11
107.4496663082
21
122.8116188582
0
LINE
5
359
100
AcDbEntity
8
0
100
AcDbLine
62
9
6
CONTINUOUS
10
107.4496663082
20
120.3609735270
11
107.4496663082
21
116.8116188582
0
LINE
5
35A
100
AcDbEntity
8
0
100
AcDbLine
62
9
6
CONTINUOUS
10
107.4496663082
20
114.3609735270
11
107.4496663082
21
110.8116188582
0
LINE
5
35B
100
AcDbEntity
8
0
100
AcDbLine
62
9
6
CONTINUOUS
10
107.4496663082
20
108.3609735270
11
107.4496663082
21
104.8116188582
0
LINE
5
35C
100
AcDbEntity
8
0
100
AcDbLine
62
9
6
CONTINUOUS
10
107.4496663082
20
102.3609735270
11
107.4496663082
21
98.8116188582
0
LINE
5
35D
100
AcDbEntity
8
0
100
AcDbLine
62
9
6
CONTINUOUS
10
107.4496663082
20
86.4689539392
11
107.4496663082
21
96.3609735270
0
LINE
5
35E
100
AcDbEntity
8
0
100
AcDbLine
62
7
6
CONTINUOUS
10
107.8868281075
20
128.8116188582
11
107.8868281075
21
126.3609735270
0
LINE
5
35F
100
AcDbEntity
8
0
100
AcDbLine
62
7
6
CONTINUOUS
10
107.8868281075
20
122.8116188582
11
107.8868281075
21
120.3609735270
0
LINE
5
360
100
AcDbEntity
8
0
100
AcDbLine
62
7
6
CONTINUOUS
10
107.8868281075
20
116.8116188582
11
107.8868281075
21
114.3609735270
0
LINE
5
361
100
AcDbEntity
8
0
100
AcDbLine
62
7
6
CONTINUOUS
10
107.8868281075
20
110.8116188582
11
107.8868281075
21
108.3609735270
0
LINE
5
362
100
AcDbEntity
8
0
100
AcDbLine
62
7
6
CONTINUOUS
10
107.8868281075
20
104.8116188582
11
107.8868281075
21
102.3609735270
0
LINE
5
363
100
AcDbEntity
8
0
100
AcDbLine
62
7
6
CONTINUOUS
10
107.8868281075
20
98.8116188582
11
107.8868281075
21
96.3609735270
0
LINE
5
364
100
AcDbEntity
8
0
100
AcDbLine
62
7
6
CONTINUOUS
10
106.4496724005
20
110.7942247228
11
106.4080602902
21
110.5861438878
0
LINE
5
365
100
AcDbEntity
8
0
100
AcDbLine
62
7
6
CONTINUOUS
10
106.4496724005
20
104.7942247228
11
106.4080602902
21
104.5861438878
0
LINE
5
366
100
AcDbEntity
8
0
100
AcDbLine
62
7
6
CONTINUOUS
10
106.4496724005
20
98.7942247228
11
106.4080602902
21
98.5861438878
0
LINE
5
367
100
AcDbEntity
8
0
100
AcDbLine
62
7
6
CONTINUOUS
10
102.4336366167
20
92.8321295150
11
102.3868281075
21
92.6029628374
0
LINE
5
368
100
AcDbEntity
8
0
100
AcDbLine
62
7
6
CONTINUOUS
10
103.2293813297
20
92.8779628702
11
103.1825727591
21
92.6487961926
0
LINE
5
369
100
AcDbEntity
8
0
100
AcDbLine
62
7
6
CONTINUOUS
10
104.5400196024
20
97.1904629030
11
104.5868281075
21
97.4196295478
0
LINE
5
36A
100
AcDbEntity
8
0
100
AcDbLine
62
7
6
CONTINUOUS
10
104.5400196024
20
92.1904629030
11
104.5868281075
21
92.4196295478
0
LINE
5
36B
100
AcDbEntity
8
0
100
AcDbLine
62
7
6
CONTINUOUS
10
102.6208706656
20
97.6029628374
11
102.6676791706
21
97.7862961926
0
LINE
5
36C
100
AcDbEntity
8
0
100
AcDbLine
62
7
6
CONTINUOUS
10
103.4166153499
20
97.4196295478
11
103.3698068449
21
97.2362961926
0
LINE
5
36D
100
AcDbEntity
8
0
100
AcDbLine
62
7
6
CONTINUOUS
10
103.6038493701
20
97.6029628374
11
103.6506578752
21
97.7862961926
0
LINE
5
36E
100
AcDbEntity
8
0
100
AcDbLine
62
7
6
CONTINUOUS
10
104.3527855822
20
97.4196295478
11
104.3059770772
21
97.2362961926
0
LINE
5
36F
100
AcDbEntity
8
0
100
AcDbLine
62
7
6
CONTINUOUS
10
103.5570408651
20
107.3279628374
11
103.5102323600
21
107.1904629030
0
LINE
5
370
100
AcDbEntity
8
0
100
AcDbLine
62
7
6
CONTINUOUS
10
104.3527855822
20
107.3737961926
11
104.3059770772
21
107.2362961926
0
LINE
5
371
100
AcDbEntity
8
0
100
AcDbLine
62
7
6
CONTINUOUS
10
102.5740621441
20
113.1071295314
11
102.4336366167
21
112.8779628702
0
LINE
5
372
100
AcDbEntity
8
0
100
AcDbLine
62
7
6
CONTINUOUS
10
103.6038493701
20
111.9154629030
11
103.7442748853
21
112.1446294822
0
LINE
5
373
100
AcDbEntity
8
0
100
AcDbLine
62
7
6
CONTINUOUS
10
102.5740621441
20
108.0612961926
11
102.4336366167
21
107.8321295150
0
LINE
5
374
100
AcDbEntity
8
0
100
AcDbLine
62
7
6
CONTINUOUS
10
102.6676791706
20
112.8321295150
11
102.7612961808
21
112.9696295150
0
LINE
5
375
100
AcDbEntity
8
0
100
AcDbLine
62
7
6
CONTINUOUS
10
103.5102323600
20
112.1904629030
11
103.4166153499
21
112.0529629030
0
LINE
5
376
100
AcDbEntity
8
0
100
AcDbLine
62
7
6
CONTINUOUS
10
104.2591685721
20
121.7779629030
11
104.4464025923
21
121.9612961926
0
LINE
5
377
100
AcDbEntity
8
0
100
AcDbLine
62
7
6
CONTINUOUS
10
104.2123600670
20
127.0529629030
11
104.0719345519
21
126.9612961926
0
LINE
5
378
100
AcDbEntity
8
0
100
AcDbLine
62
7
6
CONTINUOUS
10
102.7612961808
20
123.2904628579
11
102.6208706656
21
123.1987961926
0
POLYLINE
5
379
100
AcDbEntity
8
0
100
AcDb2dPolyline
62
7
6
CONTINUOUS
66
1
70
0
0
VERTEX
5
37A
100
AcDbEntity
8
0
100
AcDbVertex
62
7
6
CONTINUOUS
100
AcDb2dVertex
10
158.4054059610
20
86.5038606660
0
VERTEX
5
37B
100
AcDbEntity
8
0
100
AcDbVertex
62
7
6
CONTINUOUS
100
AcDb2dVertex
10
158.7153807242
20
86.5531199736
0
VERTEX
5
37C
100
AcDbEntity
8
0
100
AcDbVertex
62
7
6
CONTINUOUS
100
AcDb2dVertex
10
158.9948194159
20
86.6960377681
0
VERTEX
5
37D
100
AcDbEntity
8
0
100
AcDbVertex
62
7
6
CONTINUOUS
100
AcDb2dVertex
10
159.2159753534
20
86.9182322486
0
VERTEX
5
37E
100
AcDbEntity
8
0
100
AcDbVertex
62
7
6
CONTINUOUS
100
AcDb2dVertex
10
159.3574699793
20
87.1979872430
0
VERTEX
5
37F
100
AcDbEntity
8
0
100
AcDbVertex
62
7
6
CONTINUOUS
100
AcDb2dVertex
10
159.4053998686
20
87.5038545737
0
SEQEND
5
380
100
AcDbEntity
8
0
0
POLYLINE
5
381
100
AcDbEntity
8
0
100
AcDb2dPolyline
62
7
6
CONTINUOUS
66
1
70
0
0
VERTEX
5
382
100
AcDbEntity
8
0
100
AcDbVertex
62
7
6
CONTINUOUS
100
AcDb2dVertex
10
114.3682502540
20
86.5038606660
0
VERTEX
5
383
100
AcDbEntity
8
0
100
AcDbVertex
62
7
6
CONTINUOUS
100
AcDb2dVertex
10
114.0592374599
20
86.5528068637
0
VERTEX
5
384
100
AcDbEntity
8
0
100
AcDbVertex
62
7
6
CONTINUOUS
100
AcDb2dVertex
10
113.7804725257
20
86.6948468052
0
VERTEX
5
385
100
AcDbEntity
8
0
100
AcDbVertex
62
7
6
CONTINUOUS
100
AcDb2dVertex
10
113.5592424856
20
86.9160768454
0
VERTEX
5
386
100
AcDbEntity
8
0
100
AcDbVertex
62
7
6
CONTINUOUS
100
AcDb2dVertex
10
113.4172025440
20
87.1948417796
0
VERTEX
5
387
100
AcDbEntity
8
0
100
AcDbVertex
62
7
6
CONTINUOUS
100
AcDb2dVertex
10
113.3682563464
20
87.5038545737
0
SEQEND
5
388
100
AcDbEntity
8
0
0
LINE
5
389
100
AcDbEntity
8
0
100
AcDbLine
62
7
6
CONTINUOUS
10
103.8378918954
20
91.9612961926
11
103.6974663803
21
92.0071294822
0
LINE
5
38A
100
AcDbEntity
8
0
100
AcDbLine
62
7
6
CONTINUOUS
10
103.9315089056
20
93.1071295314
11
104.0719345519
21
93.0612961926
0
LINE
5
38B
100
AcDbEntity
8
0
100
AcDbLine
62
7
6
CONTINUOUS
10
104.2123600670
20
93.2446295232
11
103.9783174106
21
93.3362961926
0
LINE
5
38C
100
AcDbEntity
8
0
100
AcDbLine
62
7
6
CONTINUOUS
10
102.7144876757
20
96.7779629030
11
102.9485302338
21
96.6862961926
0
LINE
5
38D
100
AcDbEntity
8
0
100
AcDbLine
62
7
6
CONTINUOUS
10
103.6974663803
20
96.8237961926
11
103.8847004005
21
96.7321294822
0
LINE
5
38E
100
AcDbEntity
8
0
100
AcDbLine
62
7
6
CONTINUOUS
10
103.7442748853
20
107.8321295150
11
103.5570408651
21
108.1071295314
0
LINE
5
38F
100
AcDbEntity
8
0
100
AcDbLine
62
7
6
CONTINUOUS
10
104.2123600670
20
107.9237961926
11
104.3059770772
21
107.7862961926
0
LINE
5
390
100
AcDbEntity
8
0
100
AcDbLine
62
7
6
CONTINUOUS
10
102.7612961808
20
112.0529629030
11
102.6676791706
21
112.1904629030
0
LINE
5
391
100
AcDbEntity
8
0
100
AcDbLine
62
7
6
CONTINUOUS
10
104.5400196024
20
107.8321295150
11
104.3995940873
21
108.0612961926
0
LINE
5
392
100
AcDbEntity
8
0
100
AcDbLine
62
7
6
CONTINUOUS
10
102.4336366167
20
112.1446294822
11
102.5740621441
21
111.9154629030
0
LINE
5
393
100
AcDbEntity
8
0
100
AcDbLine
62
7
6
CONTINUOUS
10
103.7442748853
20
112.8779628702
11
103.6038493701
21
113.1071295314
0
LINE
5
394
100
AcDbEntity
8
0
100
AcDbLine
62
7
6
CONTINUOUS
10
103.6974663803
20
122.1446294822
11
103.6038493701
21
122.4196295478
0
LINE
5
395
100
AcDbEntity
8
0
100
AcDbLine
62
7
6
CONTINUOUS
10
104.3059770772
20
122.8321295150
11
104.3527855822
21
122.6029628374
0
LINE
5
396
100
AcDbEntity
8
0
100
AcDbLine
62
7
6
CONTINUOUS
10
104.3059770772
20
127.8321295150
11
104.3527855822
21
127.6029628374
0
LINE
5
397
100
AcDbEntity
8
0
100
AcDbLine
62
7
6
CONTINUOUS
10
106.4080602902
20
114.5864484975
11
106.4496724005
21
114.3783676624
0
LINE
5
398
100
AcDbEntity
8
0
100
AcDbLine
62
7
6
CONTINUOUS
10
106.4080602902
20
120.5864484975
11
106.4496724005
21
120.3783676624
0
LINE
5
399
100
AcDbEntity
8
0
100
AcDbLine
62
7
6
CONTINUOUS
10
106.4080602902
20
126.5864484975
11
106.4496724005
21
126.3783676624
0
LINE
5
39A
100
AcDbEntity
8
0
100
AcDbLine
62
7
6
CONTINUOUS
10
104.5868281075
20
127.5571295478
11
104.5400196024
21
127.8779628702
0
LINE
5
39B
100
AcDbEntity
8
0
100
AcDbLine
62
9
6
CONTINUOUS
10
112.3403126878
20
87.4689478469
11
112.3403126878
21
137.7036445383
0
LINE
5
39C
100
AcDbEntity
8
0
100
AcDbLine
62
7
6
CONTINUOUS
10
102.6208706656
20
92.6487961926
11
102.6676791706
21
92.7862961926
0
LINE
5
39D
100
AcDbEntity
8
0
100
AcDbLine
62
7
6
CONTINUOUS
10
103.4166153499
20
92.6946295478
11
103.4634238550
21
92.8321295150
0
LINE
5
39E
100
AcDbEntity
8
0
100
AcDbLine
62
7
6
CONTINUOUS
10
104.3527855822
20
92.3737961926
11
104.3059770772
21
92.2362961926
0
LINE
5
39F
100
AcDbEntity
8
0
100
AcDbLine
62
7
6
CONTINUOUS
10
102.6676791706
20
97.7862961926
11
102.7612961808
21
97.9696295150
0
LINE
5
3A0
100
AcDbEntity
8
0
100
AcDbLine
62
7
6
CONTINUOUS
10
103.6038493701
20
106.9154629030
11
103.7442748853
21
107.1446294822
0
LINE
5
3A1
100
AcDbEntity
8
0
100
AcDbLine
62
7
6
CONTINUOUS
10
104.3995940873
20
106.9612961926
11
104.5400196024
21
107.1904629030
0
LINE
5
3A2
100
AcDbEntity
8
0
100
AcDbLine
62
7
6
CONTINUOUS
10
102.6676791706
20
107.7862961926
11
102.7612961808
21
107.9237961926
0
LINE
5
3A3
100
AcDbEntity
8
0
100
AcDbLine
62
7
6
CONTINUOUS
10
103.5102323600
20
107.1904629030
11
103.4166153499
21
107.0529629030
0
LINE
5
3A4
100
AcDbEntity
8
0
100
AcDbLine
62
7
6
CONTINUOUS
10
104.3059770772
20
107.2362961926
11
104.2123600670
21
107.0987961926
0
LINE
5
3A5
100
AcDbEntity
8
0
100
AcDbLine
62
7
6
CONTINUOUS
10
103.2761898347
20
121.7321294822
11
103.4166153499
21
121.8237961926
0
LINE
5
3A6
100
AcDbEntity
8
0
100
AcDbLine
62
7
6
CONTINUOUS
10
104.2123600670
20
122.0529629030
11
104.0719345519
21
121.9612961926
0
LINE
5
3A7
100
AcDbEntity
8
0
100
AcDbLine
62
7
6
CONTINUOUS
10
102.8081047186
20
123.0612961926
11
102.9017217287
21
123.1071295314
0
LINE
5
3A8
100
AcDbEntity
8
0
100
AcDbLine
62
7
6
CONTINUOUS
10
178.3868341998
20
86.3362961926
11
94.3868220152
21
86.3362961926
0
LINE
5
3A9
100
AcDbEntity
8
0
100
AcDbLine
62
7
6
CONTINUOUS
10
141.5118281075
20
86.3501681258
11
131.2618281075
21
86.3501681258
0
LINE
5
3AA
100
AcDbEntity
8
0
100
AcDbLine
62
7
6
CONTINUOUS
10
131.2618281075
20
86.3660506865
11
141.5118281075
21
86.3660506865
0
LINE
5
3AB
100
AcDbEntity
8
0
100
AcDbLine
62
7
6
CONTINUOUS
10
178.3204992342
20
86.4026311583
11
167.3856087456
21
86.4026311583
0
LINE
5
3AC
100
AcDbEntity
8
0
100
AcDbLine
62
7
6
CONTINUOUS
10
105.3926547972
20
86.4026311583
11
94.4531569808
21
86.4026311583
0
LINE
5
3AD
100
AcDbEntity
8
0
100
AcDbLine
62
7
6
CONTINUOUS
10
165.3239899069
20
86.4689539392
11
160.4335665310
21
86.4689539392
0
LINE
5
3AE
100
AcDbEntity
8
0
100
AcDbLine
62
7
6
CONTINUOUS
10
112.3426547996
20
86.4689539392
11
107.4496663082
21
86.4689539392
0
LINE
5
3AF
100
AcDbEntity
8
0
100
AcDbLine
62
7
6
CONTINUOUS
10
158.4054059610
20
86.5038606660
11
114.3682502540
21
86.5038606660
0
LINE
5
3B0
100
AcDbEntity
8
0
100
AcDbLine
62
9
6
CONTINUOUS
10
179.3204931418
20
87.4026250659
11
167.3833435272
21
87.4026250659
0
LINE
5
3B1
100
AcDbEntity
8
0
100
AcDbLine
62
9
6
CONTINUOUS
10
105.3903126878
20
87.4026250659
11
93.4531630732
21
87.4026250659
0
LINE
5
3B2
100
AcDbEntity
8
0
100
AcDbLine
62
9
6
CONTINUOUS
10
166.3239838145
20
87.4689478469
11
160.4333435272
21
87.4689478469
0
LINE
5
3B3
100
AcDbEntity
8
0
100
AcDbLine
62
9
6
CONTINUOUS
10
112.3403126878
20
87.4689478469
11
106.4496724005
21
87.4689478469
0
LINE
5
3B4
100
AcDbEntity
8
0
100
AcDbLine
62
9
6
CONTINUOUS
10
159.4053998686
20
87.5038545737
11
113.3682563464
21
87.5038545737
0
LINE
5
3B5
100
AcDbEntity
8
0
100
AcDbLine
62
7
6
CONTINUOUS
10
157.3042818431
20
87.9829040731
11
115.4693743719
21
87.9829040731
0
LINE
5
3B6
100
AcDbEntity
8
0
100
AcDbLine
62
7
6
CONTINUOUS
10
115.4868281075
20
88.0003578086
11
157.2868281075
21
88.0003578086
0
LINE
5
3B7
100
AcDbEntity
8
0
100
AcDbLine
62
7
6
CONTINUOUS
10
102.9953387388
20
91.7321294822
11
103.3229983398
21
91.6862961926
0
LINE
5
3B8
100
AcDbEntity
8
0
100
AcDbLine
62
7
6
CONTINUOUS
10
103.3229983398
20
91.9154629030
11
103.0421472439
21
91.9612961926
0
LINE
5
3B9
100
AcDbEntity
8
0
100
AcDbLine
62
7
6
CONTINUOUS
10
103.3229983398
20
98.2446295232
11
103.0889557489
21
98.3362961926
0
LINE
5
3BA
100
AcDbEntity
8
0
100
AcDbLine
62
7
6
CONTINUOUS
10
104.2591685721
20
98.1987961926
11
104.0251259157
21
98.2904628579
0
LINE
5
3BB
100
AcDbEntity
8
0
100
AcDbLine
62
7
6
CONTINUOUS
10
102.3885479590
20
102.6029628374
11
104.3545054337
21
101.6862961926
0
LINE
5
3BC
100
AcDbEntity
8
0
100
AcDbLine
62
7
6
CONTINUOUS
10
104.3545054337
20
101.9612961926
11
102.3885479590
21
102.8779628702
0
LINE
5
3BD
100
AcDbEntity
8
0
100
AcDbLine
62
7
6
CONTINUOUS
10
102.5740621441
20
106.9154629030
11
102.7612961808
21
106.7779629030
0
LINE
5
3BE
100
AcDbEntity
8
0
100
AcDbLine
62
7
6
CONTINUOUS
10
103.3229983398
20
108.0154628702
11
103.4166153499
21
107.9237961926
0
LINE
5
3BF
100
AcDbEntity
8
0
100
AcDbLine
62
7
6
CONTINUOUS
10
103.3698068449
20
113.0154628702
11
103.5102323600
21
112.8321295150
0
LINE
5
3C0
100
AcDbEntity
8
0
100
AcDbLine
62
7
6
CONTINUOUS
10
102.4336366167
20
122.1446294822
11
102.5272536391
21
121.9612961926
0
LINE
5
3C1
100
AcDbEntity
8
0
100
AcDbLine
62
7
6
CONTINUOUS
10
102.7144876757
20
122.0529629030
11
102.6676791706
21
122.1446294822
0
LINE
5
3C2
100
AcDbEntity
8
0
100
AcDbLine
62
7
6
CONTINUOUS
10
104.5400196024
20
122.8779628702
11
104.4464025923
21
123.0612961926
0
LINE
5
3C3
100
AcDbEntity
8
0
100
AcDbLine
62
7
6
CONTINUOUS
10
113.3403065955
20
87.4759048228
11
113.3403065955
21
137.6966875624
0
LINE
5
3C4
100
AcDbEntity
8
0
100
AcDbLine
62
7
6
CONTINUOUS
10
113.3682563464
20
137.6687378115
11
113.3682563464
21
87.5038545737
0
LINE
5
3C5
100
AcDbEntity
8
0
100
AcDbLine
62
9
6
CONTINUOUS
10
114.3682502540
20
86.5038606660
11
114.3682502540
21
138.6687317192
0
LINE
5
3C6
100
AcDbEntity
8
0
100
AcDbLine
62
7
6
CONTINUOUS
10
115.4693743719
20
87.9829040731
11
115.4693743719
21
137.1896883122
0
LINE
5
3C7
100
AcDbEntity
8
0
100
AcDbLine
62
7
6
CONTINUOUS
10
115.4868281075
20
88.0003578086
11
115.4868281075
21
137.1722345766
0
LINE
5
3C8
100
AcDbEntity
8
0
100
AcDbLine
62
7
6
CONTINUOUS
10
103.5570408651
20
98.0612961926
11
103.5102323600
21
97.9696295150
0
LINE
5
3C9
100
AcDbEntity
8
0
100
AcDbLine
62
7
6
CONTINUOUS
10
103.3698068449
20
97.2362961926
11
103.2761898347
21
97.0529629030
0
LINE
5
3CA
100
AcDbEntity
8
0
100
AcDbLine
62
7
6
CONTINUOUS
10
103.4634238550
20
96.9612961926
11
103.5102323600
21
97.0529629030
0
LINE
5
3CB
100
AcDbEntity
8
0
100
AcDbLine
62
7
6
CONTINUOUS
10
102.5740621441
20
98.1071295314
11
102.4336366167
21
97.8779628702
0
LINE
5
3CC
100
AcDbEntity
8
0
100
AcDbLine
62
7
6
CONTINUOUS
10
102.7612961808
20
113.2446295232
11
102.5740621441
21
113.1071295314
0
LINE
5
3CD
100
AcDbEntity
8
0
100
AcDbLine
62
7
6
CONTINUOUS
10
103.2761898347
20
122.0071294822
11
103.0889557489
21
121.9154629030
0
LINE
5
3CE
100
AcDbEntity
8
0
100
AcDbLine
62
7
6
CONTINUOUS
10
102.9017217287
20
123.3362961926
11
102.7612961808
21
123.2904628579
0
LINE
5
3CF
100
AcDbEntity
8
0
100
AcDbLine
62
7
6
CONTINUOUS
10
138.3868281075
20
89.8362961926
11
134.3868281075
21
89.8362961926
0
LINE
5
3D0
100
AcDbEntity
8
0
100
AcDbLine
62
7
6
CONTINUOUS
10
179.3868281075
20
91.0362961926
11
179.3372605554
21
91.0362961926
0
LINE
5
3D1
100
AcDbEntity
8
0
100
AcDbLine
62
7
6
CONTINUOUS
10
93.3868281075
20
91.0362961926
11
93.4363956596
21
91.0362961926
0
LINE
5
3D2
100
AcDbEntity
8
0
100
AcDbLine
62
7
6
CONTINUOUS
10
168.7485302338
20
91.1696296134
11
168.8889557489
21
91.1696296134
0
LINE
5
3D3
100
AcDbEntity
8
0
100
AcDbLine
62
7
6
CONTINUOUS
10
169.6847004005
20
91.2154627719
11
169.8251259157
21
91.2154627719
0
LINE
5
3D4
100
AcDbEntity
8
0
100
AcDbLine
62
7
6
CONTINUOUS
10
168.8889557489
20
91.3987961926
11
168.7485302338
21
91.3987961926
0
LINE
5
3D5
100
AcDbEntity
8
0
100
AcDbLine
62
7
6
CONTINUOUS
10
169.8251259157
20
91.4446296134
11
169.7315089056
21
91.4446296134
0
LINE
5
3D6
100
AcDbEntity
8
0
100
AcDbLine
62
7
6
CONTINUOUS
10
103.3229983398
20
91.6862961926
11
103.6506578752
21
91.6862961926
0
LINE
5
3D7
100
AcDbEntity
8
0
100
AcDbLine
62
7
6
CONTINUOUS
10
103.4166153499
20
91.9154629030
11
103.3229983398
21
91.9154629030
0
LINE
5
3D8
100
AcDbEntity
8
0
100
AcDbLine
62
7
6
CONTINUOUS
10
103.9315089056
20
91.9612961926
11
103.8378918954
21
91.9612961926
0
LINE
5
3D9
100
AcDbEntity
8
0
100
AcDbLine
62
7
6
CONTINUOUS
10
169.7315089056
20
92.5446294822
11
169.8251259157
21
92.5446294822
0
LINE
5
3DA
100
AcDbEntity
8
0
100
AcDbLine
62
7
6
CONTINUOUS
10
168.7485302338
20
92.5904629030
11
168.8889557489
21
92.5904629030
0
LINE
5
3DB
100
AcDbEntity
8
0
100
AcDbLine
62
7
6
CONTINUOUS
10
169.8251259157
20
92.7737961926
11
169.6847004005
21
92.7737961926
0
LINE
5
3DC
100
AcDbEntity
8
0
100
AcDbLine
62
7
6
CONTINUOUS
10
168.8889557489
20
92.8196295478
11
168.7485302338
21
92.8196295478
0
LINE
5
3DD
100
AcDbEntity
8
0
100
AcDbLine
62
7
6
CONTINUOUS
10
102.9017217287
20
106.9612961926
11
102.7612961808
21
107.0529629030
0
LINE
5
3DE
100
AcDbEntity
8
0
100
AcDbLine
62
7
6
CONTINUOUS
10
104.0719345519
20
108.0154628702
11
104.2123600670
21
107.9237961926
0
LINE
5
3DF
100
AcDbEntity
8
0
100
AcDbLine
62
7
6
CONTINUOUS
10
104.3995940873
20
108.0612961926
11
104.2123600670
21
108.1987961926
0
LINE
5
3E0
100
AcDbEntity
8
0
100
AcDbLine
62
7
6
CONTINUOUS
10
102.5740621441
20
111.9154629030
11
102.7612961808
21
111.7779629030
0
LINE
5
3E1
100
AcDbEntity
8
0
100
AcDbLine
62
7
6
CONTINUOUS
10
103.5102323600
20
122.0529629030
11
103.6506578752
21
121.8696294822
0
LINE
5
3E2
100
AcDbEntity
8
0
100
AcDbLine
62
7
6
CONTINUOUS
10
102.5272536391
20
121.9612961926
11
102.6208706656
21
121.8237961926
0
LINE
5
3E3
100
AcDbEntity
8
0
100
AcDbLine
62
7
6
CONTINUOUS
10
104.2123600670
20
122.9696295150
11
104.3059770772
21
122.8321295150
0
LINE
5
3E4
100
AcDbEntity
8
0
100
AcDbLine
62
7
6
CONTINUOUS
10
104.5400196024
20
127.8779628702
11
104.4464025923
21
128.0612961926
0
LINE
5
3E5
100
AcDbEntity
8
0
100
AcDbLine
62
7
6
CONTINUOUS
10
104.3995940873
20
96.9612961926
11
104.5400196024
21
97.1904629030
0
LINE
5
3E6
100
AcDbEntity
8
0
100
AcDbLine
62
7
6
CONTINUOUS
10
102.5740621441
20
93.0612961926
11
102.4336366167
21
92.8321295150
0
LINE
5
3E7
100
AcDbEntity
8
0
100
AcDbLine
62
7
6
CONTINUOUS
10
103.3698068449
20
93.1071295314
11
103.2293813297
21
92.8779628702
0
LINE
5
3E8
100
AcDbEntity
8
0
100
AcDbLine
62
7
6
CONTINUOUS
10
104.3995940873
20
91.9612961926
11
104.5400196024
21
92.1904629030
0
LINE
5
3E9
100
AcDbEntity
8
0
100
AcDbLine
62
7
6
CONTINUOUS
10
102.6676791706
20
92.7862961926
11
102.7612961808
21
92.9237961926
0
LINE
5
3EA
100
AcDbEntity
8
0
100
AcDbLine
62
7
6
CONTINUOUS
10
103.6506578752
20
97.7862961926
11
103.7910833904
21
97.9696295150
0
LINE
5
3EB
100
AcDbEntity
8
0
100
AcDbLine
62
7
6
CONTINUOUS
10
103.3229983398
20
96.7779629030
11
103.4634238550
21
96.9612961926
0
LINE
5
3EC
100
AcDbEntity
8
0
100
AcDbLine
62
7
6
CONTINUOUS
10
103.4166153499
20
107.0529629030
11
103.3229983398
21
106.9612961926
0
LINE
5
3ED
100
AcDbEntity
8
0
100
AcDbLine
62
7
6
CONTINUOUS
10
103.4634238550
20
106.7779629030
11
103.6038493701
21
106.9154629030
0
LINE
5
3EE
100
AcDbEntity
8
0
100
AcDbLine
62
7
6
CONTINUOUS
10
103.4166153499
20
111.7779629030
11
103.6038493701
21
111.9154629030
0
LINE
5
3EF
100
AcDbEntity
8
0
100
AcDbLine
62
7
6
CONTINUOUS
10
102.7612961808
20
108.1987961926
11
102.5740621441
21
108.0612961926
0
LINE
5
3F0
100
AcDbEntity
8
0
100
AcDbLine
62
7
6
CONTINUOUS
10
103.4166153499
20
112.0529629030
11
103.2761898347
21
111.9612961926
0
LINE
5
3F1
100
AcDbEntity
8
0
100
AcDbLine
62
7
6
CONTINUOUS
10
103.8378918954
20
93.1071295314
11
103.9315089056
21
93.1071295314
0
LINE
5
3F2
100
AcDbEntity
8
0
100
AcDbLine
62
7
6
CONTINUOUS
10
168.1868281075
20
93.1862961926
11
170.3868281075
21
93.1862961926
0
LINE
5
3F3
100
AcDbEntity
8
0
100
AcDbLine
62
7
6
CONTINUOUS
10
103.9783174106
20
93.3362961926
11
103.7910833904
21
93.3362961926
0
LINE
5
3F4
100
AcDbEntity
8
0
100
AcDbLine
62
7
6
CONTINUOUS
10
170.0123600670
20
93.4612961926
11
168.1868281075
21
93.4612961926
0
LINE
5
3F5
100
AcDbEntity
8
0
100
AcDbLine
62
7
6
CONTINUOUS
10
170.0591685721
20
93.7362961926
11
169.6847004005
21
93.7362961926
0
LINE
5
3F6
100
AcDbEntity
8
0
100
AcDbLine
62
7
6
CONTINUOUS
10
170.1527855822
20
96.1696296134
11
170.3868281075
21
96.1696296134
0
LINE
5
3F7
100
AcDbEntity
8
0
100
AcDbLine
62
7
6
CONTINUOUS
10
102.7612961808
20
106.7779629030
11
102.9953387388
21
106.6862961926
0
LINE
5
3F8
100
AcDbEntity
8
0
100
AcDbLine
62
7
6
CONTINUOUS
10
102.9017217287
20
111.9612961926
11
102.7612961808
21
112.0529629030
0
LINE
5
3F9
100
AcDbEntity
8
0
100
AcDbLine
62
7
6
CONTINUOUS
10
104.5868281075
20
117.2362961926
11
103.3229983398
21
118.3362961926
0
LINE
5
3FA
100
AcDbEntity
8
0
100
AcDbLine
62
7
6
CONTINUOUS
10
103.3229983398
20
118.0154628702
11
104.2123600670
21
117.2362961926
0
LINE
5
3FB
100
AcDbEntity
8
0
100
AcDbLine
62
7
6
CONTINUOUS
10
102.8081047186
20
121.9612961926
11
102.7144876757
21
122.0529629030
0
LINE
5
3FC
100
AcDbEntity
8
0
100
AcDbLine
62
7
6
CONTINUOUS
10
104.2123600670
20
127.9696295150
11
104.3059770772
21
127.8321295150
0
LINE
5
3FD
100
AcDbEntity
8
0
100
AcDbLine
62
7
6
CONTINUOUS
10
103.4634238550
20
92.8321295150
11
103.5570408651
21
92.9696295150
0
LINE
5
3FE
100
AcDbEntity
8
0
100
AcDbLine
62
7
6
CONTINUOUS
10
104.3059770772
20
92.2362961926
11
104.2123600670
21
92.0987961926
0
LINE
5
3FF
100
AcDbEntity
8
0
100
AcDbLine
62
7
6
CONTINUOUS
10
104.3059770772
20
97.2362961926
11
104.1655515620
21
97.0529629030
0
LINE
5
400
100
AcDbEntity
8
0
100
AcDbLine
62
7
6
CONTINUOUS
10
102.7144876757
20
98.2446295232
11
102.5740621441
21
98.1071295314
0
LINE
5
401
100
AcDbEntity
8
0
100
AcDbLine
62
7
6
CONTINUOUS
10
104.2123600670
20
106.8237961926
11
104.3995940873
21
106.9612961926
0
LINE
5
402
100
AcDbEntity
8
0
100
AcDbLine
62
7
6
CONTINUOUS
10
102.7612961808
20
107.9237961926
11
102.9017217287
21
108.0154628702
0
LINE
5
403
100
AcDbEntity
8
0
100
AcDbLine
62
7
6
CONTINUOUS
10
104.2123600670
20
107.0987961926
11
104.0719345519
21
107.0071294822
0
LINE
5
404
100
AcDbEntity
8
0
100
AcDbLine
62
7
6
CONTINUOUS
10
102.9485302338
20
113.3362961926
11
102.7612961808
21
113.2446295232
0
LINE
5
405
100
AcDbEntity
8
0
100
AcDbLine
62
7
6
CONTINUOUS
10
102.7612961808
20
112.9696295150
11
102.9485302338
21
113.0612961926
0
LINE
5
406
100
AcDbEntity
8
0
100
AcDbLine
62
7
6
CONTINUOUS
10
103.6506578752
20
91.6862961926
11
103.9783174106
21
91.7321294822
0
LINE
5
407
100
AcDbEntity
8
0
100
AcDbLine
62
7
6
CONTINUOUS
10
169.1229983398
20
102.8196295478
11
168.7953387388
21
102.7737961926
0
LINE
5
408
100
AcDbEntity
8
0
100
AcDbLine
62
7
6
CONTINUOUS
10
165.3239899069
20
96.3609735270
11
164.8868281075
21
96.3609735270
0
LINE
5
409
100
AcDbEntity
8
0
100
AcDbLine
62
7
6
CONTINUOUS
10
107.4496663082
20
96.3609735270
11
107.8868281075
21
96.3609735270
0
LINE
5
40A
100
AcDbEntity
8
0
100
AcDbLine
62
9
6
CONTINUOUS
10
166.3655959248
20
96.5864484975
11
164.8868281075
21
96.5864484975
0
LINE
5
40B
100
AcDbEntity
8
0
100
AcDbLine
62
9
6
CONTINUOUS
10
106.4080602902
20
96.5864484975
11
107.8868281075
21
96.5864484975
0
LINE
5
40C
100
AcDbEntity
8
0
100
AcDbLine
62
7
6
CONTINUOUS
10
102.9485302338
20
96.6862961926
11
103.0889557489
21
96.6862961926
0
LINE
5
40D
100
AcDbEntity
8
0
100
AcDbLine
62
7
6
CONTINUOUS
10
103.8847004005
20
96.7321294822
11
104.0251259157
21
96.7321294822
0
LINE
5
40E
100
AcDbEntity
8
0
100
AcDbLine
62
7
6
CONTINUOUS
10
103.0889557489
20
96.9154629030
11
102.9485302338
21
96.9154629030
0
LINE
5
40F
100
AcDbEntity
8
0
100
AcDbLine
62
7
6
CONTINUOUS
10
104.0251259157
20
96.9612961926
11
103.9315089056
21
96.9612961926
0
LINE
5
410
100
AcDbEntity
8
0
100
AcDbLine
62
7
6
CONTINUOUS
10
170.3868281075
20
97.8196295478
11
170.1527855822
21
97.8196295478
0
LINE
5
411
100
AcDbEntity
8
0
100
AcDbLine
62
7
6
CONTINUOUS
10
103.9315089056
20
98.0612961926
11
104.0251259157
21
98.0612961926
0
LINE
5
412
100
AcDbEntity
8
0
100
AcDbLine
62
7
6
CONTINUOUS
10
102.9485302338
20
98.1071295314
11
103.0889557489
21
98.1071295314
0
LINE
5
413
100
AcDbEntity
8
0
100
AcDbLine
62
7
6
CONTINUOUS
10
168.1868281075
20
98.1862961926
11
170.3868281075
21
98.1862961926
0
LINE
5
414
100
AcDbEntity
8
0
100
AcDbLine
62
7
6
CONTINUOUS
10
104.0251259157
20
98.2904628579
11
103.8847004005
21
98.2904628579
0
LINE
5
415
100
AcDbEntity
8
0
100
AcDbLine
62
7
6
CONTINUOUS
10
103.0889557489
20
98.3362961926
11
102.9485302338
21
98.3362961926
0
LINE
5
416
100
AcDbEntity
8
0
100
AcDbLine
62
7
6
CONTINUOUS
10
170.0123600670
20
98.4612961926
11
168.1868281075
21
98.4612961926
0
LINE
5
417
100
AcDbEntity
8
0
100
AcDbLine
62
9
6
CONTINUOUS
10
166.3655959248
20
98.5861438878
11
164.8868281075
21
98.5861438878
0
LINE
5
418
100
AcDbEntity
8
0
100
AcDbLine
62
9
6
CONTINUOUS
10
106.4080602902
20
98.5861438878
11
107.8868281075
21
98.5861438878
0
LINE
5
419
100
AcDbEntity
8
0
100
AcDbLine
62
7
6
CONTINUOUS
10
170.0591685721
20
98.7362961926
11
169.6847004005
21
98.7362961926
0
LINE
5
41A
100
AcDbEntity
8
0
100
AcDbLine
62
7
6
CONTINUOUS
10
165.3239899069
20
98.8116188582
11
164.8868281075
21
98.8116188582
0
LINE
5
41B
100
AcDbEntity
8
0
100
AcDbLine
62
7
6
CONTINUOUS
10
107.4496663082
20
98.8116188582
11
107.8868281075
21
98.8116188582
0
LINE
5
41C
100
AcDbEntity
8
0
100
AcDbLine
62
7
6
CONTINUOUS
10
103.0421472439
20
106.9154629030
11
102.9017217287
21
106.9612961926
0
LINE
5
41D
100
AcDbEntity
8
0
100
AcDbLine
62
7
6
CONTINUOUS
10
103.1825727591
20
108.0612961926
11
103.3229983398
21
108.0154628702
0
LINE
5
41E
100
AcDbEntity
8
0
100
AcDbLine
62
7
6
CONTINUOUS
10
103.9315089056
20
108.0612961926
11
104.0719345519
21
108.0154628702
0
LINE
5
41F
100
AcDbEntity
8
0
100
AcDbLine
62
7
6
CONTINUOUS
10
104.2123600670
20
108.1987961926
11
103.9783174106
21
108.2904628579
0
LINE
5
420
100
AcDbEntity
8
0
100
AcDbLine
62
7
6
CONTINUOUS
10
102.7612961808
20
111.7779629030
11
102.9953387388
21
111.6862961926
0
LINE
5
421
100
AcDbEntity
8
0
100
AcDbLine
62
7
6
CONTINUOUS
10
103.7910833904
20
122.0529629030
11
103.6974663803
21
122.1446294822
0
LINE
5
422
100
AcDbEntity
8
0
100
AcDbLine
62
7
6
CONTINUOUS
10
104.4464025923
20
123.0612961926
11
104.2591685721
21
123.2446295232
0
LINE
5
423
100
AcDbEntity
8
0
100
AcDbLine
62
7
6
CONTINUOUS
10
103.7910833904
20
127.0529629030
11
102.6208706656
21
128.3362961926
0
LINE
5
424
100
AcDbEntity
8
0
100
AcDbLine
62
7
6
CONTINUOUS
10
102.6208706656
20
127.9696295150
11
103.6506578752
21
126.8237961926
0
LINE
5
425
100
AcDbEntity
8
0
100
AcDbLine
62
9
6
CONTINUOUS
10
93.4531630732
20
87.4026250659
11
93.3868281075
21
87.3362901003
0
LINE
5
426
100
AcDbEntity
8
0
100
AcDbLine
62
9
6
CONTINUOUS
10
94.4531569808
20
86.4026311583
11
94.3868220152
21
86.3362961926
0
LINE
5
427
100
AcDbEntity
8
0
100
AcDbLine
62
7
6
CONTINUOUS
10
103.6974663803
20
98.1987961926
11
103.5570408651
21
98.0612961926
0
LINE
5
428
100
AcDbEntity
8
0
100
AcDbLine
62
7
6
CONTINUOUS
10
104.2591685721
20
96.8237961926
11
104.3995940873
21
96.9612961926
0
LINE
5
429
100
AcDbEntity
8
0
100
AcDbLine
62
7
6
CONTINUOUS
10
103.1825727591
20
111.6862961926
11
103.4166153499
21
111.7779629030
0
LINE
5
42A
100
AcDbEntity
8
0
100
AcDbLine
62
7
6
CONTINUOUS
10
103.2761898347
20
111.9612961926
11
103.1357642540
21
111.9154629030
0
LINE
5
42B
100
AcDbEntity
8
0
100
AcDbLine
62
7
6
CONTINUOUS
10
168.7953387388
20
101.1696296134
11
169.0293813297
21
101.1696296134
0
LINE
5
42C
100
AcDbEntity
8
0
100
AcDbLine
62
7
6
CONTINUOUS
10
168.9825727591
20
101.3987961926
11
168.8421472439
21
101.3987961926
0
LINE
5
42D
100
AcDbEntity
8
0
100
AcDbLine
62
7
6
CONTINUOUS
10
104.3545054337
20
101.6862961926
11
104.5885479590
21
101.6862961926
0
LINE
5
42E
100
AcDbEntity
8
0
100
AcDbLine
62
7
6
CONTINUOUS
10
165.3239899069
20
102.3609735270
11
164.8868281075
21
102.3609735270
0
LINE
5
42F
100
AcDbEntity
8
0
100
AcDbLine
62
7
6
CONTINUOUS
10
107.4496663082
20
102.3609735270
11
107.8868281075
21
102.3609735270
0
LINE
5
430
100
AcDbEntity
8
0
100
AcDbLine
62
7
6
CONTINUOUS
10
168.8421472439
20
102.5446294822
11
168.9825727591
21
102.5446294822
0
LINE
5
431
100
AcDbEntity
8
0
100
AcDbLine
62
9
6
CONTINUOUS
10
166.3655959248
20
102.5864484975
11
164.8868281075
21
102.5864484975
0
LINE
5
432
100
AcDbEntity
8
0
100
AcDbLine
62
9
6
CONTINUOUS
10
106.4080602902
20
102.5864484975
11
107.8868281075
21
102.5864484975
0
LINE
5
433
100
AcDbEntity
8
0
100
AcDbLine
62
7
6
CONTINUOUS
10
169.3570408651
20
102.5904629030
11
169.4506578752
21
102.5904629030
0
LINE
5
434
100
AcDbEntity
8
0
100
AcDbLine
62
7
6
CONTINUOUS
10
169.4506578752
20
102.8196295478
11
169.1229983398
21
102.8196295478
0
LINE
5
435
100
AcDbEntity
8
0
100
AcDbLine
62
7
6
CONTINUOUS
10
103.6506578752
20
108.1071295314
11
103.9315089056
21
108.0612961926
0
LINE
5
436
100
AcDbEntity
8
0
100
AcDbLine
62
7
6
CONTINUOUS
10
103.0421472439
20
111.9154629030
11
102.9017217287
21
111.9612961926
0
LINE
5
437
100
AcDbEntity
8
0
100
AcDbLine
62
7
6
CONTINUOUS
10
102.6208706656
20
121.8237961926
11
102.7612961808
21
121.7321294822
0
LINE
5
438
100
AcDbEntity
8
0
100
AcDbLine
62
7
6
CONTINUOUS
10
103.6506578752
20
121.8696294822
11
103.7910833904
21
121.7779629030
0
LINE
5
439
100
AcDbEntity
8
0
100
AcDbLine
62
7
6
CONTINUOUS
10
104.4464025923
20
128.0612961926
11
104.2591685721
21
128.2446295232
0
LINE
5
43A
100
AcDbEntity
8
0
100
AcDbLine
62
9
6
CONTINUOUS
10
93.3868281075
20
137.8363022850
11
93.4531630732
21
137.7699673193
0
LINE
5
43B
100
AcDbEntity
8
0
100
AcDbLine
62
9
6
CONTINUOUS
10
94.3868220152
20
138.8362961926
11
94.4531569808
21
138.7699612269
0
LINE
5
43C
100
AcDbEntity
8
0
100
AcDbLine
62
7
6
CONTINUOUS
10
102.7612961808
20
97.9696295150
11
102.9485302338
21
98.1071295314
0
LINE
5
43D
100
AcDbEntity
8
0
100
AcDbLine
62
7
6
CONTINUOUS
10
103.2761898347
20
97.0529629030
11
103.0889557489
21
96.9154629030
0
LINE
5
43E
100
AcDbEntity
8
0
100
AcDbLine
62
7
6
CONTINUOUS
10
102.9953387388
20
108.2904628579
11
102.7612961808
21
108.1987961926
0
LINE
5
43F
100
AcDbEntity
8
0
100
AcDbLine
62
7
6
CONTINUOUS
10
103.2293813297
20
106.6862961926
11
103.4634238550
21
106.7779629030
0
LINE
5
440
100
AcDbEntity
8
0
100
AcDbLine
62
7
6
CONTINUOUS
10
168.8421472439
20
132.7737961926
11
168.7017217287
21
132.7279628374
0
LINE
5
441
100
AcDbEntity
8
0
100
AcDbLine
62
7
6
CONTINUOUS
10
169.7315089056
20
131.2154627719
11
169.8719345519
21
131.2612961926
0
LINE
5
442
100
AcDbEntity
8
0
100
AcDbLine
62
7
6
CONTINUOUS
10
168.1868281075
20
103.1862961926
11
170.3868281075
21
103.1862961926
0
LINE
5
443
100
AcDbEntity
8
0
100
AcDbLine
62
7
6
CONTINUOUS
10
104.5885479590
20
103.3362961926
11
104.3545054337
21
103.3362961926
0
LINE
5
444
100
AcDbEntity
8
0
100
AcDbLine
62
7
6
CONTINUOUS
10
170.0123600670
20
103.4612961926
11
168.1868281075
21
103.4612961926
0
LINE
5
445
100
AcDbEntity
8
0
100
AcDbLine
62
7
6
CONTINUOUS
10
170.0591685721
20
103.7362961926
11
169.6847004005
21
103.7362961926
0
LINE
5
446
100
AcDbEntity
8
0
100
AcDbLine
62
9
6
CONTINUOUS
10
166.3655959248
20
104.5861438878
11
164.8868281075
21
104.5861438878
0
LINE
5
447
100
AcDbEntity
8
0
100
AcDbLine
62
9
6
CONTINUOUS
10
106.4080602902
20
104.5861438878
11
107.8868281075
21
104.5861438878
0
LINE
5
448
100
AcDbEntity
8
0
100
AcDbLine
62
7
6
CONTINUOUS
10
165.3239899069
20
104.8116188582
11
164.8868281075
21
104.8116188582
0
LINE
5
449
100
AcDbEntity
8
0
100
AcDbLine
62
7
6
CONTINUOUS
10
107.4496663082
20
104.8116188582
11
107.8868281075
21
104.8116188582
0
LINE
5
44A
100
AcDbEntity
8
0
100
AcDbLine
62
7
6
CONTINUOUS
10
168.7953387388
20
106.1696296134
11
168.9825727591
21
106.1696296134
0
LINE
5
44B
100
AcDbEntity
8
0
100
AcDbLine
62
7
6
CONTINUOUS
10
170.1527855822
20
106.2612961926
11
170.3868281075
21
106.2612961926
0
LINE
5
44C
100
AcDbEntity
8
0
100
AcDbLine
62
7
6
CONTINUOUS
10
103.9783174106
20
108.2904628579
11
103.6506578752
21
108.3362961926
0
LINE
5
44D
100
AcDbEntity
8
0
100
AcDbLine
62
7
6
CONTINUOUS
10
168.5144876757
20
91.2612961926
11
168.7485302338
21
91.1696296134
0
LINE
5
44E
100
AcDbEntity
8
0
100
AcDbLine
62
7
6
CONTINUOUS
10
169.1229983398
20
92.7279628374
11
168.8889557489
21
92.8196295478
0
LINE
5
44F
100
AcDbEntity
8
0
100
AcDbLine
62
7
6
CONTINUOUS
10
102.9017217287
20
121.9154629030
11
102.8081047186
21
121.9612961926
0
LINE
5
450
100
AcDbEntity
8
0
100
AcDbLine
62
7
6
CONTINUOUS
10
104.0719345519
20
123.0612961926
11
104.2123600670
21
122.9696295150
0
LINE
5
451
100
AcDbEntity
8
0
100
AcDbLine
62
7
6
CONTINUOUS
10
131.2618281075
20
86.3501681258
11
131.2618281075
21
86.3660506865
0
LINE
5
452
100
AcDbEntity
8
0
100
AcDbLine
62
7
6
CONTINUOUS
10
133.1618281075
20
138.8065416987
11
133.1618281075
21
138.8224242594
0
LINE
5
453
100
AcDbEntity
8
0
100
AcDbLine
62
9
6
CONTINUOUS
10
106.4496724005
20
87.4689478469
11
106.3903065955
21
87.4095820419
0
LINE
5
454
100
AcDbEntity
8
0
100
AcDbLine
62
7
6
CONTINUOUS
10
102.7612961808
20
93.1987961926
11
102.5740621441
21
93.0612961926
0
LINE
5
455
100
AcDbEntity
8
0
100
AcDbLine
62
7
6
CONTINUOUS
10
103.5570408651
20
93.2446295232
11
103.3698068449
21
93.1071295314
0
LINE
5
456
100
AcDbEntity
8
0
100
AcDbLine
62
7
6
CONTINUOUS
10
103.7910833904
20
97.9696295150
11
103.9315089056
21
98.0612961926
0
LINE
5
457
100
AcDbEntity
8
0
100
AcDbLine
62
7
6
CONTINUOUS
10
104.1655515620
20
97.0529629030
11
104.0251259157
21
96.9612961926
0
LINE
5
458
100
AcDbEntity
8
0
100
AcDbLine
62
7
6
CONTINUOUS
10
168.7017217287
20
132.7279628374
11
168.5144876757
21
132.6362961926
0
LINE
5
459
100
AcDbEntity
8
0
100
AcDbLine
62
7
6
CONTINUOUS
10
102.9017217287
20
108.0154628702
11
103.0421472439
21
108.0612961926
0
LINE
5
45A
100
AcDbEntity
8
0
100
AcDbLine
62
7
6
CONTINUOUS
10
103.3229983398
20
106.9612961926
11
103.1825727591
21
106.9154629030
0
LINE
5
45B
100
AcDbEntity
8
0
100
AcDbLine
62
7
6
CONTINUOUS
10
104.0719345519
20
106.7779629030
11
104.2123600670
21
106.8237961926
0
LINE
5
45C
100
AcDbEntity
8
0
100
AcDbLine
62
7
6
CONTINUOUS
10
169.8719345519
20
116.2154627719
11
170.0591685721
21
116.2612961926
0
LINE
5
45D
100
AcDbEntity
8
0
100
AcDbLine
62
7
6
CONTINUOUS
10
168.8889557489
20
116.1696296134
11
169.0761898347
21
116.2154627719
0
LINE
5
45E
100
AcDbEntity
8
0
100
AcDbLine
62
7
6
CONTINUOUS
10
168.9357642540
20
106.3987961926
11
168.8421472439
21
106.3987961926
0
LINE
5
45F
100
AcDbEntity
8
0
100
AcDbLine
62
7
6
CONTINUOUS
10
102.9953387388
20
106.6862961926
11
103.2293813297
21
106.6862961926
0
LINE
5
460
100
AcDbEntity
8
0
100
AcDbLine
62
7
6
CONTINUOUS
10
103.1825727591
20
106.9154629030
11
103.0421472439
21
106.9154629030
0
LINE
5
461
100
AcDbEntity
8
0
100
AcDbLine
62
7
6
CONTINUOUS
10
169.4038493701
20
107.5904629030
11
170.1527855822
21
107.5904629030
0
LINE
5
462
100
AcDbEntity
8
0
100
AcDbLine
62
7
6
CONTINUOUS
10
170.3868281075
20
107.8196295478
11
169.1698068449
21
107.8196295478
0
LINE
5
463
100
AcDbEntity
8
0
100
AcDbLine
62
7
6
CONTINUOUS
10
103.0421472439
20
108.0612961926
11
103.1825727591
21
108.0612961926
0
LINE
5
464
100
AcDbEntity
8
0
100
AcDbLine
62
7
6
CONTINUOUS
10
103.5570408651
20
108.1071295314
11
103.6506578752
21
108.1071295314
0
LINE
5
465
100
AcDbEntity
8
0
100
AcDbLine
62
7
6
CONTINUOUS
10
168.1868281075
20
108.1862961926
11
170.3868281075
21
108.1862961926
0
LINE
5
466
100
AcDbEntity
8
0
100
AcDbLine
62
7
6
CONTINUOUS
10
103.6506578752
20
108.3362961926
11
103.3229983398
21
108.3362961926
0
LINE
5
467
100
AcDbEntity
8
0
100
AcDbLine
62
7
6
CONTINUOUS
10
165.3239899069
20
108.3609735270
11
164.8868281075
21
108.3609735270
0
LINE
5
468
100
AcDbEntity
8
0
100
AcDbLine
62
7
6
CONTINUOUS
10
107.4496663082
20
108.3609735270
11
107.8868281075
21
108.3609735270
0
LINE
5
469
100
AcDbEntity
8
0
100
AcDbLine
62
7
6
CONTINUOUS
10
170.0123600670
20
108.4612961926
11
168.1868281075
21
108.4612961926
0
LINE
5
46A
100
AcDbEntity
8
0
100
AcDbLine
62
9
6
CONTINUOUS
10
166.3655959248
20
108.5864484975
11
164.8868281075
21
108.5864484975
0
LINE
5
46B
100
AcDbEntity
8
0
100
AcDbLine
62
9
6
CONTINUOUS
10
106.4080602902
20
108.5864484975
11
107.8868281075
21
108.5864484975
0
LINE
5
46C
100
AcDbEntity
8
0
100
AcDbLine
62
7
6
CONTINUOUS
10
170.0591685721
20
108.7362961926
11
169.6847004005
21
108.7362961926
0
LINE
5
46D
100
AcDbEntity
8
0
100
AcDbLine
62
7
6
CONTINUOUS
10
169.7783174106
20
102.7737961926
11
169.4506578752
21
102.8196295478
0
LINE
5
46E
100
AcDbEntity
8
0
100
AcDbLine
62
7
6
CONTINUOUS
10
169.4506578752
20
102.5904629030
11
169.7315089056
21
102.5446294822
0
LINE
5
46F
100
AcDbEntity
8
0
100
AcDbLine
62
7
6
CONTINUOUS
10
170.0591685721
20
92.6821295478
11
169.8251259157
21
92.7737961926
0
LINE
5
470
100
AcDbEntity
8
0
100
AcDbLine
62
7
6
CONTINUOUS
10
103.9783174106
20
121.9612961926
11
103.7910833904
21
122.0529629030
0
LINE
5
471
100
AcDbEntity
8
0
100
AcDbLine
62
7
6
CONTINUOUS
10
169.4974663803
20
91.3071296134
11
169.6847004005
21
91.2154627719
0
LINE
5
472
100
AcDbEntity
8
0
100
AcDbLine
62
7
6
CONTINUOUS
10
103.6506578752
20
126.8237961926
11
103.7910833904
21
126.7321294822
0
LINE
5
473
100
AcDbEntity
8
0
100
AcDbLine
62
7
6
CONTINUOUS
10
104.0719345519
20
128.0612961926
11
104.2123600670
21
127.9696295150
0
LINE
5
474
100
AcDbEntity
8
0
100
AcDbLine
62
7
6
CONTINUOUS
10
103.8847004005
20
133.3362961926
11
104.2123600670
21
133.0612961926
0
LINE
5
475
100
AcDbEntity
8
0
100
AcDbLine
62
7
6
CONTINUOUS
10
104.5868281075
20
133.0612961926
11
104.2591685721
21
133.3362961926
0
LINE
5
476
100
AcDbEntity
8
0
100
AcDbLine
62
9
6
CONTINUOUS
10
106.3903065955
20
137.7630103434
11
106.4496724005
21
137.7036445383
0
LINE
5
477
100
AcDbEntity
8
0
100
AcDbLine
62
7
6
CONTINUOUS
10
134.3868281075
20
137.1722345766
11
134.3868281075
21
135.3362961926
0
LINE
5
478
100
AcDbEntity
8
0
100
AcDbLine
62
7
6
CONTINUOUS
10
134.3868281075
20
88.0003578086
11
134.3868281075
21
89.8362961926
0
LINE
5
479
100
AcDbEntity
8
DEFAULT_1
100
AcDbLine
62
7
6
CENTER
10
136.3868281075
20
157.8256578947
11
136.3868281075
21
147.8256578947
0
LINE
5
47A
100
AcDbEntity
8
DEFAULT_1
100
AcDbLine
62
9
6
CENTER
10
136.3868281075
20
147.8256578947
11
136.3868281075
21
122.5862961926
0
LINE
5
47B
100
AcDbEntity
8
DEFAULT_1
100
AcDbLine
62
7
6
CENTER
10
136.3868281075
20
122.5862961926
11
136.3868281075
21
112.5862961926
0
LINE
5
47C
100
AcDbEntity
8
0
100
AcDbLine
62
9
6
CONTINUOUS
10
158.4054059610
20
138.6687317192
11
158.4333066799
21
138.6966324381
0
LINE
5
47D
100
AcDbEntity
8
0
100
AcDbLine
62
7
6
CONTINUOUS
10
157.3042818431
20
137.1896883122
11
157.2868281075
21
137.1722345766
0
LINE
5
47E
100
AcDbEntity
8
0
100
AcDbLine
62
9
6
CONTINUOUS
10
107.4496663082
20
86.4689539392
11
107.3903012865
21
86.4095889175
0
LINE
5
47F
100
AcDbEntity
8
0
100
AcDbLine
62
9
6
CONTINUOUS
10
159.4053998686
20
137.6687378115
11
159.4333496195
21
137.6966875624
0
LINE
5
480
100
AcDbEntity
8
0
100
AcDbLine
62
7
6
CONTINUOUS
10
104.2123600670
20
91.8237961926
11
104.3995940873
21
91.9612961926
0
LINE
5
481
100
AcDbEntity
8
0
100
AcDbLine
62
7
6
CONTINUOUS
10
102.7612961808
20
92.9237961926
11
102.9017217287
21
93.0154628702
0
LINE
5
482
100
AcDbEntity
8
0
100
AcDbLine
62
7
6
CONTINUOUS
10
103.5570408651
20
92.9696295150
11
103.6974663803
21
93.0612961926
0
LINE
5
483
100
AcDbEntity
8
0
100
AcDbLine
62
7
6
CONTINUOUS
10
104.2123600670
20
92.0987961926
11
104.0719345519
21
92.0071294822
0
LINE
5
484
100
AcDbEntity
8
0
100
AcDbLine
62
7
6
CONTINUOUS
10
169.8719345519
20
131.2612961926
11
170.0591685721
21
131.3529627719
0
LINE
5
485
100
AcDbEntity
8
0
100
AcDbLine
62
7
6
CONTINUOUS
10
103.8847004005
20
98.2904628579
11
103.6974663803
21
98.1987961926
0
LINE
5
486
100
AcDbEntity
8
0
100
AcDbLine
62
7
6
CONTINUOUS
10
169.8719345519
20
121.1696296134
11
170.0591685721
21
121.2154627719
0
LINE
5
487
100
AcDbEntity
8
0
100
AcDbLine
62
7
6
CONTINUOUS
10
103.3229983398
20
108.3362961926
11
102.9953387388
21
108.2904628579
0
LINE
5
488
100
AcDbEntity
8
0
100
AcDbLine
62
9
6
CONTINUOUS
10
166.3655959248
20
110.5861438878
11
164.8868281075
21
110.5861438878
0
LINE
5
489
100
AcDbEntity
8
0
100
AcDbLine
62
9
6
CONTINUOUS
10
106.4080602902
20
110.5861438878
11
107.8868281075
21
110.5861438878
0
LINE
5
48A
100
AcDbEntity
8
0
100
AcDbLine
62
7
6
CONTINUOUS
10
165.3239899069
20
110.8116188582
11
164.8868281075
21
110.8116188582
0
LINE
5
48B
100
AcDbEntity
8
0
100
AcDbLine
62
7
6
CONTINUOUS
10
107.4496663082
20
110.8116188582
11
107.8868281075
21
110.8116188582
0
LINE
5
48C
100
AcDbEntity
8
0
100
AcDbLine
62
7
6
CONTINUOUS
10
168.8421472439
20
110.9862961926
11
169.1229983398
21
110.9862961926
0
LINE
5
48D
100
AcDbEntity
8
0
100
AcDbLine
62
7
6
CONTINUOUS
10
168.1868281075
20
111.4446296134
11
168.8421472439
21
111.4446296134
0
LINE
5
48E
100
AcDbEntity
8
0
100
AcDbLine
62
7
6
CONTINUOUS
10
169.1229983398
20
111.4446296134
11
170.3868281075
21
111.4446296134
0
LINE
5
48F
100
AcDbEntity
8
0
100
AcDbLine
62
7
6
CONTINUOUS
10
102.9953387388
20
111.6862961926
11
103.1825727591
21
111.6862961926
0
LINE
5
490
100
AcDbEntity
8
0
100
AcDbLine
62
7
6
CONTINUOUS
10
170.0123600670
20
111.7196294822
11
169.1229983398
21
111.7196294822
0
LINE
5
491
100
AcDbEntity
8
0
100
AcDbLine
62
7
6
CONTINUOUS
10
168.8421472439
20
111.7196294822
11
168.1868281075
21
111.7196294822
0
LINE
5
492
100
AcDbEntity
8
0
100
AcDbLine
62
7
6
CONTINUOUS
10
104.3527855822
20
111.7779629030
11
104.5868281075
21
111.7779629030
0
LINE
5
493
100
AcDbEntity
8
0
100
AcDbLine
62
7
6
CONTINUOUS
10
103.1357642540
20
111.9154629030
11
103.0421472439
21
111.9154629030
0
LINE
5
494
100
AcDbEntity
8
DEFAULT_1
100
AcDbLine
62
7
6
CENTER
10
200.9470429146
20
112.5862961926
11
190.9470429146
21
112.5862961926
0
LINE
5
495
100
AcDbEntity
8
DEFAULT_1
100
AcDbLine
62
9
6
CENTER
10
190.9470429146
20
112.5862961926
11
136.3868281075
21
112.5862961926
0
LINE
5
496
100
AcDbEntity
8
DEFAULT_1
100
AcDbLine
62
9
6
CENTER
10
87.1780916748
20
112.5862961926
11
83.0914053751
21
112.5862961926
0
LINE
5
497
100
AcDbEntity
8
DEFAULT_1
100
AcDbLine
62
9
6
CENTER
10
126.3868281075
20
112.5862961926
11
97.1780916748
21
112.5862961926
0
LINE
5
498
100
AcDbEntity
8
DEFAULT_1
100
AcDbLine
62
7
6
CENTER
10
83.0914053751
20
112.5862961926
11
73.0914053751
21
112.5862961926
0
LINE
5
499
100
AcDbEntity
8
DEFAULT_1
100
AcDbLine
62
7
6
CENTER
10
87.1780916748
20
112.5862961926
11
97.1780916748
21
112.5862961926
0
LINE
5
49A
100
AcDbEntity
8
DEFAULT_1
100
AcDbLine
62
7
6
CENTER
10
126.3868281075
20
112.5862961926
11
136.3868281075
21
112.5862961926
0
LINE
5
49B
100
AcDbEntity
8
0
100
AcDbLine
62
7
6
CONTINUOUS
10
169.1229983398
20
112.8196295478
11
168.8421472439
21
112.8196295478
0
LINE
5
49C
100
AcDbEntity
8
0
100
AcDbLine
62
7
6
CONTINUOUS
10
102.7612961808
20
121.7321294822
11
102.9017217287
21
121.6862961926
0
LINE
5
49D
100
AcDbEntity
8
0
100
AcDbLine
62
7
6
CONTINUOUS
10
168.8421472439
20
101.3987961926
11
168.7017217287
21
101.4446296134
0
LINE
5
49E
100
AcDbEntity
8
0
100
AcDbLine
62
7
6
CONTINUOUS
10
168.1868281075
20
97.0862961926
11
170.1527855822
21
96.1696296134
0
LINE
5
49F
100
AcDbEntity
8
0
100
AcDbLine
62
7
6
CONTINUOUS
10
170.1527855822
20
96.4446296134
11
168.1868281075
21
97.3612961926
0
LINE
5
4A0
100
AcDbEntity
8
0
100
AcDbLine
62
7
6
CONTINUOUS
10
103.9783174106
20
126.9612961926
11
103.7910833904
21
127.0529629030
0
LINE
5
4A1
100
AcDbEntity
8
0
100
AcDbLine
62
9
6
CONTINUOUS
10
158.4333067007
20
86.4759599263
11
158.4054059610
21
86.5038606660
0
LINE
5
4A2
100
AcDbEntity
8
0
100
AcDbLine
62
7
6
CONTINUOUS
10
157.2868281075
20
88.0003578086
11
157.3042818431
21
87.9829040731
0
LINE
5
4A3
100
AcDbEntity
8
0
100
AcDbLine
62
9
6
CONTINUOUS
10
107.3903012864
20
138.7630034677
11
107.4496663082
21
138.7036384460
0
LINE
5
4A4
100
AcDbEntity
8
0
100
AcDbLine
62
9
6
CONTINUOUS
10
159.4333496195
20
87.4759048228
11
159.4053998686
21
87.5038545737
0
LINE
5
4A5
100
AcDbEntity
8
0
100
AcDbLine
62
7
6
CONTINUOUS
10
138.3868281075
20
137.1722345766
11
138.3868281075
21
135.3362961926
0
LINE
5
4A6
100
AcDbEntity
8
0
100
AcDbLine
62
7
6
CONTINUOUS
10
138.3868281075
20
88.0003578086
11
138.3868281075
21
89.8362961926
0
LINE
5
4A7
100
AcDbEntity
8
0
100
AcDbLine
62
7
6
CONTINUOUS
10
139.6118281075
20
138.8224242594
11
139.6118281075
21
138.8065416987
0
LINE
5
4A8
100
AcDbEntity
8
0
100
AcDbLine
62
9
6
CONTINUOUS
10
113.3682563464
20
87.5038545737
11
113.3403065955
21
87.4759048228
0
LINE
5
4A9
100
AcDbEntity
8
0
100
AcDbLine
62
9
6
CONTINUOUS
10
165.3239899069
20
138.7036384460
11
165.3833066799
21
138.7629552190
0
LINE
5
4AA
100
AcDbEntity
8
0
100
AcDbLine
62
7
6
CONTINUOUS
10
115.4868281075
20
88.0003578086
11
115.4693743719
21
87.9829040731
0
LINE
5
4AB
100
AcDbEntity
8
0
100
AcDbLine
62
9
6
CONTINUOUS
10
114.3682502540
20
86.5038606660
11
114.3403012865
21
86.4759116985
0
LINE
5
4AC
100
AcDbEntity
8
0
100
AcDbLine
62
9
6
CONTINUOUS
10
166.3239838145
20
137.7036445383
11
166.3833496195
21
137.7630103434
0
LINE
5
4AD
100
AcDbEntity
8
0
100
AcDbLine
62
7
6
CONTINUOUS
10
168.5612961808
20
132.3612961926
11
168.8421472439
21
132.5446294822
0
LINE
5
4AE
100
AcDbEntity
8
0
100
AcDbLine
62
7
6
CONTINUOUS
10
170.0123600670
20
131.6279629030
11
169.7315089056
21
131.4446296134
0
LINE
5
4AF
100
AcDbEntity
8
0
100
AcDbLine
62
7
6
CONTINUOUS
10
102.9485302338
20
98.3362961926
11
102.7144876757
21
98.2446295232
0
LINE
5
4B0
100
AcDbEntity
8
0
100
AcDbLine
62
7
6
CONTINUOUS
10
103.0889557489
20
96.6862961926
11
103.3229983398
21
96.7779629030
0
LINE
5
4B1
100
AcDbEntity
8
0
100
AcDbLine
62
7
6
CONTINUOUS
10
104.0251259157
20
96.7321294822
11
104.2591685721
21
96.8237961926
0
LINE
5
4B2
100
AcDbEntity
8
0
100
AcDbLine
62
7
6
CONTINUOUS
10
103.6038493701
20
113.1071295314
11
104.3527855822
21
113.1071295314
0
LINE
5
4B3
100
AcDbEntity
8
0
100
AcDbLine
62
7
6
CONTINUOUS
10
168.1868281075
20
113.1862961926
11
170.3868281075
21
113.1862961926
0
LINE
5
4B4
100
AcDbEntity
8
0
100
AcDbLine
62
7
6
CONTINUOUS
10
104.5868281075
20
113.3362961926
11
103.3698068449
21
113.3362961926
0
LINE
5
4B5
100
AcDbEntity
8
0
100
AcDbLine
62
7
6
CONTINUOUS
10
170.0123600670
20
113.4612961926
11
168.1868281075
21
113.4612961926
0
LINE
5
4B6
100
AcDbEntity
8
0
100
AcDbLine
62
7
6
CONTINUOUS
10
170.0591685721
20
113.7362961926
11
169.6847004005
21
113.7362961926
0
LINE
5
4B7
100
AcDbEntity
8
0
100
AcDbLine
62
7
6
CONTINUOUS
10
165.3239899069
20
114.3609735270
11
164.8868281075
21
114.3609735270
0
LINE
5
4B8
100
AcDbEntity
8
0
100
AcDbLine
62
7
6
CONTINUOUS
10
107.4496663082
20
114.3609735270
11
107.8868281075
21
114.3609735270
0
LINE
5
4B9
100
AcDbEntity
8
0
100
AcDbLine
62
9
6
CONTINUOUS
10
166.3655959248
20
114.5864484975
11
164.8868281075
21
114.5864484975
0
LINE
5
4BA
100
AcDbEntity
8
0
100
AcDbLine
62
9
6
CONTINUOUS
10
106.4080602902
20
114.5864484975
11
107.8868281075
21
114.5864484975
0
LINE
5
4BB
100
AcDbEntity
8
0
100
AcDbLine
62
7
6
CONTINUOUS
10
168.7017217287
20
116.1696296134
11
168.8889557489
21
116.1696296134
0
LINE
5
4BC
100
AcDbEntity
8
0
100
AcDbLine
62
7
6
CONTINUOUS
10
169.7783174106
20
116.2154627719
11
169.8719345519
21
116.2154627719
0
LINE
5
4BD
100
AcDbEntity
8
0
100
AcDbLine
62
7
6
CONTINUOUS
10
103.7910833904
20
121.7779629030
11
103.9783174106
21
121.7321294822
0
LINE
5
4BE
100
AcDbEntity
8
0
100
AcDbLine
62
7
6
CONTINUOUS
10
104.2591685721
20
123.2446295232
11
104.0719345519
21
123.2904628579
0
LINE
5
4BF
100
AcDbEntity
8
0
100
AcDbLine
62
7
6
CONTINUOUS
10
168.9825727591
20
102.5446294822
11
169.1229983398
21
102.4987961926
0
LINE
5
4C0
100
AcDbEntity
8
0
100
AcDbLine
62
7
6
CONTINUOUS
10
169.7315089056
20
102.5446294822
11
169.8719345519
21
102.4987961926
0
LINE
5
4C1
100
AcDbEntity
8
0
100
AcDbLine
62
7
6
CONTINUOUS
10
168.5612961808
20
101.2612961926
11
168.7953387388
21
101.1696296134
0
LINE
5
4C2
100
AcDbEntity
8
0
100
AcDbLine
62
7
6
CONTINUOUS
10
170.0123600670
20
102.6821295478
11
169.7783174106
21
102.7737961926
0
LINE
5
4C3
100
AcDbEntity
8
0
100
AcDbLine
62
7
6
CONTINUOUS
10
169.7315089056
20
91.4446296134
11
169.5910833904
21
91.5362961926
0
LINE
5
4C4
100
AcDbEntity
8
0
100
AcDbLine
62
7
6
CONTINUOUS
10
169.8251259157
20
92.5446294822
11
169.9655515620
21
92.4529629030
0
LINE
5
4C5
100
AcDbEntity
8
0
100
AcDbLine
62
7
6
CONTINUOUS
10
168.7485302338
20
91.3987961926
11
168.5612961808
21
91.5362961926
0
LINE
5
4C6
100
AcDbEntity
8
0
100
AcDbLine
62
7
6
CONTINUOUS
10
168.8889557489
20
92.5904629030
11
169.0761898347
21
92.4529629030
0
LINE
5
4C7
100
AcDbEntity
8
0
100
AcDbLine
62
9
6
CONTINUOUS
10
113.3403065955
20
137.6966875624
11
113.3682563464
21
137.6687378115
0
LINE
5
4C8
100
AcDbEntity
8
0
100
AcDbLine
62
9
6
CONTINUOUS
10
165.3833148184
20
86.4096290277
11
165.3239899069
21
86.4689539392
0
LINE
5
4C9
100
AcDbEntity
8
0
100
AcDbLine
62
7
6
CONTINUOUS
10
115.4693743719
20
137.1896883122
11
115.4868281075
21
137.1722345766
0
LINE
5
4CA
100
AcDbEntity
8
0
100
AcDbLine
62
9
6
CONTINUOUS
10
114.3403012864
20
138.6966806867
11
114.3682502540
21
138.6687317192
0
LINE
5
4CB
100
AcDbEntity
8
0
100
AcDbLine
62
9
6
CONTINUOUS
10
166.3833496195
20
87.4095820419
11
166.3239838145
21
87.4689478469
0
LINE
5
4CC
100
AcDbEntity
8
0
100
AcDbLine
62
7
6
CONTINUOUS
10
141.5118281075
20
86.3660506865
11
141.5118281075
21
86.3501681258
0
LINE
5
4CD
100
AcDbEntity
8
0
100
AcDbLine
62
7
6
CONTINUOUS
10
103.7910833904
20
93.3362961926
11
103.5570408651
21
93.2446295232
0
LINE
5
4CE
100
AcDbEntity
8
0
100
AcDbLine
62
7
6
CONTINUOUS
10
168.7017217287
20
117.8196295478
11
168.5612961808
21
117.7737961926
0
LINE
5
4CF
100
AcDbEntity
8
0
100
AcDbLine
62
7
6
CONTINUOUS
10
168.8889557489
20
116.3987961926
11
168.7017217287
21
116.3987961926
0
LINE
5
4D0
100
AcDbEntity
8
0
100
AcDbLine
62
7
6
CONTINUOUS
10
169.8719345519
20
116.4446296134
11
169.7783174106
21
116.4446296134
0
LINE
5
4D1
100
AcDbEntity
8
0
100
AcDbLine
62
7
6
CONTINUOUS
10
103.0421472439
20
116.5029629030
11
103.3229983398
21
116.5029629030
0
LINE
5
4D2
100
AcDbEntity
8
0
100
AcDbLine
62
9
6
CONTINUOUS
10
166.3655959248
20
116.5861438878
11
164.8868281075
21
116.5861438878
0
LINE
5
4D3
100
AcDbEntity
8
0
100
AcDbLine
62
9
6
CONTINUOUS
10
106.4080602902
20
116.5861438878
11
107.8868281075
21
116.5861438878
0
LINE
5
4D4
100
AcDbEntity
8
0
100
AcDbLine
62
7
6
CONTINUOUS
10
165.3239899069
20
116.8116188582
11
164.8868281075
21
116.8116188582
0
LINE
5
4D5
100
AcDbEntity
8
0
100
AcDbLine
62
7
6
CONTINUOUS
10
107.4496663082
20
116.8116188582
11
107.8868281075
21
116.8116188582
0
LINE
5
4D6
100
AcDbEntity
8
0
100
AcDbLine
62
7
6
CONTINUOUS
10
102.3868281075
20
116.9612961926
11
103.0421472439
21
116.9612961926
0
LINE
5
4D7
100
AcDbEntity
8
0
100
AcDbLine
62
7
6
CONTINUOUS
10
103.3229983398
20
116.9612961926
11
104.5868281075
21
116.9612961926
0
LINE
5
4D8
100
AcDbEntity
8
0
100
AcDbLine
62
7
6
CONTINUOUS
10
169.4038493701
20
117.0862961926
11
169.2166153499
21
117.0862961926
0
LINE
5
4D9
100
AcDbEntity
8
0
100
AcDbLine
62
7
6
CONTINUOUS
10
104.2123600670
20
117.2362961926
11
103.3229983398
21
117.2362961926
0
LINE
5
4DA
100
AcDbEntity
8
0
100
AcDbLine
62
7
6
CONTINUOUS
10
103.0421472439
20
117.2362961926
11
102.3868281075
21
117.2362961926
0
LINE
5
4DB
100
AcDbEntity
8
0
100
AcDbLine
62
7
6
CONTINUOUS
10
168.1868281075
20
118.1862961926
11
170.3868281075
21
118.1862961926
0
LINE
5
4DC
100
AcDbEntity
8
0
100
AcDbLine
62
7
6
CONTINUOUS
10
103.3229983398
20
118.3362961926
11
103.0421472439
21
118.3362961926
0
LINE
5
4DD
100
AcDbEntity
8
0
100
AcDbLine
62
7
6
CONTINUOUS
10
170.0123600670
20
118.4612961926
11
168.1868281075
21
118.4612961926
0
LINE
5
4DE
100
AcDbEntity
8
0
100
AcDbLine
62
7
6
CONTINUOUS
10
170.0591685721
20
118.7362961926
11
169.6847004005
21
118.7362961926
0
LINE
5
4DF
100
AcDbEntity
8
0
100
AcDbLine
62
7
6
CONTINUOUS
10
103.7910833904
20
126.7321294822
11
103.9783174106
21
126.6862961926
0
LINE
5
4E0
100
AcDbEntity
8
0
100
AcDbLine
62
7
6
CONTINUOUS
10
168.8421472439
20
106.3987961926
11
168.7017217287
21
106.4446296134
0
LINE
5
4E1
100
AcDbEntity
8
0
100
AcDbLine
62
7
6
CONTINUOUS
10
168.5612961808
20
106.2612961926
11
168.7953387388
21
106.1696296134
0
LINE
5
4E2
100
AcDbEntity
8
0
100
AcDbLine
62
7
6
CONTINUOUS
10
169.6847004005
20
93.7362961926
11
170.0123600670
21
93.4612961926
0
LINE
5
4E3
100
AcDbEntity
8
0
100
AcDbLine
62
7
6
CONTINUOUS
10
168.5144876757
20
132.6362961926
11
168.3740621441
21
132.4987961926
0
LINE
5
4E4
100
AcDbEntity
8
0
100
AcDbLine
62
7
6
CONTINUOUS
10
170.0591685721
20
131.3529627719
11
170.1995940873
21
131.4904627719
0
LINE
5
4E5
100
AcDbEntity
8
0
100
AcDbLine
62
7
6
CONTINUOUS
10
168.6081047186
20
117.5446294822
11
168.7017217287
21
117.5904629030
0
LINE
5
4E6
100
AcDbEntity
8
0
100
AcDbLine
62
7
6
CONTINUOUS
10
103.9783174106
20
91.7321294822
11
104.2123600670
21
91.8237961926
0
LINE
5
4E7
100
AcDbEntity
8
0
100
AcDbLine
62
7
6
CONTINUOUS
10
102.9017217287
20
93.2446295232
11
102.7612961808
21
93.1987961926
0
LINE
5
4E8
100
AcDbEntity
8
0
100
AcDbLine
62
7
6
CONTINUOUS
10
103.6974663803
20
93.0612961926
11
103.8378918954
21
93.1071295314
0
LINE
5
4E9
100
AcDbEntity
8
0
100
AcDbLine
62
7
6
CONTINUOUS
10
104.0719345519
20
92.0071294822
11
103.9315089056
21
91.9612961926
0
LINE
5
4EA
100
AcDbEntity
8
0
100
AcDbLine
62
7
6
CONTINUOUS
10
165.3239899069
20
120.3609735270
11
164.8868281075
21
120.3609735270
0
LINE
5
4EB
100
AcDbEntity
8
0
100
AcDbLine
62
7
6
CONTINUOUS
10
107.4496663082
20
120.3609735270
11
107.8868281075
21
120.3609735270
0
LINE
5
4EC
100
AcDbEntity
8
0
100
AcDbLine
62
9
6
CONTINUOUS
10
166.3655959248
20
120.5864484975
11
164.8868281075
21
120.5864484975
0
LINE
5
4ED
100
AcDbEntity
8
0
100
AcDbLine
62
9
6
CONTINUOUS
10
106.4080602902
20
120.5864484975
11
107.8868281075
21
120.5864484975
0
LINE
5
4EE
100
AcDbEntity
8
0
100
AcDbLine
62
7
6
CONTINUOUS
10
168.1868281075
20
121.1696296134
11
168.4208706656
21
121.1696296134
0
LINE
5
4EF
100
AcDbEntity
8
0
100
AcDbLine
62
7
6
CONTINUOUS
10
169.7783174106
20
121.1696296134
11
169.8719345519
21
121.1696296134
0
LINE
5
4F0
100
AcDbEntity
8
0
100
AcDbLine
62
7
6
CONTINUOUS
10
169.8719345519
20
121.4446296134
11
169.7783174106
21
121.4446296134
0
LINE
5
4F1
100
AcDbEntity
8
0
100
AcDbLine
62
7
6
CONTINUOUS
10
102.9017217287
20
121.6862961926
11
103.0889557489
21
121.6862961926
0
LINE
5
4F2
100
AcDbEntity
8
0
100
AcDbLine
62
7
6
CONTINUOUS
10
103.9783174106
20
121.7321294822
11
104.0719345519
21
121.7321294822
0
LINE
5
4F3
100
AcDbEntity
8
0
100
AcDbLine
62
7
6
CONTINUOUS
10
103.0889557489
20
121.9154629030
11
102.9017217287
21
121.9154629030
0
LINE
5
4F4
100
AcDbEntity
8
0
100
AcDbLine
62
7
6
CONTINUOUS
10
104.0719345519
20
121.9612961926
11
103.9783174106
21
121.9612961926
0
LINE
5
4F5
100
AcDbEntity
8
0
100
AcDbLine
62
9
6
CONTINUOUS
10
166.3655959248
20
122.5861438878
11
164.8868281075
21
122.5861438878
0
LINE
5
4F6
100
AcDbEntity
8
0
100
AcDbLine
62
9
6
CONTINUOUS
10
106.4080602902
20
122.5861438878
11
107.8868281075
21
122.5861438878
0
LINE
5
4F7
100
AcDbEntity
8
0
100
AcDbLine
62
7
6
CONTINUOUS
10
103.6038493701
20
122.6029628374
11
103.4166153499
21
122.6029628374
0
LINE
5
4F8
100
AcDbEntity
8
0
100
AcDbLine
62
7
6
CONTINUOUS
10
165.3239899069
20
122.8116188582
11
164.8868281075
21
122.8116188582
0
LINE
5
4F9
100
AcDbEntity
8
0
100
AcDbLine
62
7
6
CONTINUOUS
10
107.4496663082
20
122.8116188582
11
107.8868281075
21
122.8116188582
0
LINE
5
4FA
100
AcDbEntity
8
0
100
AcDbLine
62
7
6
CONTINUOUS
10
168.4208706656
20
122.8196295478
11
168.1868281075
21
122.8196295478
0
LINE
5
4FB
100
AcDbEntity
8
0
100
AcDbLine
62
7
6
CONTINUOUS
10
104.2591685721
20
128.2446295232
11
104.0719345519
21
128.2904628579
0
LINE
5
4FC
100
AcDbEntity
8
0
100
AcDbLine
62
7
6
CONTINUOUS
10
168.7017217287
20
101.4446296134
11
168.5612961808
21
101.5362961926
0
LINE
5
4FD
100
AcDbEntity
8
0
100
AcDbLine
62
7
6
CONTINUOUS
10
169.8719345519
20
102.4987961926
11
170.0123600670
21
102.4071294822
0
LINE
5
4FE
100
AcDbEntity
8
0
100
AcDbLine
62
7
6
CONTINUOUS
10
168.3740621441
20
101.3987961926
11
168.5612961808
21
101.2612961926
0
LINE
5
4FF
100
AcDbEntity
8
0
100
AcDbLine
62
7
6
CONTINUOUS
10
170.3868281075
20
93.4612961926
11
170.0591685721
21
93.7362961926
0
LINE
5
500
100
AcDbEntity
8
0
100
AcDbLine
62
7
6
CONTINUOUS
10
168.3740621441
20
91.3987961926
11
168.5144876757
21
91.2612961926
0
LINE
5
501
100
AcDbEntity
8
0
100
AcDbLine
62
7
6
CONTINUOUS
10
169.3570408651
20
91.4446296134
11
169.4974663803
21
91.3071296134
0
LINE
5
502
100
AcDbEntity
8
0
100
AcDbLine
62
7
6
CONTINUOUS
10
170.1995940873
20
92.5446294822
11
170.0591685721
21
92.6821295478
0
LINE
5
503
100
AcDbEntity
8
0
100
AcDbLine
62
9
6
CONTINUOUS
10
178.3204992342
20
138.7699612269
11
178.3868341998
21
138.8362961926
0
LINE
5
504
100
AcDbEntity
8
0
100
AcDbLine
62
9
6
CONTINUOUS
10
179.3204931418
20
137.7699673193
11
179.3868281075
21
137.8363022850
0
LINE
5
505
100
AcDbEntity
8
0
100
AcDbLine
62
7
6
CONTINUOUS
10
170.0123600670
20
121.5362961926
11
169.8719345519
21
121.4446296134
0
LINE
5
506
100
AcDbEntity
8
0
100
AcDbLine
62
7
6
CONTINUOUS
10
168.5612961808
20
117.7737961926
11
168.4208706656
21
117.6821295478
0
LINE
5
507
100
AcDbEntity
8
0
100
AcDbLine
62
7
6
CONTINUOUS
10
169.0761898347
20
116.4904627719
11
168.8889557489
21
116.3987961926
0
LINE
5
508
100
AcDbEntity
8
0
100
AcDbLine
62
7
6
CONTINUOUS
10
169.4974663803
20
131.1696296134
11
169.7315089056
21
131.2154627719
0
LINE
5
509
100
AcDbEntity
8
0
100
AcDbLine
62
7
6
CONTINUOUS
10
169.0761898347
20
132.8196295478
11
168.8421472439
21
132.7737961926
0
LINE
5
50A
100
AcDbEntity
8
0
100
AcDbLine
62
7
6
CONTINUOUS
10
169.7315089056
20
131.4446296134
11
169.4506578752
21
131.3987961926
0
LINE
5
50B
100
AcDbEntity
8
0
100
AcDbLine
62
7
6
CONTINUOUS
10
168.1868281075
20
123.1862961926
11
170.3868281075
21
123.1862961926
0
LINE
5
50C
100
AcDbEntity
8
0
100
AcDbLine
62
7
6
CONTINUOUS
10
170.0123600670
20
123.4612961926
11
168.1868281075
21
123.4612961926
0
LINE
5
50D
100
AcDbEntity
8
0
100
AcDbLine
62
7
6
CONTINUOUS
10
170.0591685721
20
123.7362961926
11
169.6847004005
21
123.7362961926
0
LINE
5
50E
100
AcDbEntity
8
0
100
AcDbLine
62
7
6
CONTINUOUS
10
165.3239899069
20
126.3609735270
11
164.8868281075
21
126.3609735270
0
LINE
5
50F
100
AcDbEntity
8
0
100
AcDbLine
62
7
6
CONTINUOUS
10
107.4496663082
20
126.3609735270
11
107.8868281075
21
126.3609735270
0
LINE
5
510
100
AcDbEntity
8
0
100
AcDbLine
62
7
6
CONTINUOUS
10
169.5910833904
20
116.2612961926
11
169.7783174106
21
116.2154627719
0
LINE
5
511
100
AcDbEntity
8
0
100
AcDbLine
62
7
6
CONTINUOUS
10
170.0591685721
20
117.7279628374
11
169.8719345519
21
117.7737961926
0
LINE
5
512
100
AcDbEntity
8
0
100
AcDbLine
62
7
6
CONTINUOUS
10
168.5612961808
20
116.2154627719
11
168.7017217287
21
116.1696296134
0
LINE
5
513
100
AcDbEntity
8
0
100
AcDbLine
62
7
6
CONTINUOUS
10
168.7017217287
20
106.4446296134
11
168.5612961808
21
106.5362961926
0
LINE
5
514
100
AcDbEntity
8
0
100
AcDbLine
62
7
6
CONTINUOUS
10
170.1995940873
20
102.5446294822
11
170.0123600670
21
102.6821295478
0
LINE
5
515
100
AcDbEntity
8
0
100
AcDbLine
62
7
6
CONTINUOUS
10
169.6847004005
20
98.7362961926
11
170.0123600670
21
98.4612961926
0
LINE
5
516
100
AcDbEntity
8
0
100
AcDbLine
62
7
6
CONTINUOUS
10
170.3868281075
20
98.4612961926
11
170.0591685721
21
98.7362961926
0
LINE
5
517
100
AcDbEntity
8
0
100
AcDbLine
62
9
6
CONTINUOUS
10
178.3868341998
20
86.3362961926
11
178.3204992342
21
86.4026311583
0
LINE
5
518
100
AcDbEntity
8
0
100
AcDbLine
62
9
6
CONTINUOUS
10
179.3868281075
20
87.3362901003
11
179.3204931418
21
87.4026250659
0
LINE
5
519
100
AcDbEntity
8
0
100
AcDbLine
62
7
6
CONTINUOUS
10
169.5910833904
20
91.5362961926
11
169.4506578752
21
91.7196294822
0
LINE
5
51A
100
AcDbEntity
8
0
100
AcDbLine
62
7
6
CONTINUOUS
10
168.3740621441
20
132.4987961926
11
168.2336366167
21
132.2696294822
0
LINE
5
51B
100
AcDbEntity
8
0
100
AcDbLine
62
7
6
CONTINUOUS
10
168.4676791706
20
132.2237961926
11
168.5612961808
21
132.3612961926
0
LINE
5
51C
100
AcDbEntity
8
0
100
AcDbLine
62
7
6
CONTINUOUS
10
170.1059770772
20
131.7654629030
11
170.0123600670
21
131.6279629030
0
LINE
5
51D
100
AcDbEntity
8
0
100
AcDbLine
62
7
6
CONTINUOUS
10
169.0761898347
20
116.2154627719
11
169.2166153499
21
116.3071296134
0
LINE
5
51E
100
AcDbEntity
8
0
100
AcDbLine
62
7
6
CONTINUOUS
10
170.0123600670
20
116.5362961926
11
169.8719345519
21
116.4446296134
0
LINE
5
51F
100
AcDbEntity
8
0
100
AcDbLine
62
7
6
CONTINUOUS
10
169.0761898347
20
106.4446296134
11
168.9357642540
21
106.3987961926
0
LINE
5
520
100
AcDbEntity
8
0
100
AcDbLine
62
7
6
CONTINUOUS
10
104.0719345519
20
121.7321294822
11
104.2591685721
21
121.7779629030
0
LINE
5
521
100
AcDbEntity
8
0
100
AcDbLine
62
7
6
CONTINUOUS
10
103.0889557489
20
121.6862961926
11
103.2761898347
21
121.7321294822
0
LINE
5
522
100
AcDbEntity
8
0
100
AcDbLine
62
7
6
CONTINUOUS
10
168.8421472439
20
132.5446294822
11
169.1229983398
21
132.5904629030
0
LINE
5
523
100
AcDbEntity
8
0
100
AcDbLine
62
9
6
CONTINUOUS
10
166.3655959248
20
126.5864484975
11
164.8868281075
21
126.5864484975
0
LINE
5
524
100
AcDbEntity
8
0
100
AcDbLine
62
9
6
CONTINUOUS
10
106.4080602902
20
126.5864484975
11
107.8868281075
21
126.5864484975
0
LINE
5
525
100
AcDbEntity
8
0
100
AcDbLine
62
7
6
CONTINUOUS
10
102.3868281075
20
126.6862961926
11
102.6208706656
21
126.6862961926
0
LINE
5
526
100
AcDbEntity
8
0
100
AcDbLine
62
7
6
CONTINUOUS
10
103.9783174106
20
126.6862961926
11
104.0719345519
21
126.6862961926
0
LINE
5
527
100
AcDbEntity
8
0
100
AcDbLine
62
7
6
CONTINUOUS
10
104.0719345519
20
126.9612961926
11
103.9783174106
21
126.9612961926
0
LINE
5
528
100
AcDbEntity
8
0
100
AcDbLine
62
7
6
CONTINUOUS
10
168.1868281075
20
127.2696294822
11
170.3868281075
21
127.2696294822
0
LINE
5
529
100
AcDbEntity
8
0
100
AcDbLine
62
7
6
CONTINUOUS
10
170.0123600670
20
127.5446294822
11
168.1868281075
21
127.5446294822
0
LINE
5
52A
100
AcDbEntity
8
0
100
AcDbLine
62
7
6
CONTINUOUS
10
170.0591685721
20
127.8196295478
11
169.6847004005
21
127.8196295478
0
LINE
5
52B
100
AcDbEntity
8
0
100
AcDbLine
62
7
6
CONTINUOUS
10
168.1868281075
20
128.1862961926
11
170.3868281075
21
128.1862961926
0
LINE
5
52C
100
AcDbEntity
8
0
100
AcDbLine
62
7
6
CONTINUOUS
10
102.6208706656
20
128.3362961926
11
102.3868281075
21
128.3362961926
0
LINE
5
52D
100
AcDbEntity
8
0
100
AcDbLine
62
7
6
CONTINUOUS
10
170.0123600670
20
128.4612961926
11
168.1868281075
21
128.4612961926
0
LINE
5
52E
100
AcDbEntity
8
0
100
AcDbLine
62
9
6
CONTINUOUS
10
166.3655959248
20
128.5861438878
11
164.8868281075
21
128.5861438878
0
LINE
5
52F
100
AcDbEntity
8
0
100
AcDbLine
62
9
6
CONTINUOUS
10
106.4080602902
20
128.5861438878
11
107.8868281075
21
128.5861438878
0
LINE
5
530
100
AcDbEntity
8
0
100
AcDbLine
62
7
6
CONTINUOUS
10
170.0591685721
20
128.7362961926
11
169.6847004005
21
128.7362961926
0
LINE
5
531
100
AcDbEntity
8
0
100
AcDbLine
62
7
6
CONTINUOUS
10
165.3239899069
20
128.8116188582
11
164.8868281075
21
128.8116188582
0
LINE
5
532
100
AcDbEntity
8
0
100
AcDbLine
62
7
6
CONTINUOUS
10
107.4496663082
20
128.8116188582
11
107.8868281075
21
128.8116188582
0
LINE
5
533
100
AcDbEntity
8
0
100
AcDbLine
62
7
6
CONTINUOUS
10
169.5910833904
20
121.2154627719
11
169.7783174106
21
121.1696296134
0
LINE
5
534
100
AcDbEntity
8
0
100
AcDbLine
62
7
6
CONTINUOUS
10
168.3740621441
20
106.3987961926
11
168.5612961808
21
106.2612961926
0
LINE
5
535
100
AcDbEntity
8
0
100
AcDbLine
62
7
6
CONTINUOUS
10
169.6847004005
20
103.7362961926
11
170.0123600670
21
103.4612961926
0
LINE
5
536
100
AcDbEntity
8
0
100
AcDbLine
62
7
6
CONTINUOUS
10
170.3868281075
20
103.4612961926
11
170.0591685721
21
103.7362961926
0
LINE
5
537
100
AcDbEntity
8
0
100
AcDbLine
62
7
6
CONTINUOUS
10
169.1229983398
20
102.4987961926
11
169.2166153499
21
102.4071294822
0
LINE
5
538
100
AcDbEntity
8
0
100
AcDbLine
62
7
6
CONTINUOUS
10
169.2634238550
20
92.5446294822
11
169.1229983398
21
92.7279628374
0
LINE
5
539
100
AcDbEntity
8
0
100
AcDbLine
62
7
6
CONTINUOUS
10
169.9655515620
20
92.4529629030
11
170.1059770772
21
92.2696294822
0
LINE
5
53A
100
AcDbEntity
8
0
100
AcDbLine
62
7
6
CONTINUOUS
10
168.2336366167
20
91.6279629030
11
168.3740621441
21
91.3987961926
0
LINE
5
53B
100
AcDbEntity
8
0
100
AcDbLine
62
7
6
CONTINUOUS
10
170.1995940873
20
131.4904627719
11
170.3400196024
21
131.7196294822
0
LINE
5
53C
100
AcDbEntity
8
0
100
AcDbLine
62
7
6
CONTINUOUS
10
170.0591685721
20
121.2154627719
11
170.2464025923
21
121.3987961926
0
LINE
5
53D
100
AcDbEntity
8
0
100
AcDbLine
62
7
6
CONTINUOUS
10
168.5144876757
20
117.4529629030
11
168.6081047186
21
117.5446294822
0
LINE
5
53E
100
AcDbEntity
8
0
100
AcDbLine
62
7
6
CONTINUOUS
10
168.7485302338
20
107.8196295478
11
168.5612961808
21
107.7279628374
0
LINE
5
53F
100
AcDbEntity
8
0
100
AcDbLine
62
7
6
CONTINUOUS
10
168.5612961808
20
107.4529629030
11
168.7485302338
21
107.5446294822
0
LINE
5
540
100
AcDbEntity
8
0
100
AcDbLine
62
7
6
CONTINUOUS
10
168.9825727591
20
106.1696296134
11
169.2166153499
21
106.2612961926
0
LINE
5
541
100
AcDbEntity
8
0
100
AcDbLine
62
7
6
CONTINUOUS
10
168.7017217287
20
102.4987961926
11
168.8421472439
21
102.5446294822
0
LINE
5
542
100
AcDbEntity
8
0
100
AcDbLine
62
7
6
CONTINUOUS
10
169.0761898347
20
131.1696296134
11
169.4974663803
21
131.1696296134
0
LINE
5
543
100
AcDbEntity
8
0
100
AcDbLine
62
7
6
CONTINUOUS
10
169.4506578752
20
131.3987961926
11
169.1229983398
21
131.3987961926
0
LINE
5
544
100
AcDbEntity
8
0
100
AcDbLine
62
7
6
CONTINUOUS
10
169.1229983398
20
132.5904629030
11
169.4506578752
21
132.5904629030
0
LINE
5
545
100
AcDbEntity
8
0
100
AcDbLine
62
7
6
CONTINUOUS
10
102.3868281075
20
132.7862961926
11
104.5868281075
21
132.7862961926
0
LINE
5
546
100
AcDbEntity
8
0
100
AcDbLine
62
7
6
CONTINUOUS
10
169.4974663803
20
132.8196295478
11
169.0761898347
21
132.8196295478
0
LINE
5
547
100
AcDbEntity
8
0
100
AcDbLine
62
7
6
CONTINUOUS
10
104.2123600670
20
133.0612961926
11
102.3868281075
21
133.0612961926
0
LINE
5
548
100
AcDbEntity
8
0
100
AcDbLine
62
7
6
CONTINUOUS
10
168.1868281075
20
133.1862961926
11
170.3868281075
21
133.1862961926
0
LINE
5
549
100
AcDbEntity
8
0
100
AcDbLine
62
7
6
CONTINUOUS
10
170.0591685721
20
122.7279628374
11
169.8719345519
21
122.7737961926
0
LINE
5
54A
100
AcDbEntity
8
0
100
AcDbLine
62
7
6
CONTINUOUS
10
168.7017217287
20
116.3987961926
11
168.6081047186
21
116.4446296134
0
LINE
5
54B
100
AcDbEntity
8
0
100
AcDbLine
62
7
6
CONTINUOUS
10
169.7783174106
20
116.4446296134
11
169.5910833904
21
116.5362961926
0
LINE
5
54C
100
AcDbEntity
8
0
100
AcDbLine
62
7
6
CONTINUOUS
10
169.6847004005
20
108.7362961926
11
170.0123600670
21
108.4612961926
0
LINE
5
54D
100
AcDbEntity
8
0
100
AcDbLine
62
7
6
CONTINUOUS
10
170.3868281075
20
108.4612961926
11
170.0591685721
21
108.7362961926
0
LINE
5
54E
100
AcDbEntity
8
0
100
AcDbLine
62
7
6
CONTINUOUS
10
168.5612961808
20
101.5362961926
11
168.4676791706
21
101.6737961926
0
LINE
5
54F
100
AcDbEntity
8
0
100
AcDbLine
62
7
6
CONTINUOUS
10
170.3400196024
20
92.3154629030
11
170.1995940873
21
92.5446294822
0
LINE
5
550
100
AcDbEntity
8
0
100
AcDbLine
62
7
6
CONTINUOUS
10
168.5612961808
20
91.5362961926
11
168.4676791706
21
91.7196294822
0
LINE
5
551
100
AcDbEntity
8
0
100
AcDbLine
62
7
6
CONTINUOUS
10
169.3102323600
20
91.5362961926
11
169.3570408651
21
91.4446296134
0
LINE
5
552
100
AcDbEntity
8
0
100
AcDbLine
62
7
6
CONTINUOUS
10
169.0761898347
20
92.4529629030
11
169.1698068449
21
92.2696294822
0
LINE
5
553
100
AcDbEntity
8
0
100
AcDbLine
62
7
6
CONTINUOUS
10
169.3102323600
20
92.4529629030
11
169.2634238550
21
92.5446294822
0
LINE
5
554
100
AcDbEntity
8
0
100
AcDbLine
62
7
6
CONTINUOUS
10
157.2868281075
20
88.0003578086
11
157.2868281075
21
137.1722345766
0
LINE
5
555
100
AcDbEntity
8
0
100
AcDbLine
62
7
6
CONTINUOUS
10
157.3042818431
20
137.1896883122
11
157.3042818431
21
87.9829040731
0
LINE
5
556
100
AcDbEntity
8
0
100
AcDbLine
62
9
6
CONTINUOUS
10
158.4054059610
20
86.5038606660
11
158.4054059610
21
138.6687317192
0
LINE
5
557
100
AcDbEntity
8
0
100
AcDbLine
62
7
6
CONTINUOUS
10
159.4053998686
20
137.6687378115
11
159.4053998686
21
87.5038545737
0
LINE
5
558
100
AcDbEntity
8
0
100
AcDbLine
62
7
6
CONTINUOUS
10
159.4333496195
20
87.4759048228
11
159.4333496195
21
137.6966875624
0
LINE
5
559
100
AcDbEntity
8
0
100
AcDbLine
62
7
6
CONTINUOUS
10
170.1059770772
20
121.6737961926
11
170.0123600670
21
121.5362961926
0
LINE
5
55A
100
AcDbEntity
8
0
100
AcDbLine
62
7
6
CONTINUOUS
10
168.4208706656
20
117.6821295478
11
168.3272536391
21
117.5446294822
0
LINE
5
55B
100
AcDbEntity
8
0
100
AcDbLine
62
7
6
CONTINUOUS
10
170.0591685721
20
116.2612961926
11
170.2464025923
21
116.4446296134
0
LINE
5
55C
100
AcDbEntity
8
0
100
AcDbLine
62
7
6
CONTINUOUS
10
168.5612961808
20
107.7279628374
11
168.3740621441
21
107.5904629030
0
LINE
5
55D
100
AcDbEntity
8
0
100
AcDbLine
62
7
6
CONTINUOUS
10
169.2166153499
20
106.5362961926
11
169.0761898347
21
106.4446296134
0
LINE
5
55E
100
AcDbEntity
8
0
100
AcDbLine
62
7
6
CONTINUOUS
10
168.7953387388
20
102.7737961926
11
168.5612961808
21
102.6821295478
0
LINE
5
55F
100
AcDbEntity
8
0
100
AcDbLine
62
7
6
CONTINUOUS
10
169.0293813297
20
101.1696296134
11
169.2634238550
21
101.2612961926
0
LINE
5
560
100
AcDbEntity
8
0
100
AcDbLine
62
7
6
CONTINUOUS
10
169.1229983398
20
101.4446296134
11
168.9825727591
21
101.3987961926
0
LINE
5
561
100
AcDbEntity
8
0
100
AcDbLine
62
7
6
CONTINUOUS
10
169.8719345519
20
101.2612961926
11
170.0123600670
21
101.3071296134
0
LINE
5
562
100
AcDbEntity
8
0
100
AcDbLine
62
7
6
CONTINUOUS
10
104.0719345519
20
126.6862961926
11
104.2591685721
21
126.7321294822
0
LINE
5
563
100
AcDbEntity
8
0
100
AcDbLine
62
7
6
CONTINUOUS
10
104.2591685721
20
133.3362961926
11
103.8847004005
21
133.3362961926
0
LINE
5
564
100
AcDbEntity
8
0
100
AcDbLine
62
7
6
CONTINUOUS
10
170.0123600670
20
133.4612961926
11
168.1868281075
21
133.4612961926
0
LINE
5
565
100
AcDbEntity
8
0
100
AcDbLine
62
7
6
CONTINUOUS
10
170.0591685721
20
133.7362961926
11
169.6847004005
21
133.7362961926
0
LINE
5
566
100
AcDbEntity
8
0
100
AcDbLine
62
7
6
CONTINUOUS
10
179.3868281075
20
134.1362961926
11
179.3372605554
21
134.1362961926
0
LINE
5
567
100
AcDbEntity
8
0
100
AcDbLine
62
7
6
CONTINUOUS
10
93.3868281075
20
134.1362961926
11
93.4363956596
21
134.1362961926
0
LINE
5
568
100
AcDbEntity
8
0
100
AcDbLine
62
7
6
CONTINUOUS
10
134.3868281075
20
135.3362961926
11
138.3868281075
21
135.3362961926
0
LINE
5
569
100
AcDbEntity
8
0
100
AcDbLine
62
7
6
CONTINUOUS
10
169.1229983398
20
131.3987961926
11
168.8421472439
21
131.4446296134
0
LINE
5
56A
100
AcDbEntity
8
0
100
AcDbLine
62
7
6
CONTINUOUS
10
169.7783174106
20
121.4446296134
11
169.5910833904
21
121.5362961926
0
LINE
5
56B
100
AcDbEntity
8
0
100
AcDbLine
62
7
6
CONTINUOUS
10
168.4208706656
20
116.3071296134
11
168.5612961808
21
116.2154627719
0
LINE
5
56C
100
AcDbEntity
8
0
100
AcDbLine
62
7
6
CONTINUOUS
10
169.4506578752
20
116.3529627719
11
169.5910833904
21
116.2612961926
0
LINE
5
56D
100
AcDbEntity
8
0
100
AcDbLine
62
7
6
CONTINUOUS
10
169.8719345519
20
117.5446294822
11
170.0123600670
21
117.4529629030
0
LINE
5
56E
100
AcDbEntity
8
0
100
AcDbLine
62
7
6
CONTINUOUS
10
169.6847004005
20
113.7362961926
11
170.0123600670
21
113.4612961926
0
LINE
5
56F
100
AcDbEntity
8
0
100
AcDbLine
62
7
6
CONTINUOUS
10
170.3868281075
20
113.4612961926
11
170.0591685721
21
113.7362961926
0
LINE
5
570
100
AcDbEntity
8
0
100
AcDbLine
62
7
6
CONTINUOUS
10
170.3868281075
20
111.7196294822
11
169.1229983398
21
112.8196295478
0
LINE
5
571
100
AcDbEntity
8
0
100
AcDbLine
62
7
6
CONTINUOUS
10
169.1229983398
20
112.4987961926
11
170.0123600670
21
111.7196294822
0
LINE
5
572
100
AcDbEntity
8
0
100
AcDbLine
62
7
6
CONTINUOUS
10
169.1698068449
20
107.4987961926
11
169.3102323600
21
107.3154629030
0
LINE
5
573
100
AcDbEntity
8
0
100
AcDbLine
62
7
6
CONTINUOUS
10
169.2166153499
20
102.4071294822
11
169.3102323600
21
102.2696294822
0
LINE
5
574
100
AcDbEntity
8
0
100
AcDbLine
62
7
6
CONTINUOUS
10
169.5442748853
20
102.3154629030
11
169.3570408651
21
102.5904629030
0
LINE
5
575
100
AcDbEntity
8
0
100
AcDbLine
62
7
6
CONTINUOUS
10
170.0123600670
20
102.4071294822
11
170.1059770772
21
102.2696294822
0
LINE
5
576
100
AcDbEntity
8
0
100
AcDbLine
62
7
6
CONTINUOUS
10
168.5612961808
20
106.5362961926
11
168.4676791706
21
106.6737961926
0
LINE
5
577
100
AcDbEntity
8
0
100
AcDbLine
62
7
6
CONTINUOUS
10
168.2336366167
20
101.6279629030
11
168.3740621441
21
101.3987961926
0
LINE
5
578
100
AcDbEntity
8
0
100
AcDbLine
62
7
6
CONTINUOUS
10
170.3400196024
20
102.3154629030
11
170.1995940873
21
102.5446294822
0
LINE
5
579
100
AcDbEntity
8
0
100
AcDbLine
62
9
6
CONTINUOUS
10
160.4333435272
20
86.4689539392
11
160.4333435272
21
138.7036384460
0
LINE
5
57A
100
AcDbEntity
8
0
100
AcDbLine
62
7
6
CONTINUOUS
10
166.3239838145
20
126.3783676624
11
166.3655959248
21
126.5864484975
0
LINE
5
57B
100
AcDbEntity
8
0
100
AcDbLine
62
7
6
CONTINUOUS
10
170.2464025923
20
121.3987961926
11
170.3400196024
21
121.5821294822
0
LINE
5
57C
100
AcDbEntity
8
0
100
AcDbLine
62
7
6
CONTINUOUS
10
168.3272536391
20
117.5446294822
11
168.2336366167
21
117.3612961926
0
LINE
5
57D
100
AcDbEntity
8
0
100
AcDbLine
62
7
6
CONTINUOUS
10
168.4676791706
20
117.3612961926
11
168.5144876757
21
117.4529629030
0
LINE
5
57E
100
AcDbEntity
8
0
100
AcDbLine
62
7
6
CONTINUOUS
10
169.1698068449
20
116.6279629030
11
169.0761898347
21
116.4904627719
0
LINE
5
57F
100
AcDbEntity
8
0
100
AcDbLine
62
7
6
CONTINUOUS
10
170.1059770772
20
116.6737961926
11
170.0123600670
21
116.5362961926
0
LINE
5
580
100
AcDbEntity
8
0
100
AcDbLine
62
7
6
CONTINUOUS
10
169.2166153499
20
106.2612961926
11
169.4038493701
21
106.3987961926
0
LINE
5
581
100
AcDbEntity
8
0
100
AcDbLine
62
7
6
CONTINUOUS
10
168.5612961808
20
102.6821295478
11
168.3740621441
21
102.5446294822
0
LINE
5
582
100
AcDbEntity
8
0
100
AcDbLine
62
7
6
CONTINUOUS
10
168.5612961808
20
102.4071294822
11
168.7017217287
21
102.4987961926
0
LINE
5
583
100
AcDbEntity
8
0
100
AcDbLine
62
7
6
CONTINUOUS
10
115.4868281075
20
137.1722345766
11
157.2868281075
21
137.1722345766
0
LINE
5
584
100
AcDbEntity
8
0
100
AcDbLine
62
7
6
CONTINUOUS
10
157.3042818431
20
137.1896883122
11
115.4693743719
21
137.1896883122
0
LINE
5
585
100
AcDbEntity
8
0
100
AcDbLine
62
9
6
CONTINUOUS
10
113.3682563464
20
137.6687378115
11
159.4053998686
21
137.6687378115
0
LINE
5
586
100
AcDbEntity
8
0
100
AcDbLine
62
9
6
CONTINUOUS
10
106.4496724005
20
137.7036445383
11
112.3403126878
21
137.7036445383
0
LINE
5
587
100
AcDbEntity
8
0
100
AcDbLine
62
9
6
CONTINUOUS
10
160.4333435272
20
137.7036445383
11
166.3239838145
21
137.7036445383
0
LINE
5
588
100
AcDbEntity
8
0
100
AcDbLine
62
9
6
CONTINUOUS
10
93.4531630732
20
137.7699673193
11
105.3903126878
21
137.7699673193
0
LINE
5
589
100
AcDbEntity
8
0
100
AcDbLine
62
9
6
CONTINUOUS
10
167.3833435272
20
137.7699673193
11
179.3204931418
21
137.7699673193
0
LINE
5
58A
100
AcDbEntity
8
0
100
AcDbLine
62
7
6
CONTINUOUS
10
114.3682502540
20
138.6687317192
11
158.4054059610
21
138.6687317192
0
LINE
5
58B
100
AcDbEntity
8
0
100
AcDbLine
62
7
6
CONTINUOUS
10
107.4496663082
20
138.7036384460
11
112.3426518038
21
138.7036384460
0
LINE
5
58C
100
AcDbEntity
8
0
100
AcDbLine
62
7
6
CONTINUOUS
10
160.4335665339
20
138.7036384460
11
165.3239899069
21
138.7036384460
0
LINE
5
58D
100
AcDbEntity
8
0
100
AcDbLine
62
7
6
CONTINUOUS
10
94.4531569808
20
138.7699612269
11
105.3926518051
21
138.7699612269
0
LINE
5
58E
100
AcDbEntity
8
0
100
AcDbLine
62
7
6
CONTINUOUS
10
167.3835665339
20
138.7699612269
11
178.3204992342
21
138.7699612269
0
LINE
5
58F
100
AcDbEntity
8
0
100
AcDbLine
62
7
6
CONTINUOUS
10
139.6118281075
20
138.8065416987
11
133.1618281075
21
138.8065416987
0
LINE
5
590
100
AcDbEntity
8
0
100
AcDbLine
62
7
6
CONTINUOUS
10
133.1618281075
20
138.8224242594
11
139.6118281075
21
138.8224242594
0
LINE
5
591
100
AcDbEntity
8
0
100
AcDbLine
62
7
6
CONTINUOUS
10
94.3868220152
20
138.8362961926
11
178.3868341998
21
138.8362961926
0
LINE
5
592
100
AcDbEntity
8
0
100
AcDbLine
62
7
6
CONTINUOUS
10
169.4506578752
20
132.5904629030
11
169.7315089056
21
132.5446294822
0
LINE
5
593
100
AcDbEntity
8
0
100
AcDbLine
62
7
6
CONTINUOUS
10
168.8421472439
20
131.2154627719
11
169.0761898347
21
131.1696296134
0
LINE
5
594
100
AcDbEntity
8
0
100
AcDbLine
62
7
6
CONTINUOUS
10
169.7315089056
20
132.7737961926
11
169.4974663803
21
132.8196295478
0
LINE
5
595
100
AcDbEntity
8
0
100
AcDbLine
62
7
6
CONTINUOUS
10
169.4506578752
20
121.3071296134
11
169.5910833904
21
121.2154627719
0
LINE
5
596
100
AcDbEntity
8
0
100
AcDbLine
62
7
6
CONTINUOUS
10
169.8719345519
20
122.5446294822
11
170.0123600670
21
122.4529629030
0
LINE
5
597
100
AcDbEntity
8
0
100
AcDbLine
62
7
6
CONTINUOUS
10
169.6847004005
20
118.7362961926
11
170.0123600670
21
118.4612961926
0
LINE
5
598
100
AcDbEntity
8
0
100
AcDbLine
62
7
6
CONTINUOUS
10
170.3868281075
20
118.4612961926
11
170.0591685721
21
118.7362961926
0
LINE
5
599
100
AcDbEntity
8
0
100
AcDbLine
62
7
6
CONTINUOUS
10
168.6081047186
20
116.4446296134
11
168.5144876757
21
116.5362961926
0
LINE
5
59A
100
AcDbEntity
8
0
100
AcDbLine
62
7
6
CONTINUOUS
10
169.5910833904
20
116.5362961926
11
169.4974663803
21
116.6279629030
0
LINE
5
59B
100
AcDbEntity
8
0
100
AcDbLine
62
7
6
CONTINUOUS
10
170.2464025923
20
117.5446294822
11
170.0591685721
21
117.7279628374
0
LINE
5
59C
100
AcDbEntity
8
0
100
AcDbLine
62
7
6
CONTINUOUS
10
168.2336366167
20
106.6279629030
11
168.3740621441
21
106.3987961926
0
LINE
5
59D
100
AcDbEntity
8
0
100
AcDbLine
62
7
6
CONTINUOUS
10
169.5442748853
20
107.3612961926
11
169.4038493701
21
107.5904629030
0
LINE
5
59E
100
AcDbEntity
8
0
100
AcDbLine
62
7
6
CONTINUOUS
10
168.4676791706
20
101.6737961926
11
168.4208706656
21
101.8112961926
0
LINE
5
59F
100
AcDbEntity
8
0
100
AcDbLine
62
7
6
CONTINUOUS
10
168.4676791706
20
91.7196294822
11
168.4208706656
21
91.9029629030
0
LINE
5
5A0
100
AcDbEntity
8
0
100
AcDbLine
62
7
6
CONTINUOUS
10
169.1698068449
20
92.2696294822
11
169.2166153499
21
92.0862961926
0
LINE
5
5A1
100
AcDbEntity
8
0
100
AcDbLine
62
7
6
CONTINUOUS
10
169.4506578752
20
91.7196294822
11
169.4038493701
21
91.9029629030
0
LINE
5
5A2
100
AcDbEntity
8
0
100
AcDbLine
62
7
6
CONTINUOUS
10
168.1868281075
20
91.8571294822
11
168.2336366167
21
91.6279629030
0
LINE
5
5A3
100
AcDbEntity
8
0
100
AcDbLine
62
7
6
CONTINUOUS
10
166.3655959248
20
98.5861438878
11
166.3239838145
21
98.7942247228
0
LINE
5
5A4
100
AcDbEntity
8
0
100
AcDbLine
62
7
6
CONTINUOUS
10
164.8868281075
20
96.3609735270
11
164.8868281075
21
98.8116188582
0
LINE
5
5A5
100
AcDbEntity
8
0
100
AcDbLine
62
7
6
CONTINUOUS
10
164.8868281075
20
102.3609735270
11
164.8868281075
21
104.8116188582
0
LINE
5
5A6
100
AcDbEntity
8
0
100
AcDbLine
62
7
6
CONTINUOUS
10
164.8868281075
20
108.3609735270
11
164.8868281075
21
110.8116188582
0
LINE
5
5A7
100
AcDbEntity
8
0
100
AcDbLine
62
7
6
CONTINUOUS
10
164.8868281075
20
114.3609735270
11
164.8868281075
21
116.8116188582
0
LINE
5
5A8
100
AcDbEntity
8
0
100
AcDbLine
62
7
6
CONTINUOUS
10
164.8868281075
20
120.3609735270
11
164.8868281075
21
122.8116188582
0
LINE
5
5A9
100
AcDbEntity
8
0
100
AcDbLine
62
7
6
CONTINUOUS
10
164.8868281075
20
126.3609735270
11
164.8868281075
21
128.8116188582
0
LINE
5
5AA
100
AcDbEntity
8
0
100
AcDbLine
62
9
6
CONTINUOUS
10
165.3239899069
20
138.7036384460
11
165.3239899069
21
128.8116188582
0
LINE
5
5AB
100
AcDbEntity
8
0
100
AcDbLine
62
9
6
CONTINUOUS
10
165.3239899069
20
126.3609735270
11
165.3239899069
21
122.8116188582
0
LINE
5
5AC
100
AcDbEntity
8
0
100
AcDbLine
62
9
6
CONTINUOUS
10
165.3239899069
20
120.3609735270
11
165.3239899069
21
116.8116188582
0
LINE
5
5AD
100
AcDbEntity
8
0
100
AcDbLine
62
9
6
CONTINUOUS
10
165.3239899069
20
114.3609735270
11
165.3239899069
21
110.8116188582
0
LINE
5
5AE
100
AcDbEntity
8
0
100
AcDbLine
62
9
6
CONTINUOUS
10
165.3239899069
20
108.3609735270
11
165.3239899069
21
104.8116188582
0
LINE
5
5AF
100
AcDbEntity
8
0
100
AcDbLine
62
9
6
CONTINUOUS
10
165.3239899069
20
102.3609735270
11
165.3239899069
21
98.8116188582
0
LINE
5
5B0
100
AcDbEntity
8
0
100
AcDbLine
62
9
6
CONTINUOUS
10
165.3239899069
20
86.4689539392
11
165.3239899069
21
96.3609735270
0
LINE
5
5B1
100
AcDbEntity
8
0
100
AcDbLine
62
7
6
CONTINUOUS
10
166.3239838145
20
137.7036445383
11
166.3239838145
21
128.7942247228
0
LINE
5
5B2
100
AcDbEntity
8
0
100
AcDbLine
62
7
6
CONTINUOUS
10
166.3239838145
20
126.3783676624
11
166.3239838145
21
122.7942247228
0
LINE
5
5B3
100
AcDbEntity
8
0
100
AcDbLine
62
7
6
CONTINUOUS
10
166.3239838145
20
120.3783676624
11
166.3239838145
21
116.7942247228
0
LINE
5
5B4
100
AcDbEntity
8
0
100
AcDbLine
62
7
6
CONTINUOUS
10
166.3239838145
20
114.3783676624
11
166.3239838145
21
110.7942247228
0
LINE
5
5B5
100
AcDbEntity
8
0
100
AcDbLine
62
7
6
CONTINUOUS
10
166.3239838145
20
108.3783676624
11
166.3239838145
21
104.7942247228
0
LINE
5
5B6
100
AcDbEntity
8
0
100
AcDbLine
62
7
6
CONTINUOUS
10
166.3239838145
20
102.3783676624
11
166.3239838145
21
98.7942247228
0
LINE
5
5B7
100
AcDbEntity
8
0
100
AcDbLine
62
7
6
CONTINUOUS
10
166.3239838145
20
96.3783676624
11
166.3239838145
21
87.4689478469
0
LINE
5
5B8
100
AcDbEntity
8
0
100
AcDbLine
62
7
6
CONTINUOUS
10
166.3833496195
20
87.4095820419
11
166.3833496195
21
137.7630103434
0
LINE
5
5B9
100
AcDbEntity
8
0
100
AcDbLine
62
7
6
CONTINUOUS
10
168.2336366167
20
132.2696294822
11
168.1868281075
21
131.9946294822
0
LINE
5
5BA
100
AcDbEntity
8
0
100
AcDbLine
62
7
6
CONTINUOUS
10
170.3400196024
20
131.7196294822
11
170.3868281075
21
131.9946294822
0
LINE
5
5BB
100
AcDbEntity
8
0
100
AcDbLine
62
7
6
CONTINUOUS
10
166.3239838145
20
120.3783676624
11
166.3655959248
21
120.5864484975
0
LINE
5
5BC
100
AcDbEntity
8
0
100
AcDbLine
62
7
6
CONTINUOUS
10
166.3239838145
20
114.3783676624
11
166.3655959248
21
114.5864484975
0
LINE
5
5BD
100
AcDbEntity
8
0
100
AcDbLine
62
7
6
CONTINUOUS
10
166.3239838145
20
108.3783676624
11
166.3655959248
21
108.5864484975
0
LINE
5
5BE
100
AcDbEntity
8
0
100
AcDbLine
62
7
6
CONTINUOUS
10
168.4208706656
20
131.9946294822
11
168.4676791706
21
132.2237961926
0
LINE
5
5BF
100
AcDbEntity
8
0
100
AcDbLine
62
7
6
CONTINUOUS
10
170.1527855822
20
131.9946294822
11
170.1059770772
21
131.7654629030
0
LINE
5
5C0
100
AcDbEntity
8
0
100
AcDbLine
62
7
6
CONTINUOUS
10
168.4208706656
20
117.1321294822
11
168.4676791706
21
117.3612961926
0
LINE
5
5C1
100
AcDbEntity
8
0
100
AcDbLine
62
7
6
CONTINUOUS
10
168.2336366167
20
117.3612961926
11
168.1868281075
21
117.1779629030
0
LINE
5
5C2
100
AcDbEntity
8
0
100
AcDbLine
62
7
6
CONTINUOUS
10
169.2166153499
20
116.3071296134
11
169.3102323600
21
116.5362961926
0
LINE
5
5C3
100
AcDbEntity
8
0
100
AcDbLine
62
7
6
CONTINUOUS
10
170.2464025923
20
116.4446296134
11
170.3400196024
21
116.6279629030
0
LINE
5
5C4
100
AcDbEntity
8
0
100
AcDbLine
62
7
6
CONTINUOUS
10
168.3740621441
20
107.5904629030
11
168.2336366167
21
107.3612961926
0
LINE
5
5C5
100
AcDbEntity
8
0
100
AcDbLine
62
7
6
CONTINUOUS
10
168.4676791706
20
107.3154629030
11
168.5612961808
21
107.4529629030
0
LINE
5
5C6
100
AcDbEntity
8
0
100
AcDbLine
62
7
6
CONTINUOUS
10
169.3102323600
20
106.6737961926
11
169.2166153499
21
106.5362961926
0
LINE
5
5C7
100
AcDbEntity
8
0
100
AcDbLine
62
7
6
CONTINUOUS
10
170.0123600670
20
101.3071296134
11
170.1995940873
21
101.4446296134
0
LINE
5
5C8
100
AcDbEntity
8
0
100
AcDbLine
62
7
6
CONTINUOUS
10
170.0123600670
20
101.5821294822
11
169.8719345519
21
101.4904627719
0
LINE
5
5C9
100
AcDbEntity
8
0
100
AcDbLine
62
7
6
CONTINUOUS
10
168.7485302338
20
92.8196295478
11
168.5144876757
21
92.7279628374
0
POLYLINE
5
5CA
100
AcDbEntity
8
0
100
AcDb2dPolyline
62
7
6
CONTINUOUS
66
1
70
0
0
VERTEX
5
5CB
100
AcDbEntity
8
0
100
AcDbVertex
62
7
6
CONTINUOUS
100
AcDb2dVertex
10
114.3682502540
20
138.6687317192
0
VERTEX
5
5CC
100
AcDbEntity
8
0
100
AcDbVertex
62
7
6
CONTINUOUS
100
AcDb2dVertex
10
114.0623829233
20
138.6208018298
0
VERTEX
5
5CD
100
AcDbEntity
8
0
100
AcDbVertex
62
7
6
CONTINUOUS
100
AcDb2dVertex
10
113.7826279289
20
138.4793072039
0
VERTEX
5
5CE
100
AcDbEntity
8
0
100
AcDbVertex
62
7
6
CONTINUOUS
100
AcDb2dVertex
10
113.5604334484
20
138.2581512664
0
VERTEX
5
5CF
100
AcDbEntity
8
0
100
AcDbVertex
62
7
6
CONTINUOUS
100
AcDb2dVertex
10
113.4175156539
20
137.9787125747
0
VERTEX
5
5D0
100
AcDbEntity
8
0
100
AcDbVertex
62
7
6
CONTINUOUS
100
AcDb2dVertex
10
113.3682563464
20
137.6687378115
0
SEQEND
5
5D1
100
AcDbEntity
8
0
0
POLYLINE
5
5D2
100
AcDbEntity
8
0
100
AcDb2dPolyline
62
7
6
CONTINUOUS
66
1
70
0
0
VERTEX
5
5D3
100
AcDbEntity
8
0
100
AcDbVertex
62
7
6
CONTINUOUS
100
AcDb2dVertex
10
107.4496663082
20
138.7036384460
0
VERTEX
5
5D4
100
AcDbEntity
8
0
100
AcDbVertex
62
7
6
CONTINUOUS
100
AcDb2dVertex
10
107.1437989775
20
138.6557085566
0
VERTEX
5
5D5
100
AcDbEntity
8
0
100
AcDbVertex
62
7
6
CONTINUOUS
100
AcDb2dVertex
10
106.8640439830
20
138.5142139307
0
VERTEX
5
5D6
100
AcDbEntity
8
0
100
AcDbVertex
62
7
6
CONTINUOUS
100
AcDb2dVertex
10
106.6418495026
20
138.2930579933
0
VERTEX
5
5D7
100
AcDbEntity
8
0
100
AcDbVertex
62
7
6
CONTINUOUS
100
AcDb2dVertex
10
106.4989317081
20
138.0136193015
0
VERTEX
5
5D8
100
AcDbEntity
8
0
100
AcDbVertex
62
7
6
CONTINUOUS
100
AcDb2dVertex
10
106.4496724005
20
137.7036445383
0
SEQEND
5
5D9
100
AcDbEntity
8
0
0
POLYLINE
5
5DA
100
AcDbEntity
8
0
100
AcDb2dPolyline
62
7
6
CONTINUOUS
66
1
70
0
0
VERTEX
5
5DB
100
AcDbEntity
8
0
100
AcDbVertex
62
7
6
CONTINUOUS
100
AcDb2dVertex
10
165.3239899069
20
138.7036384460
0
VERTEX
5
5DC
100
AcDbEntity
8
0
100
AcDbVertex
62
7
6
CONTINUOUS
100
AcDb2dVertex
10
165.6330027010
20
138.6546922483
0
VERTEX
5
5DD
100
AcDbEntity
8
0
100
AcDbVertex
62
7
6
CONTINUOUS
100
AcDb2dVertex
10
165.9117676352
20
138.5126523068
0
VERTEX
5
5DE
100
AcDbEntity
8
0
100
AcDbVertex
62
7
6
CONTINUOUS
100
AcDb2dVertex
10
166.1329976753
20
138.2914222667
0
VERTEX
5
5DF
100
AcDbEntity
8
0
100
AcDbVertex
62
7
6
CONTINUOUS
100
AcDb2dVertex
10
166.2750376168
20
138.0126573324
0
VERTEX
5
5E0
100
AcDbEntity
8
0
100
AcDbVertex
62
7
6
CONTINUOUS
100
AcDb2dVertex
10
166.3239838145
20
137.7036445383
0
SEQEND
5
5E1
100
AcDbEntity
8
0
0
POLYLINE
5
5E2
100
AcDbEntity
8
0
100
AcDb2dPolyline
62
7
6
CONTINUOUS
66
1
70
0
0
VERTEX
5
5E3
100
AcDbEntity
8
0
100
AcDbVertex
62
7
6
CONTINUOUS
100
AcDb2dVertex
10
158.4054059610
20
138.6687317192
0
VERTEX
5
5E4
100
AcDbEntity
8
0
100
AcDbVertex
62
7
6
CONTINUOUS
100
AcDb2dVertex
10
158.7153807242
20
138.6194724116
0
VERTEX
5
5E5
100
AcDbEntity
8
0
100
AcDbVertex
62
7
6
CONTINUOUS
100
AcDb2dVertex
10
158.9948194159
20
138.4765546171
0
VERTEX
5
5E6
100
AcDbEntity
8
0
100
AcDbVertex
62
7
6
CONTINUOUS
100
AcDb2dVertex
10
159.2159753534
20
138.2543601367
0
VERTEX
5
5E7
100
AcDbEntity
8
0
100
AcDbVertex
62
7
6
CONTINUOUS
100
AcDb2dVertex
10
159.3574699793
20
137.9746051422
0
VERTEX
5
5E8
100
AcDbEntity
8
0
100
AcDbVertex
62
7
6
CONTINUOUS
100
AcDb2dVertex
10
159.4053998686
20
137.6687378115
0
SEQEND
5
5E9
100
AcDbEntity
8
0
0
LINE
5
5EA
100
AcDbEntity
8
0
100
AcDbLine
62
7
6
CONTINUOUS
10
168.7017217287
20
131.2612961926
11
168.8421472439
21
131.2154627719
0
LINE
5
5EB
100
AcDbEntity
8
0
100
AcDbLine
62
7
6
CONTINUOUS
10
169.8719345519
20
132.7279628374
11
169.7315089056
21
132.7737961926
0
LINE
5
5EC
100
AcDbEntity
8
0
100
AcDbLine
62
7
6
CONTINUOUS
10
169.6847004005
20
123.7362961926
11
170.0123600670
21
123.4612961926
0
LINE
5
5ED
100
AcDbEntity
8
0
100
AcDbLine
62
7
6
CONTINUOUS
10
170.3868281075
20
123.4612961926
11
170.0591685721
21
123.7362961926
0
LINE
5
5EE
100
AcDbEntity
8
0
100
AcDbLine
62
7
6
CONTINUOUS
10
169.5910833904
20
121.5362961926
11
168.4208706656
21
122.8196295478
0
LINE
5
5EF
100
AcDbEntity
8
0
100
AcDbLine
62
7
6
CONTINUOUS
10
168.4208706656
20
122.4529629030
11
169.4506578752
21
121.3071296134
0
LINE
5
5F0
100
AcDbEntity
8
0
100
AcDbLine
62
7
6
CONTINUOUS
10
169.3102323600
20
116.5362961926
11
169.4506578752
21
116.3529627719
0
LINE
5
5F1
100
AcDbEntity
8
0
100
AcDbLine
62
7
6
CONTINUOUS
10
168.3272536391
20
116.4446296134
11
168.4208706656
21
116.3071296134
0
LINE
5
5F2
100
AcDbEntity
8
0
100
AcDbLine
62
7
6
CONTINUOUS
10
170.0123600670
20
117.4529629030
11
170.1059770772
21
117.3154629030
0
LINE
5
5F3
100
AcDbEntity
8
0
100
AcDbLine
62
7
6
CONTINUOUS
10
168.2336366167
20
116.6279629030
11
168.3272536391
21
116.4446296134
0
LINE
5
5F4
100
AcDbEntity
8
0
100
AcDbLine
62
7
6
CONTINUOUS
10
168.5144876757
20
116.5362961926
11
168.4676791706
21
116.6279629030
0
LINE
5
5F5
100
AcDbEntity
8
0
100
AcDbLine
62
7
6
CONTINUOUS
10
169.3102323600
20
102.2696294822
11
169.3570408651
21
102.1321294822
0
LINE
5
5F6
100
AcDbEntity
8
0
100
AcDbLine
62
7
6
CONTINUOUS
10
170.1059770772
20
102.2696294822
11
170.1527855822
21
102.1321294822
0
LINE
5
5F7
100
AcDbEntity
8
0
100
AcDbLine
62
7
6
CONTINUOUS
10
170.1059770772
20
92.2696294822
11
170.1527855822
21
92.0862961926
0
LINE
5
5F8
100
AcDbEntity
8
0
100
AcDbLine
62
7
6
CONTINUOUS
10
168.4676791706
20
106.6737961926
11
168.4208706656
21
106.8571294822
0
LINE
5
5F9
100
AcDbEntity
8
0
100
AcDbLine
62
7
6
CONTINUOUS
10
169.3102323600
20
107.3154629030
11
169.3570408651
21
107.1321294822
0
LINE
5
5FA
100
AcDbEntity
8
0
100
AcDbLine
62
7
6
CONTINUOUS
10
168.1868281075
20
101.8571294822
11
168.2336366167
21
101.6279629030
0
LINE
5
5FB
100
AcDbEntity
8
0
100
AcDbLine
62
7
6
CONTINUOUS
10
170.3868281075
20
92.0862961926
11
170.3400196024
21
92.3154629030
0
LINE
5
5FC
100
AcDbEntity
8
0
100
AcDbLine
62
7
6
CONTINUOUS
10
168.1868281075
20
106.8571294822
11
168.2336366167
21
106.6279629030
0
LINE
5
5FD
100
AcDbEntity
8
0
100
AcDbLine
62
7
6
CONTINUOUS
10
169.5910833904
20
102.0862961926
11
169.5442748853
21
102.3154629030
0
LINE
5
5FE
100
AcDbEntity
8
0
100
AcDbLine
62
7
6
CONTINUOUS
10
166.3655959248
20
104.5861438878
11
166.3239838145
21
104.7942247228
0
LINE
5
5FF
100
AcDbEntity
8
0
100
AcDbLine
62
7
6
CONTINUOUS
10
166.3655959248
20
110.5861438878
11
166.3239838145
21
110.7942247228
0
LINE
5
600
100
AcDbEntity
8
0
100
AcDbLine
62
7
6
CONTINUOUS
10
166.3655959248
20
116.5861438878
11
166.3239838145
21
116.7942247228
0
LINE
5
601
100
AcDbEntity
8
0
100
AcDbLine
62
9
6
CONTINUOUS
10
167.3833435272
20
86.4026311583
11
167.3833435272
21
138.7699612269
0
LINE
5
602
100
AcDbEntity
8
0
100
AcDbLine
62
7
6
CONTINUOUS
10
168.1868281075
20
133.4612961926
11
168.1868281075
21
133.1862961926
0
LINE
5
603
100
AcDbEntity
8
0
100
AcDbLine
62
7
6
CONTINUOUS
10
168.1868281075
20
128.4612961926
11
168.1868281075
21
128.1862961926
0
LINE
5
604
100
AcDbEntity
8
0
100
AcDbLine
62
7
6
CONTINUOUS
10
168.1868281075
20
127.5446294822
11
168.1868281075
21
127.2696294822
0
LINE
5
605
100
AcDbEntity
8
0
100
AcDbLine
62
7
6
CONTINUOUS
10
168.1868281075
20
123.4612961926
11
168.1868281075
21
123.1862961926
0
LINE
5
606
100
AcDbEntity
8
0
100
AcDbLine
62
7
6
CONTINUOUS
10
168.1868281075
20
122.8196295478
11
168.1868281075
21
121.1696296134
0
LINE
5
607
100
AcDbEntity
8
0
100
AcDbLine
62
7
6
CONTINUOUS
10
168.1868281075
20
118.4612961926
11
168.1868281075
21
118.1862961926
0
LINE
5
608
100
AcDbEntity
8
0
100
AcDbLine
62
7
6
CONTINUOUS
10
168.1868281075
20
117.1779629030
11
168.1868281075
21
116.8112961926
0
LINE
5
609
100
AcDbEntity
8
0
100
AcDbLine
62
7
6
CONTINUOUS
10
168.1868281075
20
113.4612961926
11
168.1868281075
21
113.1862961926
0
LINE
5
60A
100
AcDbEntity
8
0
100
AcDbLine
62
7
6
CONTINUOUS
10
168.1868281075
20
111.7196294822
11
168.1868281075
21
111.4446296134
0
LINE
5
60B
100
AcDbEntity
8
0
100
AcDbLine
62
7
6
CONTINUOUS
10
168.1868281075
20
108.4612961926
11
168.1868281075
21
108.1862961926
0
LINE
5
60C
100
AcDbEntity
8
0
100
AcDbLine
62
7
6
CONTINUOUS
10
168.1868281075
20
107.1321294822
11
168.1868281075
21
106.8571294822
0
LINE
5
60D
100
AcDbEntity
8
0
100
AcDbLine
62
7
6
CONTINUOUS
10
168.1868281075
20
103.4612961926
11
168.1868281075
21
103.1862961926
0
LINE
5
60E
100
AcDbEntity
8
0
100
AcDbLine
62
7
6
CONTINUOUS
10
168.1868281075
20
102.0862961926
11
168.1868281075
21
101.8571294822
0
LINE
5
60F
100
AcDbEntity
8
0
100
AcDbLine
62
7
6
CONTINUOUS
10
168.1868281075
20
98.4612961926
11
168.1868281075
21
98.1862961926
0
LINE
5
610
100
AcDbEntity
8
0
100
AcDbLine
62
7
6
CONTINUOUS
10
168.1868281075
20
97.3612961926
11
168.1868281075
21
97.0862961926
0
LINE
5
611
100
AcDbEntity
8
0
100
AcDbLine
62
7
6
CONTINUOUS
10
168.1868281075
20
93.4612961926
11
168.1868281075
21
93.1862961926
0
LINE
5
612
100
AcDbEntity
8
0
100
AcDbLine
62
7
6
CONTINUOUS
10
168.1868281075
20
92.1321294822
11
168.1868281075
21
91.8571294822
0
LINE
5
613
100
AcDbEntity
8
0
100
AcDbLine
62
7
6
CONTINUOUS
10
168.4208706656
20
91.9029629030
11
168.4208706656
21
92.0862961926
0
LINE
5
614
100
AcDbEntity
8
0
100
AcDbLine
62
7
6
CONTINUOUS
10
168.4208706656
20
101.8112961926
11
168.4208706656
21
102.1321294822
0
LINE
5
615
100
AcDbEntity
8
0
100
AcDbLine
62
7
6
CONTINUOUS
10
168.4208706656
20
106.8571294822
11
168.4208706656
21
107.1321294822
0
LINE
5
616
100
AcDbEntity
8
0
100
AcDbLine
62
7
6
CONTINUOUS
10
168.4208706656
20
116.8571294822
11
168.4208706656
21
117.1321294822
0
LINE
5
617
100
AcDbEntity
8
0
100
AcDbLine
62
7
6
CONTINUOUS
10
168.4208706656
20
121.1696296134
11
168.4208706656
21
122.4529629030
0
LINE
5
618
100
AcDbEntity
8
0
100
AcDbLine
62
7
6
CONTINUOUS
10
168.7017217287
20
117.5904629030
11
168.7017217287
21
117.8196295478
0
LINE
5
619
100
AcDbEntity
8
0
100
AcDbLine
62
7
6
CONTINUOUS
10
168.7485302338
20
107.5446294822
11
168.7485302338
21
107.8196295478
0
LINE
5
61A
100
AcDbEntity
8
0
100
AcDbLine
62
7
6
CONTINUOUS
10
168.8421472439
20
112.8196295478
11
168.8421472439
21
111.7196294822
0
LINE
5
61B
100
AcDbEntity
8
0
100
AcDbLine
62
7
6
CONTINUOUS
10
168.8421472439
20
111.4446296134
11
168.8421472439
21
110.9862961926
0
LINE
5
61C
100
AcDbEntity
8
0
100
AcDbLine
62
7
6
CONTINUOUS
10
169.1229983398
20
110.9862961926
11
169.1229983398
21
111.4446296134
0
LINE
5
61D
100
AcDbEntity
8
0
100
AcDbLine
62
7
6
CONTINUOUS
10
169.1229983398
20
111.7196294822
11
169.1229983398
21
112.4987961926
0
LINE
5
61E
100
AcDbEntity
8
0
100
AcDbLine
62
7
6
CONTINUOUS
10
169.1698068449
20
107.8196295478
11
169.1698068449
21
107.4987961926
0
LINE
5
61F
100
AcDbEntity
8
0
100
AcDbLine
62
7
6
CONTINUOUS
10
169.2166153499
20
117.0862961926
11
169.2166153499
21
116.9029629030
0
LINE
5
620
100
AcDbEntity
8
0
100
AcDbLine
62
7
6
CONTINUOUS
10
169.2166153499
20
92.0862961926
11
169.2166153499
21
91.9029629030
0
LINE
5
621
100
AcDbEntity
8
0
100
AcDbLine
62
7
6
CONTINUOUS
10
169.3570408651
20
107.1321294822
11
169.3570408651
21
106.8571294822
0
LINE
5
622
100
AcDbEntity
8
0
100
AcDbLine
62
7
6
CONTINUOUS
10
169.3570408651
20
102.1321294822
11
169.3570408651
21
101.8112961926
0
LINE
5
623
100
AcDbEntity
8
0
100
AcDbLine
62
7
6
CONTINUOUS
10
169.4038493701
20
91.9029629030
11
169.4038493701
21
92.0862961926
0
LINE
5
624
100
AcDbEntity
8
0
100
AcDbLine
62
7
6
CONTINUOUS
10
169.4038493701
20
116.9029629030
11
169.4038493701
21
117.0862961926
0
LINE
5
625
100
AcDbEntity
8
0
100
AcDbLine
62
7
6
CONTINUOUS
10
169.5910833904
20
101.8571294822
11
169.5910833904
21
102.0862961926
0
LINE
5
626
100
AcDbEntity
8
0
100
AcDbLine
62
7
6
CONTINUOUS
10
169.5910833904
20
106.8571294822
11
169.5910833904
21
107.1321294822
0
LINE
5
627
100
AcDbEntity
8
0
100
AcDbLine
62
7
6
CONTINUOUS
10
169.8719345519
20
122.7737961926
11
169.8719345519
21
122.5446294822
0
LINE
5
628
100
AcDbEntity
8
0
100
AcDbLine
62
7
6
CONTINUOUS
10
169.8719345519
20
117.7737961926
11
169.8719345519
21
117.5446294822
0
LINE
5
629
100
AcDbEntity
8
0
100
AcDbLine
62
7
6
CONTINUOUS
10
169.8719345519
20
101.4904627719
11
169.8719345519
21
101.2612961926
0
LINE
5
62A
100
AcDbEntity
8
0
100
AcDbLine
62
7
6
CONTINUOUS
10
170.1527855822
20
122.0862961926
11
170.1527855822
21
121.9029629030
0
LINE
5
62B
100
AcDbEntity
8
0
100
AcDbLine
62
7
6
CONTINUOUS
10
170.1527855822
20
117.0862961926
11
170.1527855822
21
116.9029629030
0
LINE
5
62C
100
AcDbEntity
8
0
100
AcDbLine
62
7
6
CONTINUOUS
10
170.1527855822
20
107.5904629030
11
170.1527855822
21
106.2612961926
0
LINE
5
62D
100
AcDbEntity
8
0
100
AcDbLine
62
7
6
CONTINUOUS
10
170.1527855822
20
102.1321294822
11
170.1527855822
21
101.8571294822
0
LINE
5
62E
100
AcDbEntity
8
0
100
AcDbLine
62
7
6
CONTINUOUS
10
170.1527855822
20
97.8196295478
11
170.1527855822
21
96.4446296134
0
LINE
5
62F
100
AcDbEntity
8
0
100
AcDbLine
62
7
6
CONTINUOUS
10
170.1527855822
20
92.0862961926
11
170.1527855822
21
91.9029629030
0
LINE
5
630
100
AcDbEntity
8
0
100
AcDbLine
62
7
6
CONTINUOUS
10
170.3868281075
20
91.9029629030
11
170.3868281075
21
92.0862961926
0
LINE
5
631
100
AcDbEntity
8
0
100
AcDbLine
62
7
6
CONTINUOUS
10
170.3868281075
20
93.1862961926
11
170.3868281075
21
93.4612961926
0
LINE
5
632
100
AcDbEntity
8
0
100
AcDbLine
62
7
6
CONTINUOUS
10
170.3868281075
20
96.1696296134
11
170.3868281075
21
97.8196295478
0
LINE
5
633
100
AcDbEntity
8
0
100
AcDbLine
62
7
6
CONTINUOUS
10
170.3868281075
20
98.1862961926
11
170.3868281075
21
98.4612961926
0
LINE
5
634
100
AcDbEntity
8
0
100
AcDbLine
62
7
6
CONTINUOUS
10
170.3868281075
20
101.9029629030
11
170.3868281075
21
102.0862961926
0
LINE
5
635
100
AcDbEntity
8
0
100
AcDbLine
62
7
6
CONTINUOUS
10
170.3868281075
20
103.1862961926
11
170.3868281075
21
103.4612961926
0
LINE
5
636
100
AcDbEntity
8
0
100
AcDbLine
62
7
6
CONTINUOUS
10
170.3868281075
20
106.2612961926
11
170.3868281075
21
107.8196295478
0
LINE
5
637
100
AcDbEntity
8
0
100
AcDbLine
62
7
6
CONTINUOUS
10
170.3868281075
20
108.1862961926
11
170.3868281075
21
108.4612961926
0
LINE
5
638
100
AcDbEntity
8
0
100
AcDbLine
62
7
6
CONTINUOUS
10
170.3868281075
20
111.4446296134
11
170.3868281075
21
111.7196294822
0
LINE
5
639
100
AcDbEntity
8
0
100
AcDbLine
62
7
6
CONTINUOUS
10
170.3868281075
20
113.1862961926
11
170.3868281075
21
113.4612961926
0
LINE
5
63A
100
AcDbEntity
8
0
100
AcDbLine
62
7
6
CONTINUOUS
10
170.3868281075
20
116.9487961926
11
170.3868281075
21
117.0404629030
0
LINE
5
63B
100
AcDbEntity
8
0
100
AcDbLine
62
7
6
CONTINUOUS
10
170.3868281075
20
118.1862961926
11
170.3868281075
21
118.4612961926
0
LINE
5
63C
100
AcDbEntity
8
0
100
AcDbLine
62
7
6
CONTINUOUS
10
170.3868281075
20
121.8571294822
11
170.3868281075
21
122.0404629030
0
LINE
5
63D
100
AcDbEntity
8
0
100
AcDbLine
62
7
6
CONTINUOUS
10
170.3868281075
20
123.1862961926
11
170.3868281075
21
123.4612961926
0
LINE
5
63E
100
AcDbEntity
8
0
100
AcDbLine
62
7
6
CONTINUOUS
10
170.3868281075
20
127.2696294822
11
170.3868281075
21
127.5446294822
0
LINE
5
63F
100
AcDbEntity
8
0
100
AcDbLine
62
7
6
CONTINUOUS
10
170.3868281075
20
128.1862961926
11
170.3868281075
21
128.4612961926
0
LINE
5
640
100
AcDbEntity
8
0
100
AcDbLine
62
7
6
CONTINUOUS
10
170.3868281075
20
133.1862961926
11
170.3868281075
21
133.4612961926
0
LINE
5
641
100
AcDbEntity
8
0
100
AcDbLine
62
7
6
CONTINUOUS
10
170.3400196024
20
116.6279629030
11
170.3868281075
21
116.9487961926
0
LINE
5
642
100
AcDbEntity
8
0
100
AcDbLine
62
7
6
CONTINUOUS
10
169.2166153499
20
116.9029629030
11
169.1698068449
21
116.6279629030
0
LINE
5
643
100
AcDbEntity
8
0
100
AcDbLine
62
7
6
CONTINUOUS
10
170.3400196024
20
121.5821294822
11
170.3868281075
21
121.8571294822
0
LINE
5
644
100
AcDbEntity
8
0
100
AcDbLine
62
7
6
CONTINUOUS
10
166.3239838145
20
102.3783676624
11
166.3655959248
21
102.5864484975
0
LINE
5
645
100
AcDbEntity
8
0
100
AcDbLine
62
7
6
CONTINUOUS
10
166.3239838145
20
96.3783676624
11
166.3655959248
21
96.5864484975
0
LINE
5
646
100
AcDbEntity
8
0
100
AcDbLine
62
7
6
CONTINUOUS
10
170.1527855822
20
121.9029629030
11
170.1059770772
21
121.6737961926
0
LINE
5
647
100
AcDbEntity
8
0
100
AcDbLine
62
7
6
CONTINUOUS
10
170.1527855822
20
116.9029629030
11
170.1059770772
21
116.6737961926
0
LINE
5
648
100
AcDbEntity
8
0
100
AcDbLine
62
7
6
CONTINUOUS
10
168.2336366167
20
107.3612961926
11
168.1868281075
21
107.1321294822
0
LINE
5
649
100
AcDbEntity
8
0
100
AcDbLine
62
7
6
CONTINUOUS
10
168.2336366167
20
102.3154629030
11
168.1868281075
21
102.0862961926
0
LINE
5
64A
100
AcDbEntity
8
0
100
AcDbLine
62
7
6
CONTINUOUS
10
169.5442748853
20
106.6279629030
11
169.5910833904
21
106.8571294822
0
LINE
5
64B
100
AcDbEntity
8
0
100
AcDbLine
62
7
6
CONTINUOUS
10
168.4208706656
20
107.1321294822
11
168.4676791706
21
107.3154629030
0
LINE
5
64C
100
AcDbEntity
8
0
100
AcDbLine
62
7
6
CONTINUOUS
10
169.3570408651
20
106.8571294822
11
169.3102323600
21
106.6737961926
0
LINE
5
64D
100
AcDbEntity
8
0
100
AcDbLine
62
7
6
CONTINUOUS
10
168.4208706656
20
102.1321294822
11
168.4676791706
21
102.2696294822
0
LINE
5
64E
100
AcDbEntity
8
0
100
AcDbLine
62
7
6
CONTINUOUS
10
169.4038493701
20
106.3987961926
11
169.5442748853
21
106.6279629030
0
LINE
5
64F
100
AcDbEntity
8
0
100
AcDbLine
62
7
6
CONTINUOUS
10
168.3740621441
20
102.5446294822
11
168.2336366167
21
102.3154629030
0
LINE
5
650
100
AcDbEntity
8
0
100
AcDbLine
62
7
6
CONTINUOUS
10
169.4038493701
20
101.3987961926
11
169.5442748853
21
101.6279629030
0
LINE
5
651
100
AcDbEntity
8
0
100
AcDbLine
62
7
6
CONTINUOUS
10
168.4676791706
20
102.2696294822
11
168.5612961808
21
102.4071294822
0
LINE
5
652
100
AcDbEntity
8
0
100
AcDbLine
62
7
6
CONTINUOUS
10
169.3102323600
20
101.6737961926
11
169.2166153499
21
101.5362961926
0
LINE
5
653
100
AcDbEntity
8
0
100
AcDbLine
62
7
6
CONTINUOUS
10
170.1059770772
20
101.7196294822
11
170.0123600670
21
101.5821294822
0
LINE
5
654
100
AcDbEntity
8
0
100
AcDbLine
62
7
6
CONTINUOUS
10
169.2166153499
20
101.5362961926
11
169.1229983398
21
101.4446296134
0
LINE
5
655
100
AcDbEntity
8
0
100
AcDbLine
62
7
6
CONTINUOUS
10
169.2634238550
20
101.2612961926
11
169.4038493701
21
101.3987961926
0
LINE
5
656
100
AcDbEntity
8
0
100
AcDbLine
62
7
6
CONTINUOUS
10
169.6847004005
20
92.7737961926
11
169.4974663803
21
92.6821295478
0
LINE
5
657
100
AcDbEntity
8
0
100
AcDbLine
62
7
6
CONTINUOUS
10
168.8889557489
20
91.1696296134
11
169.1229983398
21
91.2612961926
0
LINE
5
658
100
AcDbEntity
8
0
100
AcDbLine
62
7
6
CONTINUOUS
10
169.8251259157
20
91.2154627719
11
170.0591685721
21
91.3071296134
0
POLYLINE
5
659
100
AcDbEntity
8
0
100
AcDb2dPolyline
62
7
6
CONTINUOUS
66
1
70
0
0
VERTEX
5
65A
100
AcDbEntity
8
0
100
AcDbVertex
62
7
6
CONTINUOUS
100
AcDb2dVertex
10
94.4531569808
20
138.7699612269
0
VERTEX
5
65B
100
AcDbEntity
8
0
100
AcDbVertex
62
7
6
CONTINUOUS
100
AcDb2dVertex
10
94.1472896501
20
138.7220313376
0
VERTEX
5
65C
100
AcDbEntity
8
0
100
AcDbVertex
62
7
6
CONTINUOUS
100
AcDb2dVertex
10
93.8675346557
20
138.5805367116
0
VERTEX
5
65D
100
AcDbEntity
8
0
100
AcDbVertex
62
7
6
CONTINUOUS
100
AcDb2dVertex
10
93.6453401753
20
138.3593807742
0
VERTEX
5
65E
100
AcDbEntity
8
0
100
AcDbVertex
62
7
6
CONTINUOUS
100
AcDb2dVertex
10
93.5024223807
20
138.0799420825
0
VERTEX
5
65F
100
AcDbEntity
8
0
100
AcDbVertex
62
7
6
CONTINUOUS
100
AcDb2dVertex
10
93.4531630732
20
137.7699673193
0
SEQEND
5
660
100
AcDbEntity
8
0
0
POLYLINE
5
661
100
AcDbEntity
8
0
100
AcDb2dPolyline
62
7
6
CONTINUOUS
66
1
70
0
0
VERTEX
5
662
100
AcDbEntity
8
0
100
AcDbVertex
62
7
6
CONTINUOUS
100
AcDb2dVertex
10
178.3204992342
20
138.7699612269
0
VERTEX
5
663
100
AcDbEntity
8
0
100
AcDbVertex
62
7
6
CONTINUOUS
100
AcDb2dVertex
10
178.6295120283
20
138.7210150292
0
VERTEX
5
664
100
AcDbEntity
8
0
100
AcDbVertex
62
7
6
CONTINUOUS
100
AcDb2dVertex
10
178.9082769625
20
138.5789750877
0
VERTEX
5
665
100
AcDbEntity
8
0
100
AcDbVertex
62
7
6
CONTINUOUS
100
AcDb2dVertex
10
179.1295070026
20
138.3577450476
0
VERTEX
5
666
100
AcDbEntity
8
0
100
AcDbVertex
62
7
6
CONTINUOUS
100
AcDb2dVertex
10
179.2715469441
20
138.0789801134
0
VERTEX
5
667
100
AcDbEntity
8
0
100
AcDbVertex
62
7
6
CONTINUOUS
100
AcDb2dVertex
10
179.3204931418
20
137.7699673193
0
SEQEND
5
668
100
AcDbEntity
8
0
0
LINE
5
669
100
AcDbEntity
8
0
100
AcDbLine
62
7
6
CONTINUOUS
10
168.5144876757
20
131.3529627719
11
168.7017217287
21
131.2612961926
0
LINE
5
66A
100
AcDbEntity
8
0
100
AcDbLine
62
7
6
CONTINUOUS
10
170.0591685721
20
132.6362961926
11
169.8719345519
21
132.7279628374
0
LINE
5
66B
100
AcDbEntity
8
0
100
AcDbLine
62
7
6
CONTINUOUS
10
168.8421472439
20
131.4446296134
11
168.5612961808
21
131.6279629030
0
LINE
5
66C
100
AcDbEntity
8
0
100
AcDbLine
62
7
6
CONTINUOUS
10
169.6847004005
20
127.8196295478
11
170.0123600670
21
127.5446294822
0
LINE
5
66D
100
AcDbEntity
8
0
100
AcDbLine
62
7
6
CONTINUOUS
10
170.3868281075
20
127.5446294822
11
170.0591685721
21
127.8196295478
0
LINE
5
66E
100
AcDbEntity
8
0
100
AcDbLine
62
7
6
CONTINUOUS
10
169.6847004005
20
128.7362961926
11
170.0123600670
21
128.4612961926
0
LINE
5
66F
100
AcDbEntity
8
0
100
AcDbLine
62
7
6
CONTINUOUS
10
170.3868281075
20
128.4612961926
11
170.0591685721
21
128.7362961926
0
LINE
5
670
100
AcDbEntity
8
0
100
AcDbLine
62
7
6
CONTINUOUS
10
170.2464025923
20
122.5446294822
11
170.0591685721
21
122.7279628374
0
LINE
5
671
100
AcDbEntity
8
0
100
AcDbLine
62
7
6
CONTINUOUS
10
170.0123600670
20
122.4529629030
11
170.1059770772
21
122.3154629030
0
LINE
5
672
100
AcDbEntity
8
0
100
AcDbLine
62
7
6
CONTINUOUS
10
170.3400196024
20
117.3612961926
11
170.2464025923
21
117.5446294822
0
LINE
5
673
100
AcDbEntity
8
0
100
AcDbLine
62
7
6
CONTINUOUS
10
169.4974663803
20
116.6279629030
11
169.4038493701
21
116.9029629030
0
LINE
5
674
100
AcDbEntity
8
0
100
AcDbLine
62
7
6
CONTINUOUS
10
168.1868281075
20
116.8112961926
11
168.2336366167
21
116.6279629030
0
LINE
5
675
100
AcDbEntity
8
0
100
AcDbLine
62
7
6
CONTINUOUS
10
170.3868281075
20
102.0862961926
11
170.3400196024
21
102.3154629030
0
LINE
5
676
100
AcDbEntity
8
0
100
AcDbLine
62
7
6
CONTINUOUS
10
169.5910833904
20
107.1321294822
11
169.5442748853
21
107.3612961926
0
LINE
5
677
100
AcDbEntity
8
0
100
AcDbLine
62
7
6
CONTINUOUS
10
168.4676791706
20
116.6279629030
11
168.4208706656
21
116.8571294822
0
LINE
5
678
100
AcDbEntity
8
0
100
AcDbLine
62
7
6
CONTINUOUS
10
170.1059770772
20
117.3154629030
11
170.1527855822
21
117.0862961926
0
LINE
5
679
100
AcDbEntity
8
0
100
AcDbLine
62
7
6
CONTINUOUS
10
166.3655959248
20
122.5861438878
11
166.3239838145
21
122.7942247228
0
LINE
5
67A
100
AcDbEntity
8
0
100
AcDbLine
62
7
6
CONTINUOUS
10
166.3655959248
20
128.5861438878
11
166.3239838145
21
128.7942247228
0
LINE
5
67B
100
AcDbEntity
8
0
100
AcDbLine
62
7
6
CONTINUOUS
10
169.5442748853
20
101.6279629030
11
169.5910833904
21
101.8571294822
0
LINE
5
67C
100
AcDbEntity
8
0
100
AcDbLine
62
7
6
CONTINUOUS
10
168.2336366167
20
92.3612961926
11
168.1868281075
21
92.1321294822
0
LINE
5
67D
100
AcDbEntity
8
0
100
AcDbLine
62
7
6
CONTINUOUS
10
170.3400196024
20
101.6737961926
11
170.3868281075
21
101.9029629030
0
LINE
5
67E
100
AcDbEntity
8
0
100
AcDbLine
62
7
6
CONTINUOUS
10
168.4208706656
20
92.0862961926
11
168.4676791706
21
92.2696294822
0
LINE
5
67F
100
AcDbEntity
8
0
100
AcDbLine
62
7
6
CONTINUOUS
10
169.2166153499
20
91.9029629030
11
169.1698068449
21
91.7196294822
0
LINE
5
680
100
AcDbEntity
8
0
100
AcDbLine
62
7
6
CONTINUOUS
10
169.4038493701
20
92.0862961926
11
169.4506578752
21
92.2696294822
0
LINE
5
681
100
AcDbEntity
8
0
100
AcDbLine
62
7
6
CONTINUOUS
10
169.3570408651
20
101.8112961926
11
169.3102323600
21
101.6737961926
0
LINE
5
682
100
AcDbEntity
8
0
100
AcDbLine
62
7
6
CONTINUOUS
10
170.1527855822
20
101.8571294822
11
170.1059770772
21
101.7196294822
0
LINE
5
683
100
AcDbEntity
8
0
100
AcDbLine
62
7
6
CONTINUOUS
10
170.1995940873
20
101.4446296134
11
170.3400196024
21
101.6737961926
0
LINE
5
684
100
AcDbEntity
8
0
100
AcDbLine
62
7
6
CONTINUOUS
10
168.5144876757
20
92.7279628374
11
168.3740621441
21
92.5904629030
0
LINE
5
685
100
AcDbEntity
8
0
100
AcDbLine
62
7
6
CONTINUOUS
10
169.4974663803
20
92.6821295478
11
169.3570408651
21
92.5446294822
0
LINE
5
686
100
AcDbEntity
8
0
100
AcDbLine
62
7
6
CONTINUOUS
10
168.5612961808
20
92.4529629030
11
168.7485302338
21
92.5904629030
0
LINE
5
687
100
AcDbEntity
8
0
100
AcDbLine
62
7
6
CONTINUOUS
10
169.0761898347
20
91.5362961926
11
168.8889557489
21
91.3987961926
0
LINE
5
688
100
AcDbEntity
8
0
100
AcDbLine
62
7
6
CONTINUOUS
10
169.5910833904
20
92.4529629030
11
169.7315089056
21
92.5446294822
0
LINE
5
689
100
AcDbEntity
8
0
100
AcDbLine
62
7
6
CONTINUOUS
10
169.9655515620
20
91.5362961926
11
169.8251259157
21
91.4446296134
0
LINE
5
68A
100
AcDbEntity
8
0
100
AcDbLine
62
7
6
CONTINUOUS
10
169.7315089056
20
132.5446294822
11
170.0123600670
21
132.3612961926
0
LINE
5
68B
100
AcDbEntity
8
0
100
AcDbLine
62
7
6
CONTINUOUS
10
168.3740621441
20
131.4904627719
11
168.5144876757
21
131.3529627719
0
LINE
5
68C
100
AcDbEntity
8
0
100
AcDbLine
62
7
6
CONTINUOUS
10
168.5612961808
20
131.6279629030
11
168.4676791706
21
131.7654629030
0
LINE
5
68D
100
AcDbEntity
8
0
100
AcDbLine
62
7
6
CONTINUOUS
10
168.2336366167
20
131.7196294822
11
168.3740621441
21
131.4904627719
0
LINE
5
68E
100
AcDbEntity
8
0
100
AcDbLine
62
7
6
CONTINUOUS
10
170.3400196024
20
122.3612961926
11
170.2464025923
21
122.5446294822
0
LINE
5
68F
100
AcDbEntity
8
0
100
AcDbLine
62
7
6
CONTINUOUS
10
170.1059770772
20
122.3154629030
11
170.1527855822
21
122.0862961926
0
LINE
5
690
100
AcDbEntity
8
0
100
AcDbLine
62
7
6
CONTINUOUS
10
168.4676791706
20
131.7654629030
11
168.4208706656
21
131.9946294822
0
LINE
5
691
100
AcDbEntity
8
0
100
AcDbLine
62
7
6
CONTINUOUS
10
170.1059770772
20
132.2237961926
11
170.1527855822
21
131.9946294822
0
LINE
5
692
100
AcDbEntity
8
0
100
AcDbLine
62
7
6
CONTINUOUS
10
168.1868281075
20
131.9946294822
11
168.2336366167
21
131.7196294822
0
LINE
5
693
100
AcDbEntity
8
0
100
AcDbLine
62
7
6
CONTINUOUS
10
170.3868281075
20
131.9946294822
11
170.3400196024
21
132.2696294822
0
LINE
5
694
100
AcDbEntity
8
0
100
AcDbLine
62
7
6
CONTINUOUS
10
170.3868281075
20
117.0404629030
11
170.3400196024
21
117.3612961926
0
LINE
5
695
100
AcDbEntity
8
0
100
AcDbLine
62
7
6
CONTINUOUS
10
170.3868281075
20
122.0404629030
11
170.3400196024
21
122.3612961926
0
LINE
5
696
100
AcDbEntity
8
0
100
AcDbLine
62
7
6
CONTINUOUS
10
170.3400196024
20
91.6737961926
11
170.3868281075
21
91.9029629030
0
LINE
5
697
100
AcDbEntity
8
0
100
AcDbLine
62
7
6
CONTINUOUS
10
170.1527855822
20
91.9029629030
11
170.1059770772
21
91.7196294822
0
LINE
5
698
100
AcDbEntity
8
0
100
AcDbLine
62
7
6
CONTINUOUS
10
168.4676791706
20
92.2696294822
11
168.5612961808
21
92.4529629030
0
LINE
5
699
100
AcDbEntity
8
0
100
AcDbLine
62
7
6
CONTINUOUS
10
169.3570408651
20
92.5446294822
11
169.3102323600
21
92.4529629030
0
LINE
5
69A
100
AcDbEntity
8
0
100
AcDbLine
62
7
6
CONTINUOUS
10
169.1698068449
20
91.7196294822
11
169.0761898347
21
91.5362961926
0
LINE
5
69B
100
AcDbEntity
8
0
100
AcDbLine
62
7
6
CONTINUOUS
10
169.2634238550
20
91.4446296134
11
169.3102323600
21
91.5362961926
0
LINE
5
69C
100
AcDbEntity
8
0
100
AcDbLine
62
7
6
CONTINUOUS
10
168.3740621441
20
92.5904629030
11
168.2336366167
21
92.3612961926
0
LINE
5
69D
100
AcDbEntity
8
0
100
AcDbLine
62
7
6
CONTINUOUS
10
170.1995940873
20
91.4446296134
11
170.3400196024
21
91.6737961926
0
LINE
5
69E
100
AcDbEntity
8
0
100
AcDbLine
62
7
6
CONTINUOUS
10
169.4506578752
20
92.2696294822
11
169.5910833904
21
92.4529629030
0
LINE
5
69F
100
AcDbEntity
8
0
100
AcDbLine
62
7
6
CONTINUOUS
10
169.1229983398
20
91.2612961926
11
169.2634238550
21
91.4446296134
0
LINE
5
6A0
100
AcDbEntity
8
0
100
AcDbLine
62
7
6
CONTINUOUS
10
170.1059770772
20
91.7196294822
11
169.9655515620
21
91.5362961926
0
LINE
5
6A1
100
AcDbEntity
8
0
100
AcDbLine
62
7
6
CONTINUOUS
10
170.0591685721
20
91.3071296134
11
170.1995940873
21
91.4446296134
0
LINE
5
6A2
100
AcDbEntity
8
0
100
AcDbLine
62
7
6
CONTINUOUS
10
169.6847004005
20
133.7362961926
11
170.0123600670
21
133.4612961926
0
LINE
5
6A3
100
AcDbEntity
8
0
100
AcDbLine
62
7
6
CONTINUOUS
10
170.3868281075
20
133.4612961926
11
170.0591685721
21
133.7362961926
0
LINE
5
6A4
100
AcDbEntity
8
0
100
AcDbLine
62
7
6
CONTINUOUS
10
170.1995940873
20
132.4987961926
11
170.0591685721
21
132.6362961926
0
LINE
5
6A5
100
AcDbEntity
8
0
100
AcDbLine
62
7
6
CONTINUOUS
10
170.0123600670
20
132.3612961926
11
170.1059770772
21
132.2237961926
0
LINE
5
6A6
100
AcDbEntity
8
0
100
AcDbLine
62
7
6
CONTINUOUS
10
170.3400196024
20
132.2696294822
11
170.1995940873
21
132.4987961926
0
LINE
5
6A7
100
AcDbEntity
8
0
100
AcDbLine
62
9
6
CONTINUOUS
10
178.3204992342
20
86.4026311583
11
178.3204992342
21
138.7699612269
0
LINE
5
6A8
100
AcDbEntity
8
0
100
AcDbLine
62
7
6
CONTINUOUS
10
179.3204931418
20
137.7699673193
11
179.3204931418
21
87.4026250659
0
LINE
5
6A9
100
AcDbEntity
8
0
100
AcDbLine
62
7
6
CONTINUOUS
10
179.3372605554
20
91.0362961926
11
179.3372605554
21
134.1362961926
0
LINE
5
6AA
100
AcDbEntity
8
0
100
AcDbLine
62
7
6
CONTINUOUS
10
179.3868281075
20
137.8363022850
11
179.3868281075
21
134.1362961926
0
LINE
5
6AB
100
AcDbEntity
8
0
100
AcDbLine
62
7
6
CONTINUOUS
10
179.3868281075
20
91.0362961926
11
179.3868281075
21
87.3362901003
0
LINE
5
6AC
100
AcDbEntity
8
0
100
AcDbLine
62
7
6
CONTINUOUS
10
200.9470429146
20
112.5862961926
11
200.9470429146
21
99.8875279955
0
LINE
5
6AD
100
AcDbEntity
8
0
100
AcDbLine
62
7
6
CONTINUOUS
10
136.3868281075
20
157.8256578947
11
122.6959686450
21
157.8256578947
0
LINE
5
6AE
100
AcDbEntity
8
0
100
AcDbLine
62
7
6
CONTINUOUS
10
93.3868281075
20
189.6764417693
11
93.4531630732
21
208.6799324207
0
LINE
5
6AF
100
AcDbEntity
8
0
100
AcDbLine
62
7
6
CONTINUOUS
10
94.8868281075
20
189.6764417693
11
94.9514055521
21
208.1764417693
0
LINE
5
6B0
100
AcDbEntity
8
0
100
AcDbLine
62
7
6
CONTINUOUS
10
102.3868281075
20
209.4764417693
11
102.3868281075
21
209.6764417693
0
LINE
5
6B1
100
AcDbEntity
8
0
100
AcDbLine
62
7
6
CONTINUOUS
10
102.4336366167
20
209.6764417693
11
102.4336366167
21
209.4764417693
0
LINE
5
6B2
100
AcDbEntity
8
0
100
AcDbLine
62
7
6
CONTINUOUS
10
102.5740621441
20
209.6764417693
11
102.5740621441
21
209.4764417693
0
LINE
5
6B3
100
AcDbEntity
8
0
100
AcDbLine
62
7
6
CONTINUOUS
10
102.6208706656
20
209.4764417693
11
102.6208706656
21
209.6764417693
0
LINE
5
6B4
100
AcDbEntity
8
0
100
AcDbLine
62
7
6
CONTINUOUS
10
103.5570408651
20
209.4764417693
11
103.5570408651
21
209.6764417693
0
LINE
5
6B5
100
AcDbEntity
8
0
100
AcDbLine
62
7
6
CONTINUOUS
10
103.6038493701
20
209.6764417693
11
103.6038493701
21
209.4764417693
0
LINE
5
6B6
100
AcDbEntity
8
0
100
AcDbLine
62
7
6
CONTINUOUS
10
103.7442748853
20
209.6764417693
11
103.7442748853
21
209.4764417693
0
LINE
5
6B7
100
AcDbEntity
8
0
100
AcDbLine
62
7
6
CONTINUOUS
10
103.7910833904
20
209.4764417693
11
103.7910833904
21
209.6764417693
0
LINE
5
6B8
100
AcDbEntity
8
0
100
AcDbLine
62
2
6
CONTINUOUS
10
114.5353923048
20
238.6764417693
11
113.3676586584
21
237.5087081229
0
LINE
5
6B9
100
AcDbEntity
8
0
100
AcDbLine
62
7
6
CONTINUOUS
10
104.3527855822
20
209.4764417693
11
104.3527855822
21
209.6764417693
0
LINE
5
6BA
100
AcDbEntity
8
0
100
AcDbLine
62
7
6
CONTINUOUS
10
104.5868281075
20
209.4764417693
11
104.5868281075
21
209.6764417693
0
LINE
5
6BB
100
AcDbEntity
8
0
100
AcDbLine
62
7
6
CONTINUOUS
10
106.3903065955
20
210.6729511179
11
106.4496724005
21
227.6799324207
0
LINE
5
6BC
100
AcDbEntity
8
0
100
AcDbLine
62
2
6
CONTINUOUS
10
115.4796464728
20
237.4993755938
11
113.3602278850
21
235.3799570060
0
LINE
5
6BD
100
AcDbEntity
8
0
100
AcDbLine
62
2
6
CONTINUOUS
10
116.7780329919
20
236.6764417693
11
115.2780329919
21
235.1764417693
0
LINE
5
6BE
100
AcDbEntity
8
0
100
AcDbLine
62
2
6
CONTINUOUS
10
114.8633058121
20
234.7617145895
11
113.3527971116
21
233.2512058891
0
LINE
5
6BF
100
AcDbEntity
8
0
100
AcDbLine
62
2
6
CONTINUOUS
10
108.7780329919
20
228.6764417693
11
106.4450070586
21
226.3434158360
0
LINE
5
6C0
100
AcDbEntity
8
0
100
AcDbLine
62
7
6
CONTINUOUS
10
107.9531508885
20
227.1764417693
11
107.8868281075
21
208.1764417693
0
LINE
5
6C1
100
AcDbEntity
8
0
100
AcDbLine
62
7
6
CONTINUOUS
10
108.9264579922
20
227.1764417693
11
108.7868281075
21
211.1764417693
0
LINE
5
6C2
100
AcDbEntity
8
0
100
AcDbLine
62
2
6
CONTINUOUS
10
118.8993533355
20
236.6764417693
11
117.3993533355
21
235.1764417693
0
LINE
5
6C3
100
AcDbEntity
8
0
100
AcDbLine
62
2
6
CONTINUOUS
10
114.8558750387
20
232.6329634726
11
113.3453663383
21
231.1224547721
0
LINE
5
6C4
100
AcDbEntity
8
0
100
AcDbLine
62
2
6
CONTINUOUS
10
110.8993533355
20
228.6764417693
11
109.3993533355
21
227.1764417693
0
LINE
5
6C5
100
AcDbEntity
8
0
100
AcDbLine
62
2
6
CONTINUOUS
10
107.9480849857
20
225.7251734195
11
106.4375762852
21
224.2146647190
0
LINE
5
6C6
100
AcDbEntity
8
0
100
AcDbLine
62
2
6
CONTINUOUS
10
121.0206736790
20
236.6764417693
11
119.5206736790
21
235.1764417693
0
LINE
5
6C7
100
AcDbEntity
8
0
100
AcDbLine
62
2
6
CONTINUOUS
10
114.8484442654
20
230.5042123557
11
111.5206736790
21
227.1764417693
0
LINE
5
6C8
100
AcDbEntity
8
0
100
AcDbLine
62
2
6
CONTINUOUS
10
107.9406542123
20
223.5964223026
11
106.4301455118
21
222.0859136021
0
LINE
5
6C9
100
AcDbEntity
8
0
100
AcDbLine
62
7
6
CONTINUOUS
10
113.3403065955
20
229.6729511179
11
113.3682563464
21
237.6799324207
0
LINE
5
6CA
100
AcDbEntity
8
0
100
AcDbLine
62
2
6
CONTINUOUS
10
123.1419940226
20
236.6764417693
11
121.6419940226
21
235.1764417693
0
LINE
5
6CB
100
AcDbEntity
8
0
100
AcDbLine
62
2
6
CONTINUOUS
10
114.8410134920
20
228.3754612387
11
113.6419940226
21
227.1764417693
0
LINE
5
6CC
100
AcDbEntity
8
0
100
AcDbLine
62
2
6
CONTINUOUS
10
107.9332234389
20
221.4676711857
11
106.4227147385
21
219.9571624852
0
LINE
5
6CD
100
AcDbEntity
8
0
100
AcDbLine
62
2
6
CONTINUOUS
10
96.1419940226
20
209.6764417693
11
93.4472350396
21
206.9816827863
0
LINE
5
6CE
100
AcDbEntity
8
0
100
AcDbLine
62
2
6
CONTINUOUS
10
125.2633143661
20
236.6764417693
11
123.7633143661
21
235.1764417693
0
LINE
5
6CF
100
AcDbEntity
8
0
100
AcDbLine
62
2
6
CONTINUOUS
10
107.9257926656
20
219.3389200687
11
106.4152839651
21
217.8284113683
0
LINE
5
6D0
100
AcDbEntity
8
0
100
AcDbLine
62
2
6
CONTINUOUS
10
98.2633143661
20
209.6764417693
11
96.7633143661
21
208.1764417693
0
LINE
5
6D1
100
AcDbEntity
8
0
100
AcDbLine
62
2
6
CONTINUOUS
10
94.9450586164
20
206.3581860196
11
93.4398042662
21
204.8529316694
0
LINE
5
6D2
100
AcDbEntity
8
0
100
AcDbLine
62
7
6
CONTINUOUS
10
93.3868281075
20
189.6764417693
11
179.3868281075
21
189.6764417693
0
LINE
5
6D3
100
AcDbEntity
8
0
100
AcDbLine
62
7
6
CONTINUOUS
10
115.4868281075
20
236.6764417693
11
115.4693743719
21
238.6764417693
0
LINE
5
6D4
100
AcDbEntity
8
0
100
AcDbLine
62
7
6
CONTINUOUS
10
114.8647534890
20
235.1764417693
11
114.8368281075
21
227.1764417693
0
LINE
5
6D5
100
AcDbEntity
8
0
100
AcDbLine
62
2
6
CONTINUOUS
10
127.3846347097
20
236.6764417693
11
125.8846347097
21
235.1764417693
0
LINE
5
6D6
100
AcDbEntity
8
0
100
AcDbLine
62
2
6
CONTINUOUS
10
107.9183618922
20
217.2101689518
11
106.4078531917
21
215.6996602513
0
LINE
5
6D7
100
AcDbEntity
8
0
100
AcDbLine
62
2
6
CONTINUOUS
10
100.3846347097
20
209.6764417693
11
98.8846347097
21
208.1764417693
0
LINE
5
6D8
100
AcDbEntity
8
0
100
AcDbLine
62
2
6
CONTINUOUS
10
94.9376278431
20
204.2294349027
11
94.5846347097
21
203.8764417693
0
LINE
5
6D9
100
AcDbEntity
8
0
100
AcDbLine
62
2
6
CONTINUOUS
10
129.5059550533
20
236.6764417693
11
128.0059550533
21
235.1764417693
0
LINE
5
6DA
100
AcDbEntity
8
0
100
AcDbLine
62
2
6
CONTINUOUS
10
107.9109311188
20
215.0814178349
11
106.4004224183
21
213.5709091344
0
LINE
5
6DB
100
AcDbEntity
8
0
100
AcDbLine
62
2
6
CONTINUOUS
10
102.3868281075
20
209.5573148236
11
101.0059550533
21
208.1764417693
0
LINE
5
6DC
100
AcDbEntity
8
0
100
AcDbLine
62
7
6
CONTINUOUS
10
133.1618281075
20
193.6504417693
11
139.6118281075
21
193.6504417693
0
LINE
5
6DD
100
AcDbEntity
8
0
100
AcDbLine
62
2
6
CONTINUOUS
10
131.6272753968
20
236.6764417693
11
130.1272753968
21
235.1764417693
0
LINE
5
6DE
100
AcDbEntity
8
0
100
AcDbLine
62
2
6
CONTINUOUS
10
107.9035003455
20
212.9526667180
11
106.3929916450
21
211.4421580175
0
LINE
5
6DF
100
AcDbEntity
8
0
100
AcDbLine
62
2
6
CONTINUOUS
10
104.6272753968
20
209.6764417693
11
104.5868281075
21
209.6359944800
0
LINE
5
6E0
100
AcDbEntity
8
0
100
AcDbLine
62
2
6
CONTINUOUS
10
104.4272753968
20
209.4764417693
11
103.1272753968
21
208.1764417693
0
LINE
5
6E1
100
AcDbEntity
8
0
100
AcDbLine
62
2
6
CONTINUOUS
10
133.7485957404
20
236.6764417693
11
132.2485957404
21
235.1764417693
0
LINE
5
6E2
100
AcDbEntity
8
0
100
AcDbLine
62
2
6
CONTINUOUS
10
107.8960695721
20
210.8239156010
11
105.2485957404
21
208.1764417693
0
LINE
5
6E3
100
AcDbEntity
8
0
100
AcDbLine
62
2
6
CONTINUOUS
10
135.8699160839
20
236.6764417693
11
134.3699160839
21
235.1764417693
0
LINE
5
6E4
100
AcDbEntity
8
0
100
AcDbLine
62
2
6
CONTINUOUS
10
107.8886387987
20
208.6951644841
11
107.3699160839
21
208.1764417693
0
LINE
5
6E5
100
AcDbEntity
8
0
100
AcDbLine
62
7
6
CONTINUOUS
10
122.3841108288
20
235.1764417693
11
122.5368281075
21
200.1764417693
0
LINE
5
6E6
100
AcDbEntity
8
0
100
AcDbLine
62
7
6
CONTINUOUS
10
123.3895453862
20
235.1764417693
11
123.2368281075
21
200.1764417693
0
LINE
5
6E7
100
AcDbEntity
8
0
100
AcDbLine
62
2
6
CONTINUOUS
10
137.9912364275
20
236.6764417693
11
136.4912364275
21
235.1764417693
0
LINE
5
6E8
100
AcDbEntity
8
0
100
AcDbLine
62
2
6
CONTINUOUS
10
140.1125567711
20
236.6764417693
11
138.6125567711
21
235.1764417693
0
LINE
5
6E9
100
AcDbEntity
8
0
100
AcDbLine
62
7
6
CONTINUOUS
10
139.6118281075
20
198.2004417693
11
133.1618281075
21
198.2004417693
0
LINE
5
6EA
100
AcDbEntity
8
0
100
AcDbLine
62
7
6
CONTINUOUS
10
150.2368281075
20
200.1764417693
11
149.5368281075
21
200.1764417693
0
LINE
5
6EB
100
AcDbEntity
8
0
100
AcDbLine
62
7
6
CONTINUOUS
10
147.2368281075
20
200.1764417693
11
146.5368281075
21
200.1764417693
0
LINE
5
6EC
100
AcDbEntity
8
0
100
AcDbLine
62
7
6
CONTINUOUS
10
126.2368281075
20
200.1764417693
11
125.5368281075
21
200.1764417693
0
LINE
5
6ED
100
AcDbEntity
8
0
100
AcDbLine
62
7
6
CONTINUOUS
10
123.2368281075
20
200.1764417693
11
122.5368281075
21
200.1764417693
0
LINE
5
6EE
100
AcDbEntity
8
0
100
AcDbLine
62
7
6
CONTINUOUS
10
125.3841108288
20
235.1764417693
11
125.5368281075
21
200.1764417693
0
LINE
5
6EF
100
AcDbEntity
8
0
100
AcDbLine
62
7
6
CONTINUOUS
10
126.3895453862
20
235.1764417693
11
126.2368281075
21
200.1764417693
0
LINE
5
6F0
100
AcDbEntity
8
0
100
AcDbLine
62
2
6
CONTINUOUS
10
142.2338771146
20
236.6764417693
11
140.7338771146
21
235.1764417693
0
LINE
5
6F1
100
AcDbEntity
8
0
100
AcDbLine
62
2
6
CONTINUOUS
10
144.3551974582
20
236.6764417693
11
142.8551974582
21
235.1764417693
0
LINE
5
6F2
100
AcDbEntity
8
0
100
AcDbLine
62
7
6
CONTINUOUS
10
179.3372605554
20
203.8764417693
11
177.8372605554
21
203.8764417693
0
LINE
5
6F3
100
AcDbEntity
8
0
100
AcDbLine
62
7
6
CONTINUOUS
10
94.9363956596
20
203.8764417693
11
93.4363956596
21
203.8764417693
0
LINE
5
6F4
100
AcDbEntity
8
0
100
AcDbLine
62
2
6
CONTINUOUS
10
146.4765178017
20
236.6764417693
11
144.9765178017
21
235.1764417693
0
LINE
5
6F5
100
AcDbEntity
8
0
100
AcDbLine
62
2
6
CONTINUOUS
10
148.5978381453
20
236.6764417693
11
147.0978381453
21
235.1764417693
0
LINE
5
6F6
100
AcDbEntity
8
0
100
AcDbLine
62
7
6
CONTINUOUS
10
133.1618281075
20
198.2004417693
11
133.1618281075
21
193.6504417693
0
LINE
5
6F7
100
AcDbEntity
8
0
100
AcDbLine
62
2
6
CONTINUOUS
10
150.7191584889
20
236.6764417693
11
149.2191584889
21
235.1764417693
0
LINE
5
6F8
100
AcDbEntity
8
0
100
AcDbLine
62
2
6
CONTINUOUS
10
152.8404788324
20
236.6764417693
11
151.3404788324
21
235.1764417693
0
LINE
5
6F9
100
AcDbEntity
8
0
100
AcDbLine
62
7
6
CONTINUOUS
10
177.8222506629
20
208.1764417693
11
164.8868281075
21
208.1764417693
0
LINE
5
6FA
100
AcDbEntity
8
0
100
AcDbLine
62
7
6
CONTINUOUS
10
107.8868281075
20
208.1764417693
11
94.9514055521
21
208.1764417693
0
LINE
5
6FB
100
AcDbEntity
8
0
100
AcDbLine
62
7
6
CONTINUOUS
10
102.3868281075
20
209.4764417693
11
102.6208706656
21
209.4764417693
0
LINE
5
6FC
100
AcDbEntity
8
0
100
AcDbLine
62
7
6
CONTINUOUS
10
103.5570408651
20
209.4764417693
11
103.7910833904
21
209.4764417693
0
LINE
5
6FD
100
AcDbEntity
8
0
100
AcDbLine
62
7
6
CONTINUOUS
10
104.3527855822
20
209.4764417693
11
104.5868281075
21
209.4764417693
0
LINE
5
6FE
100
AcDbEntity
8
0
100
AcDbLine
62
7
6
CONTINUOUS
10
168.8421472439
20
209.4764417693
11
169.3910834512
21
209.4764417693
0
LINE
5
6FF
100
AcDbEntity
8
0
100
AcDbLine
62
7
6
CONTINUOUS
10
105.3903126878
20
209.6764417693
11
94.4531569808
21
209.6764417693
0
LINE
5
700
100
AcDbEntity
8
0
100
AcDbLine
62
7
6
CONTINUOUS
10
167.3833435272
20
209.6764417693
11
178.3204992342
21
209.6764417693
0
LINE
5
701
100
AcDbEntity
8
0
100
AcDbLine
62
7
6
CONTINUOUS
10
164.8763560895
20
211.1764417693
11
163.9868281075
21
211.1764417693
0
LINE
5
702
100
AcDbEntity
8
0
100
AcDbLine
62
7
6
CONTINUOUS
10
108.7868281075
20
211.1764417693
11
107.8973001255
21
211.1764417693
0
LINE
5
703
100
AcDbEntity
8
0
100
AcDbLine
62
2
6
CONTINUOUS
10
154.9617991760
20
236.6764417693
11
153.4617991760
21
235.1764417693
0
LINE
5
704
100
AcDbEntity
8
0
100
AcDbLine
62
2
6
CONTINUOUS
10
158.9263508249
20
238.5196730747
11
157.2886214961
21
236.8819437459
0
LINE
5
705
100
AcDbEntity
8
0
100
AcDbLine
62
2
6
CONTINUOUS
10
157.0831195195
20
236.6764417693
11
155.5831195195
21
235.1764417693
0
LINE
5
706
100
AcDbEntity
8
0
100
AcDbLine
62
2
6
CONTINUOUS
10
159.4081914958
20
236.8801934020
11
157.7044398631
21
235.1764417693
0
LINE
5
707
100
AcDbEntity
8
0
100
AcDbLine
62
7
6
CONTINUOUS
10
139.6118281075
20
193.6504417693
11
139.6118281075
21
198.2004417693
0
LINE
5
708
100
AcDbEntity
8
0
100
AcDbLine
62
2
6
CONTINUOUS
10
159.4155705728
20
234.7662521355
11
157.9155705728
21
233.2662521355
0
LINE
5
709
100
AcDbEntity
8
0
100
AcDbLine
62
2
6
CONTINUOUS
10
159.4229496499
20
232.6523108690
11
157.9229496499
21
231.1523108690
0
LINE
5
70A
100
AcDbEntity
8
0
100
AcDbLine
62
2
6
CONTINUOUS
10
159.4303287269
20
230.5383696024
11
157.9303287269
21
229.0383696024
0
LINE
5
70B
100
AcDbEntity
8
0
100
AcDbLine
62
2
6
CONTINUOUS
10
159.8686986091
20
228.8554191411
11
158.1897212373
21
227.1764417693
0
LINE
5
70C
100
AcDbEntity
8
0
100
AcDbLine
62
7
6
CONTINUOUS
10
146.3841108288
20
235.1764417693
11
146.5368281075
21
200.1764417693
0
LINE
5
70D
100
AcDbEntity
8
0
100
AcDbLine
62
2
6
CONTINUOUS
10
161.8110415809
20
228.6764417693
11
160.3110415809
21
227.1764417693
0
LINE
5
70E
100
AcDbEntity
8
0
100
AcDbLine
62
2
6
CONTINUOUS
10
163.9323619245
20
228.6764417693
11
162.4323619245
21
227.1764417693
0
LINE
5
70F
100
AcDbEntity
8
0
100
AcDbLine
62
7
6
CONTINUOUS
10
149.3841108288
20
235.1764417693
11
149.5368281075
21
200.1764417693
0
LINE
5
710
100
AcDbEntity
8
0
100
AcDbLine
62
7
6
CONTINUOUS
10
147.3895453862
20
235.1764417693
11
147.2368281075
21
200.1764417693
0
LINE
5
711
100
AcDbEntity
8
0
100
AcDbLine
62
2
6
CONTINUOUS
10
165.8793987400
20
228.5021582413
11
164.5536822680
21
227.1764417693
0
LINE
5
712
100
AcDbEntity
8
0
100
AcDbLine
62
2
6
CONTINUOUS
10
166.3269562515
20
226.8283954092
11
164.8269562515
21
225.3283954092
0
LINE
5
713
100
AcDbEntity
8
0
100
AcDbLine
62
7
6
CONTINUOUS
10
164.8205053266
20
227.1764417693
11
157.9368281075
21
227.1764417693
0
LINE
5
714
100
AcDbEntity
8
0
100
AcDbLine
62
7
6
CONTINUOUS
10
114.8368281075
20
227.1764417693
11
107.9531508885
21
227.1764417693
0
LINE
5
715
100
AcDbEntity
8
0
100
AcDbLine
62
7
6
CONTINUOUS
10
150.3895453862
20
235.1764417693
11
150.2368281075
21
200.1764417693
0
LINE
5
716
100
AcDbEntity
8
0
100
AcDbLine
62
2
6
CONTINUOUS
10
166.3343353285
20
224.7144541427
11
164.8343353285
21
223.2144541427
0
LINE
5
717
100
AcDbEntity
8
0
100
AcDbLine
62
2
6
CONTINUOUS
10
166.3417144056
20
222.6005128762
11
164.8417144056
21
221.1005128762
0
LINE
5
718
100
AcDbEntity
8
0
100
AcDbLine
62
2
6
CONTINUOUS
10
166.3490934826
20
220.4865716097
11
164.8490934826
21
218.9865716097
0
LINE
5
719
100
AcDbEntity
8
0
100
AcDbLine
62
7
6
CONTINUOUS
10
165.3239899069
20
228.6764417693
11
160.4333435272
21
228.6764417693
0
LINE
5
71A
100
AcDbEntity
8
0
100
AcDbLine
62
7
6
CONTINUOUS
10
112.3403126878
20
228.6764417693
11
107.4496663082
21
228.6764417693
0
LINE
5
71B
100
AcDbEntity
8
0
100
AcDbLine
62
2
6
CONTINUOUS
10
166.3564725596
20
218.3726303431
11
164.8564725596
21
216.8726303431
0
LINE
5
71C
100
AcDbEntity
8
0
100
AcDbLine
62
2
6
CONTINUOUS
10
166.3638516366
20
216.2586890766
11
164.8638516366
21
214.7586890766
0
LINE
5
71D
100
AcDbEntity
8
0
100
AcDbLine
62
7
6
CONTINUOUS
10
157.9089027261
20
235.1764417693
11
157.9368281075
21
227.1764417693
0
LINE
5
71E
100
AcDbEntity
8
0
100
AcDbLine
62
7
6
CONTINUOUS
10
159.4333496195
20
229.6729511179
11
159.4053998686
21
237.6799324207
0
LINE
5
71F
100
AcDbEntity
8
0
100
AcDbLine
62
7
6
CONTINUOUS
10
157.3042818431
20
238.6764417693
11
157.2868281075
21
236.6764417693
0
LINE
5
720
100
AcDbEntity
8
0
100
AcDbLine
62
2
6
CONTINUOUS
10
166.3712307137
20
214.1447478101
11
164.8712307137
21
212.6447478101
0
LINE
5
721
100
AcDbEntity
8
0
100
AcDbLine
62
2
6
CONTINUOUS
10
166.3786097907
20
212.0308065435
11
164.8786097907
21
210.5308065435
0
LINE
5
722
100
AcDbEntity
8
0
100
AcDbLine
62
7
6
CONTINUOUS
10
157.9089027261
20
235.1764417693
11
114.8647534890
21
235.1764417693
0
LINE
5
723
100
AcDbEntity
8
0
100
AcDbLine
62
7
6
CONTINUOUS
10
115.4868281075
20
236.6764417693
11
157.2868281075
21
236.6764417693
0
LINE
5
724
100
AcDbEntity
8
0
100
AcDbLine
62
2
6
CONTINUOUS
10
166.5689603754
20
210.0998367847
11
164.8859888677
21
208.4168652770
0
LINE
5
725
100
AcDbEntity
8
0
100
AcDbLine
62
2
6
CONTINUOUS
10
168.2668857036
20
209.6764417693
11
166.7668857036
21
208.1764417693
0
LINE
5
726
100
AcDbEntity
8
0
100
AcDbLine
62
7
6
CONTINUOUS
10
158.4054059610
20
238.6764417693
11
114.3682502540
21
238.6764417693
0
LINE
5
727
100
AcDbEntity
8
0
100
AcDbLine
62
7
6
CONTINUOUS
10
163.8471982229
20
227.1764417693
11
163.9868281075
21
211.1764417693
0
LINE
5
728
100
AcDbEntity
8
0
100
AcDbLine
62
7
6
CONTINUOUS
10
164.8205053266
20
227.1764417693
11
164.8868281075
21
208.1764417693
0
LINE
5
729
100
AcDbEntity
8
0
100
AcDbLine
62
7
6
CONTINUOUS
10
166.3833496195
20
210.6729511179
11
166.3239838145
21
227.6799324207
0
LINE
5
72A
100
AcDbEntity
8
0
100
AcDbLine
62
2
6
CONTINUOUS
10
170.3882060472
20
209.6764417693
11
168.8882060472
21
208.1764417693
0
LINE
5
72B
100
AcDbEntity
8
0
100
AcDbLine
62
2
6
CONTINUOUS
10
172.5095263907
20
209.6764417693
11
171.0095263907
21
208.1764417693
0
LINE
5
72C
100
AcDbEntity
8
0
100
AcDbLine
62
7
6
CONTINUOUS
10
168.8421472439
20
209.4764417693
11
168.8421472439
21
209.6764417693
0
LINE
5
72D
100
AcDbEntity
8
0
100
AcDbLine
62
7
6
CONTINUOUS
10
169.1229983398
20
209.6764417693
11
169.1229983398
21
209.4764417693
0
LINE
5
72E
100
AcDbEntity
8
0
100
AcDbLine
62
7
6
CONTINUOUS
10
169.3910834512
20
209.4764417693
11
169.3910834512
21
209.6764417693
0
LINE
5
72F
100
AcDbEntity
8
0
100
AcDbLine
62
2
6
CONTINUOUS
10
174.6308467343
20
209.6764417693
11
173.1308467343
21
208.1764417693
0
LINE
5
730
100
AcDbEntity
8
0
100
AcDbLine
62
2
6
CONTINUOUS
10
176.7521670778
20
209.6764417693
11
175.2521670778
21
208.1764417693
0
LINE
5
731
100
AcDbEntity
8
0
100
AcDbLine
62
2
6
CONTINUOUS
10
178.7587463224
20
209.5617006703
11
177.3734874214
21
208.1764417693
0
LINE
5
732
100
AcDbEntity
8
0
100
AcDbLine
62
2
6
CONTINUOUS
10
179.3228509080
20
208.0044849123
11
177.8280687034
21
206.5097027078
0
LINE
5
733
100
AcDbEntity
8
0
100
AcDbLine
62
2
6
CONTINUOUS
10
179.3302299850
20
205.8905436458
11
177.8354477804
21
204.3957614412
0
LINE
5
734
100
AcDbEntity
8
0
100
AcDbLine
62
7
6
CONTINUOUS
10
177.8868281075
20
189.6764417693
11
177.8222506629
21
208.1764417693
0
LINE
5
735
100
AcDbEntity
8
0
100
AcDbLine
62
7
6
CONTINUOUS
10
179.3868281075
20
189.6764417693
11
179.3204931418
21
208.6799324207
0
LINE
5
736
100
AcDbEntity
8
0
100
AcDbLine
62
2
6
CONTINUOUS
10
260.9017613582
20
237.0825375065
11
262.3838657381
21
238.5646418865
0
LINE
5
737
100
AcDbEntity
8
0
100
AcDbLine
62
2
6
CONTINUOUS
10
260.8943305848
20
234.9537863896
11
262.3995849350
21
236.4590407399
0
LINE
5
738
100
AcDbEntity
8
0
100
AcDbLine
62
2
6
CONTINUOUS
10
260.8868998114
20
232.8250352727
11
262.3921541617
21
234.3302896229
0
LINE
5
739
100
AcDbEntity
8
0
100
AcDbLine
62
2
6
CONTINUOUS
10
264.2362821948
20
236.1744176561
11
264.7383063081
21
236.6764417693
0
LINE
5
73A
100
AcDbEntity
8
0
100
AcDbLine
62
2
6
CONTINUOUS
10
260.8794690381
20
230.6962841558
11
262.3847233883
21
232.2015385060
0
LINE
5
73B
100
AcDbEntity
8
0
100
AcDbLine
62
2
6
CONTINUOUS
10
265.3596266516
20
235.1764417693
11
266.8596266516
21
236.6764417693
0
LINE
5
73C
100
AcDbEntity
8
0
100
AcDbLine
62
2
6
CONTINUOUS
10
260.8720382647
20
228.5675330388
11
262.3772926149
21
230.0727873891
0
LINE
5
73D
100
AcDbEntity
8
0
100
AcDbLine
62
2
6
CONTINUOUS
10
267.4809469952
20
235.1764417693
11
268.9809469952
21
236.6764417693
0
LINE
5
73E
100
AcDbEntity
8
0
100
AcDbLine
62
7
6
CONTINUOUS
10
260.7362821948
20
189.6764417693
11
260.9038466683
21
237.6799324207
0
LINE
5
73F
100
AcDbEntity
8
0
100
AcDbLine
62
2
6
CONTINUOUS
10
260.8646074913
20
226.4387819219
11
262.3698618416
21
227.9440362721
0
LINE
5
740
100
AcDbEntity
8
0
100
AcDbLine
62
2
6
CONTINUOUS
10
269.6022673388
20
235.1764417693
11
271.1022673388
21
236.6764417693
0
LINE
5
741
100
AcDbEntity
8
0
100
AcDbLine
62
7
6
CONTINUOUS
10
262.3828900753
20
238.6764417693
11
262.4003438109
21
236.6764417693
0
LINE
5
742
100
AcDbEntity
8
0
100
AcDbLine
62
7
6
CONTINUOUS
10
262.2362821948
20
189.6764417693
11
262.4003438109
21
236.6764417693
0
LINE
5
743
100
AcDbEntity
8
0
100
AcDbLine
62
7
6
CONTINUOUS
10
263.4417225675
20
235.1764417693
11
263.1362821948
21
200.1764417693
0
LINE
5
744
100
AcDbEntity
8
0
100
AcDbLine
62
2
6
CONTINUOUS
10
260.8571767180
20
224.3100308050
11
262.3624310682
21
225.8152851552
0
LINE
5
745
100
AcDbEntity
8
0
100
AcDbLine
62
2
6
CONTINUOUS
10
271.7235876823
20
235.1764417693
11
273.2235876823
21
236.6764417693
0
LINE
5
746
100
AcDbEntity
8
0
100
AcDbLine
62
2
6
CONTINUOUS
10
260.8497459446
20
222.1812796880
11
262.3550002948
21
223.6865340383
0
LINE
5
747
100
AcDbEntity
8
0
100
AcDbLine
62
2
6
CONTINUOUS
10
273.8449080259
20
235.1764417693
11
275.3449080259
21
236.6764417693
0
LINE
5
748
100
AcDbEntity
8
0
100
AcDbLine
62
7
6
CONTINUOUS
10
313.2362821948
20
189.6764417693
11
308.5362821948
21
189.6764417693
0
LINE
5
749
100
AcDbEntity
8
0
100
AcDbLine
62
7
6
CONTINUOUS
10
260.7362821948
20
189.6764417693
11
265.4362821948
21
189.6764417693
0
LINE
5
74A
100
AcDbEntity
8
0
100
AcDbLine
62
7
6
CONTINUOUS
10
265.3164685817
20
227.1764417693
11
265.3862821948
21
211.1764417693
0
LINE
5
74B
100
AcDbEntity
8
0
100
AcDbLine
62
7
6
CONTINUOUS
10
264.2362821948
20
235.1764417693
11
264.2362821948
21
236.6764417693
0
LINE
5
74C
100
AcDbEntity
8
0
100
AcDbLine
62
7
6
CONTINUOUS
10
265.4362821948
20
189.6764417693
11
265.4362821948
21
203.8764417693
0
LINE
5
74D
100
AcDbEntity
8
0
100
AcDbLine
62
2
6
CONTINUOUS
10
260.8423151712
20
220.0525285711
11
262.3475695215
21
221.5577829213
0
LINE
5
74E
100
AcDbEntity
8
0
100
AcDbLine
62
2
6
CONTINUOUS
10
275.9662283694
20
235.1764417693
11
277.4662283694
21
236.6764417693
0
LINE
5
74F
100
AcDbEntity
8
0
100
AcDbLine
62
7
6
CONTINUOUS
10
266.1560958080
20
227.1764417693
11
266.0862821948
21
211.1764417693
0
LINE
5
750
100
AcDbEntity
8
0
100
AcDbLine
62
2
6
CONTINUOUS
10
260.8348843979
20
217.9237774542
11
262.3401387481
21
219.4290318044
0
LINE
5
751
100
AcDbEntity
8
0
100
AcDbLine
62
2
6
CONTINUOUS
10
278.0875487130
20
235.1764417693
11
279.5875487130
21
236.6764417693
0
LINE
5
752
100
AcDbEntity
8
0
100
AcDbLine
62
2
6
CONTINUOUS
10
260.8274536245
20
215.7950263372
11
262.3327079747
21
217.3002806875
0
LINE
5
753
100
AcDbEntity
8
0
100
AcDbLine
62
2
6
CONTINUOUS
10
280.2088690566
20
235.1764417693
11
281.7088690566
21
236.6764417693
0
LINE
5
754
100
AcDbEntity
8
0
100
AcDbLine
62
7
6
CONTINUOUS
10
260.7501541281
20
193.6504417693
11
262.2501541281
21
193.6504417693
0
LINE
5
755
100
AcDbEntity
8
0
100
AcDbLine
62
7
6
CONTINUOUS
10
268.3164685817
20
227.1764417693
11
268.3862821948
21
211.1764417693
0
LINE
5
756
100
AcDbEntity
8
0
100
AcDbLine
62
7
6
CONTINUOUS
10
269.1560958080
20
227.1764417693
11
269.0862821948
21
211.1764417693
0
LINE
5
757
100
AcDbEntity
8
0
100
AcDbLine
62
2
6
CONTINUOUS
10
260.8200228511
20
213.6662752203
11
262.3252772014
21
215.1715295706
0
LINE
5
758
100
AcDbEntity
8
0
100
AcDbLine
62
2
6
CONTINUOUS
10
282.3301894001
20
235.1764417693
11
283.8301894001
21
236.6764417693
0
LINE
5
759
100
AcDbEntity
8
0
100
AcDbLine
62
2
6
CONTINUOUS
10
260.8125920777
20
211.5375241034
11
262.3178464280
21
213.0427784536
0
LINE
5
75A
100
AcDbEntity
8
0
100
AcDbLine
62
2
6
CONTINUOUS
10
284.4515097437
20
235.1764417693
11
285.9515097437
21
236.6764417693
0
LINE
5
75B
100
AcDbEntity
8
0
100
AcDbLine
62
7
6
CONTINUOUS
10
270.7871421266
20
227.1764417693
11
270.9864344997
21
215.7589893629
0
LINE
5
75C
100
AcDbEntity
8
0
100
AcDbLine
62
2
6
CONTINUOUS
10
260.8051613044
20
209.4087729865
11
262.3104156546
21
210.9140273367
0
LINE
5
75D
100
AcDbEntity
8
0
100
AcDbLine
62
2
6
CONTINUOUS
10
286.5728300872
20
235.1764417693
11
286.9862821948
21
235.5898938769
0
LINE
5
75E
100
AcDbEntity
8
0
100
AcDbLine
62
7
6
CONTINUOUS
10
260.7660366888
20
198.2004417693
11
262.2660366888
21
198.2004417693
0
LINE
5
75F
100
AcDbEntity
8
0
100
AcDbLine
62
7
6
CONTINUOUS
10
273.1854222631
20
227.1764417693
11
272.9861298900
21
215.7589893629
0
LINE
5
760
100
AcDbEntity
8
0
100
AcDbLine
62
2
6
CONTINUOUS
10
260.7977305310
20
207.2800218695
11
262.3029848812
21
208.7852762198
0
LINE
5
761
100
AcDbEntity
8
0
100
AcDbLine
62
2
6
CONTINUOUS
10
260.7902997576
20
205.1512707526
11
262.2955541079
21
206.6565251028
0
LINE
5
762
100
AcDbEntity
8
0
100
AcDbLine
62
7
6
CONTINUOUS
10
263.1362821948
20
200.1764417693
11
262.2729342580
21
200.1764417693
0
LINE
5
763
100
AcDbEntity
8
0
100
AcDbLine
62
7
6
CONTINUOUS
10
276.7871421266
20
227.1764417693
11
276.9864344997
21
215.7589893629
0
LINE
5
764
100
AcDbEntity
8
0
100
AcDbLine
62
2
6
CONTINUOUS
10
260.7828689843
20
203.0225196357
11
262.2881233345
21
204.5277739859
0
LINE
5
765
100
AcDbEntity
8
0
100
AcDbLine
62
7
6
CONTINUOUS
10
265.4362821948
20
203.8764417693
11
308.5362821948
21
203.8764417693
0
LINE
5
766
100
AcDbEntity
8
0
100
AcDbLine
62
7
6
CONTINUOUS
10
279.1854222631
20
227.1764417693
11
278.9861298900
21
215.7589893629
0
LINE
5
767
100
AcDbEntity
8
0
100
AcDbLine
62
2
6
CONTINUOUS
10
260.7754382109
20
200.8937685187
11
262.2806925611
21
202.3990228690
0
LINE
5
768
100
AcDbEntity
8
0
100
AcDbLine
62
2
6
CONTINUOUS
10
260.7680074375
20
198.7650174018
11
262.2732617878
21
200.2702717521
0
LINE
5
769
100
AcDbEntity
8
0
100
AcDbLine
62
7
6
CONTINUOUS
10
286.9862821948
20
208.1764417693
11
263.2060971372
21
208.1764417693
0
LINE
5
76A
100
AcDbEntity
8
0
100
AcDbLine
62
7
6
CONTINUOUS
10
312.1699533215
20
209.6764417693
11
286.9862821948
21
209.6764417693
0
POLYLINE
5
76B
100
AcDbEntity
8
0
100
AcDb2dPolyline
62
9
6
CONTINUOUS
66
1
70
0
0
VERTEX
5
76C
100
AcDbEntity
8
0
100
AcDbVertex
62
9
6
CONTINUOUS
100
AcDb2dVertex
10
313.1699472292
20
208.6799324207
0
VERTEX
5
76D
100
AcDbEntity
8
0
100
AcDbVertex
62
9
6
CONTINUOUS
100
AcDb2dVertex
10
313.1210010315
20
208.6808402281
0
VERTEX
5
76E
100
AcDbEntity
8
0
100
AcDbVertex
62
9
6
CONTINUOUS
100
AcDb2dVertex
10
312.9789610900
20
208.6813174903
0
VERTEX
5
76F
100
AcDbEntity
8
0
100
AcDbVertex
62
9
6
CONTINUOUS
100
AcDb2dVertex
10
286.9862821948
20
208.6799324207
0
SEQEND
5
770
100
AcDbEntity
8
0
0
LINE
5
771
100
AcDbEntity
8
0
100
AcDbLine
62
7
6
CONTINUOUS
10
282.7871421266
20
227.1764417693
11
282.9864344997
21
215.7589893629
0
LINE
5
772
100
AcDbEntity
8
0
100
AcDbLine
62
2
6
CONTINUOUS
10
260.7457151174
20
192.3787640510
11
262.0173928357
21
193.6504417693
0
LINE
5
773
100
AcDbEntity
8
0
100
AcDbLine
62
9
6
CONTINUOUS
10
286.9862821948
20
210.6729511179
11
312.1629963456
21
210.6729511179
0
LINE
5
774
100
AcDbEntity
8
0
100
AcDbLine
62
7
6
CONTINUOUS
10
269.0862821948
20
211.1764417693
11
268.3862821948
21
211.1764417693
0
LINE
5
775
100
AcDbEntity
8
0
100
AcDbLine
62
7
6
CONTINUOUS
10
266.0862821948
20
211.1764417693
11
265.3862821948
21
211.1764417693
0
LINE
5
776
100
AcDbEntity
8
DEFAULT_1
100
AcDbLine
62
2
6
CENTER
10
286.9862821948
20
261.4026880381
11
286.9862821948
21
238.6764417693
0
LINE
5
777
100
AcDbEntity
8
DEFAULT_1
100
AcDbLine
62
2
6
CENTER
10
286.9862821948
20
203.8764417693
11
286.9862821948
21
184.6749782843
0
LINE
5
778
100
AcDbEntity
8
0
100
AcDbLine
62
7
6
CONTINUOUS
10
286.9862821948
20
203.8764417693
11
286.9862821948
21
238.6764417693
0
LINE
5
779
100
AcDbEntity
8
0
100
AcDbLine
62
7
6
CONTINUOUS
10
285.1854222631
20
227.1764417693
11
284.9861298900
21
215.7589893629
0
LINE
5
77A
100
AcDbEntity
8
0
100
AcDbLine
62
2
6
CONTINUOUS
10
260.7382843440
20
190.2500129341
11
262.2435386943
21
191.7552672843
0
LINE
5
77B
100
AcDbEntity
8
0
100
AcDbLine
62
7
6
CONTINUOUS
10
288.7609595292
20
228.6764417693
11
288.9864344997
21
215.7589893629
0
LINE
5
77C
100
AcDbEntity
8
DEFAULT_1
100
AcDbLine
62
2
6
CENTER
10
301.9862821948
20
215.7764417693
11
297.9861821948
21
215.7764417693
0
LINE
5
77D
100
AcDbEntity
8
DEFAULT_1
100
AcDbLine
62
2
6
CENTER
10
295.9862821948
20
215.7764417693
11
291.9861821948
21
215.7764417693
0
LINE
5
77E
100
AcDbEntity
8
DEFAULT_1
100
AcDbLine
62
2
6
CENTER
10
289.9862821948
20
215.7764417693
11
285.9861821948
21
215.7764417693
0
LINE
5
77F
100
AcDbEntity
8
DEFAULT_1
100
AcDbLine
62
2
6
CENTER
10
289.9862821948
20
215.7764417693
11
291.9861821948
21
215.7764417693
0
LINE
5
780
100
AcDbEntity
8
DEFAULT_1
100
AcDbLine
62
2
6
CENTER
10
295.9862821948
20
215.7764417693
11
297.9861821948
21
215.7764417693
0
LINE
5
781
100
AcDbEntity
8
DEFAULT_1
100
AcDbLine
62
2
6
CENTER
10
301.9862821948
20
215.7764417693
11
335.1662690265
21
215.7764417693
0
LINE
5
782
100
AcDbEntity
8
DEFAULT_1
100
AcDbLine
62
2
6
CENTER
10
289.9862821948
20
215.7764417693
11
289.9862821948
21
211.7763417693
0
LINE
5
783
100
AcDbEntity
8
DEFAULT_1
100
AcDbLine
62
2
6
CENTER
10
289.9862821948
20
215.7764417693
11
289.9862821948
21
260.8074991363
0
LINE
5
784
100
AcDbEntity
8
0
100
AcDbLine
62
7
6
CONTINUOUS
10
290.9861298900
20
215.7589893629
11
291.2116048605
21
228.6764417693
0
LINE
5
785
100
AcDbEntity
8
0
100
AcDbLine
62
7
6
CONTINUOUS
10
294.7609595292
20
228.6764417693
11
294.9864344997
21
215.7589893629
0
LINE
5
786
100
AcDbEntity
8
DEFAULT_1
100
AcDbLine
62
2
6
CENTER
10
295.9862821948
20
215.7764417693
11
295.9862821948
21
211.7763417693
0
LINE
5
787
100
AcDbEntity
8
DEFAULT_1
100
AcDbLine
62
2
6
CENTER
10
295.9862821948
20
215.7764417693
11
295.9862821948
21
251.9788637594
0
LINE
5
788
100
AcDbEntity
8
0
100
AcDbLine
62
7
6
CONTINUOUS
10
296.9861298900
20
215.7589893629
11
297.2116048605
21
228.6764417693
0
LINE
5
789
100
AcDbEntity
8
0
100
AcDbLine
62
7
6
CONTINUOUS
10
300.7609595292
20
228.6764417693
11
300.9864344997
21
215.7589893629
0
LINE
5
78A
100
AcDbEntity
8
0
100
AcDbLine
62
7
6
CONTINUOUS
10
286.9862821948
20
227.1764417693
11
263.3719076252
21
227.1764417693
0
LINE
5
78B
100
AcDbEntity
8
0
100
AcDbLine
62
7
6
CONTINUOUS
10
288.7871421266
20
227.1764417693
11
291.1854222631
21
227.1764417693
0
LINE
5
78C
100
AcDbEntity
8
0
100
AcDbLine
62
7
6
CONTINUOUS
10
294.7871421266
20
227.1764417693
11
297.1854222631
21
227.1764417693
0
LINE
5
78D
100
AcDbEntity
8
0
100
AcDbLine
62
7
6
CONTINUOUS
10
300.7871421266
20
227.1764417693
11
303.1854222631
21
227.1764417693
0
LINE
5
78E
100
AcDbEntity
8
0
100
AcDbLine
62
9
6
CONTINUOUS
10
288.7783536646
20
227.6799324207
11
286.9862821948
21
227.6799324207
0
LINE
5
78F
100
AcDbEntity
8
0
100
AcDbLine
62
9
6
CONTINUOUS
10
291.1942107251
20
227.6799324207
11
294.7783536646
21
227.6799324207
0
LINE
5
790
100
AcDbEntity
8
0
100
AcDbLine
62
9
6
CONTINUOUS
10
297.1942107251
20
227.6799324207
11
300.7783536646
21
227.6799324207
0
LINE
5
791
100
AcDbEntity
8
0
100
AcDbLine
62
7
6
CONTINUOUS
10
286.9862821948
20
228.6764417693
11
312.1036305406
21
228.6764417693
0
POLYLINE
5
792
100
AcDbEntity
8
0
100
AcDb2dPolyline
62
9
6
CONTINUOUS
66
1
70
0
0
VERTEX
5
793
100
AcDbEntity
8
0
100
AcDbVertex
62
9
6
CONTINUOUS
100
AcDb2dVertex
10
313.1036244482
20
227.6799324207
0
VERTEX
5
794
100
AcDbEntity
8
0
100
AcDbVertex
62
9
6
CONTINUOUS
100
AcDb2dVertex
10
313.0556945588
20
227.6808327959
0
VERTEX
5
795
100
AcDbEntity
8
0
100
AcDbVertex
62
9
6
CONTINUOUS
100
AcDb2dVertex
10
312.9141999329
20
227.6813154176
0
VERTEX
5
796
100
AcDbEntity
8
0
100
AcDbVertex
62
9
6
CONTINUOUS
100
AcDb2dVertex
10
303.1942107251
20
227.6799324207
0
SEQEND
5
797
100
AcDbEntity
8
0
0
LINE
5
798
100
AcDbEntity
8
DEFAULT_1
100
AcDbLine
62
2
6
CENTER
10
301.9862821948
20
215.7764417693
11
301.9862821948
21
211.7763417693
0
LINE
5
799
100
AcDbEntity
8
DEFAULT_1
100
AcDbLine
62
2
6
CENTER
10
301.9862821948
20
215.7764417693
11
301.9862821948
21
219.7765417693
0
LINE
5
79A
100
AcDbEntity
8
0
100
AcDbLine
62
7
6
CONTINUOUS
10
302.9861298900
20
215.7589893629
11
303.2116048605
21
228.6764417693
0
LINE
5
79B
100
AcDbEntity
8
0
100
AcDbLine
62
9
6
CONTINUOUS
10
286.9862821948
20
229.6729511179
11
312.0966735646
21
229.6729511179
0
LINE
5
79C
100
AcDbEntity
8
0
100
AcDbLine
62
7
6
CONTINUOUS
10
308.5362821948
20
189.6764417693
11
308.5362821948
21
203.8764417693
0
LINE
5
79D
100
AcDbEntity
8
0
100
AcDbLine
62
7
6
CONTINUOUS
10
262.3951078019
20
235.1764417693
11
286.9862821948
21
235.1764417693
0
LINE
5
79E
100
AcDbEntity
8
0
100
AcDbLine
62
7
6
CONTINUOUS
10
262.4003438109
20
236.6764417693
11
286.9862821948
21
236.6764417693
0
POLYLINE
5
79F
100
AcDbEntity
8
0
100
AcDb2dPolyline
62
9
6
CONTINUOUS
66
1
70
0
0
VERTEX
5
7A0
100
AcDbEntity
8
0
100
AcDbVertex
62
9
6
CONTINUOUS
100
AcDb2dVertex
10
313.0687177214
20
237.6799324207
0
VERTEX
5
7A1
100
AcDbEntity
8
0
100
AcDbVertex
62
9
6
CONTINUOUS
100
AcDb2dVertex
10
313.0197715237
20
237.6808402281
0
VERTEX
5
7A2
100
AcDbEntity
8
0
100
AcDbVertex
62
9
6
CONTINUOUS
100
AcDb2dVertex
10
312.8777315822
20
237.6813174903
0
VERTEX
5
7A3
100
AcDbEntity
8
0
100
AcDbVertex
62
9
6
CONTINUOUS
100
AcDb2dVertex
10
286.9862821948
20
237.6799324207
0
SEQEND
5
7A4
100
AcDbEntity
8
0
0
LINE
5
7A5
100
AcDbEntity
8
0
100
AcDbLine
62
9
6
CONTINUOUS
10
312.0687238138
20
237.6799324207
11
312.0966735646
21
229.6729511179
0
LINE
5
7A6
100
AcDbEntity
8
0
100
AcDbLine
62
9
6
CONTINUOUS
10
312.1036305406
20
227.6799324207
11
312.1629963456
21
210.6729511179
0
LINE
5
7A7
100
AcDbEntity
8
0
100
AcDbLine
62
9
6
CONTINUOUS
10
312.1699533215
20
208.6799324207
11
312.2362882872
21
189.6764417693
0
LINE
5
7A8
100
AcDbEntity
8
0
100
AcDbLine
62
7
6
CONTINUOUS
10
313.0687177214
20
237.6799324207
11
313.2362821948
21
189.6764417693
0
LINE
5
7A9
100
AcDbEntity
8
0
100
AcDbLine
62
9
6
CONTINUOUS
10
312.0687238138
20
238.6764417693
11
312.0687238138
21
237.6799324207
0
LINE
5
7AA
100
AcDbEntity
8
0
100
AcDbLine
62
9
6
CONTINUOUS
10
312.1036305406
20
228.6764417693
11
312.1036305406
21
227.6799324207
0
LINE
5
7AB
100
AcDbEntity
8
0
100
AcDbLine
62
9
6
CONTINUOUS
10
312.1699533215
20
209.6764417693
11
312.1699533215
21
208.6799324207
0
LINE
5
7AC
100
AcDbEntity
8
0
100
AcDbLine
62
7
6
CONTINUOUS
10
261.9038405759
20
238.6764417693
11
312.0687238138
21
238.6764417693
0
ARC
5
7AD
100
AcDbEntity
8
0
100
AcDbCircle
62
7
6
CONTINUOUS
10
167.3833435272
20
210.6764417693
40
1.0000000000
100
AcDbArc
50
180.2000000000
51
270.0000000000
0
ARC
5
7AE
100
AcDbEntity
8
0
100
AcDbCircle
62
7
6
CONTINUOUS
10
165.3239899069
20
227.6764417693
40
1.0000000000
100
AcDbArc
50
0.2000000000
51
90.0000000000
0
ARC
5
7AF
100
AcDbEntity
8
0
100
AcDbCircle
62
7
6
CONTINUOUS
10
160.4333435272
20
229.6764417693
40
1.0000000000
100
AcDbArc
50
180.2000000000
51
270.0000000000
0
ARC
5
7B0
100
AcDbEntity
8
0
100
AcDbCircle
62
7
6
CONTINUOUS
10
158.4054059610
20
237.6764417693
40
1.0000000000
100
AcDbArc
50
0.2000000000
51
90.0000000000
0
ARC
5
7B1
100
AcDbEntity
8
0
100
AcDbCircle
62
7
6
CONTINUOUS
10
114.3682502540
20
237.6764417693
40
1.0000000000
100
AcDbArc
50
90.0000000000
51
179.8000000000
0
ARC
5
7B2
100
AcDbEntity
8
0
100
AcDbCircle
62
7
6
CONTINUOUS
10
112.3403126878
20
229.6764417693
40
1.0000000000
100
AcDbArc
50
270.0000000000
51
359.8000000000
0
ARC
5
7B3
100
AcDbEntity
8
0
100
AcDbCircle
62
7
6
CONTINUOUS
10
107.4496663082
20
227.6764417693
40
1.0000000000
100
AcDbArc
50
90.0000000000
51
179.8000000000
0
ARC
5
7B4
100
AcDbEntity
8
0
100
AcDbCircle
62
7
6
CONTINUOUS
10
105.3903126878
20
210.6764417693
40
1.0000000000
100
AcDbArc
50
270.0000000000
51
359.8000000000
0
ARC
5
7B5
100
AcDbEntity
8
0
100
AcDbCircle
62
7
6
CONTINUOUS
10
94.4531569808
20
208.6764417693
40
1.0000000000
100
AcDbArc
50
90.0000000000
51
179.8000000000
0
ARC
5
7B6
100
AcDbEntity
8
0
100
AcDbCircle
62
7
6
CONTINUOUS
10
178.3204992342
20
208.6764417693
40
1.0000000000
100
AcDbArc
50
0.2000000000
51
90.0000000000
0
ARC
5
7B7
100
AcDbEntity
8
0
100
AcDbCircle
62
7
6
CONTINUOUS
10
261.9038405759
20
237.6764417693
40
1.0000000000
100
AcDbArc
50
90.0000000000
51
179.8000000000
0
ARC
5
7B8
100
AcDbEntity
8
0
100
AcDbCircle
62
7
6
CONTINUOUS
10
312.0687238138
20
237.6764417693
40
1.0000000000
100
AcDbArc
50
0.2000000000
51
90.0000000000
0
ARC
5
7B9
100
AcDbEntity
8
0
100
AcDbCircle
62
7
6
CONTINUOUS
10
312.1036304517
20
227.6764672382
40
0.9999872656
100
AcDbArc
50
0.1985407329
51
89.9999949061
0
ARC
5
7BA
100
AcDbEntity
8
0
100
AcDbCircle
62
7
6
CONTINUOUS
10
312.1699533215
20
208.6764417693
40
1.0000000000
100
AcDbArc
50
0.2000000000
51
90.0000000000
0
ARC
5
7BB
100
AcDbEntity
8
0
100
AcDbCircle
62
7
6
CONTINUOUS
10
289.9862821948
20
215.7764417693
40
1.0000000000
100
AcDbArc
50
181.0000000000
51
359.0000000000
0
ARC
5
7BC
100
AcDbEntity
8
0
100
AcDbCircle
62
7
6
CONTINUOUS
10
295.9862821948
20
215.7764417693
40
1.0000000000
100
AcDbArc
50
181.0000000000
51
359.0000000000
0
ARC
5
7BD
100
AcDbEntity
8
0
100
AcDbCircle
62
7
6
CONTINUOUS
10
301.9862821948
20
215.7764417693
40
1.0000000000
100
AcDbArc
50
181.0000000000
51
359.0000000000
0
ARC
5
7BE
100
AcDbEntity
8
0
100
AcDbCircle
62
7
6
CONTINUOUS
10
271.9862821948
20
215.7764417693
40
1.0000000000
100
AcDbArc
50
181.0000000000
51
359.0000000000
0
ARC
5
7BF
100
AcDbEntity
8
0
100
AcDbCircle
62
7
6
CONTINUOUS
10
277.9862821948
20
215.7764417693
40
1.0000000000
100
AcDbArc
50
181.0000000000
51
359.0000000000
0
ARC
5
7C0
100
AcDbEntity
8
0
100
AcDbCircle
62
7
6
CONTINUOUS
10
283.9862821948
20
215.7764417693
40
1.0000000000
100
AcDbArc
50
181.0000000000
51
359.0000000000
0
SPLINE
5
7C1
100
AcDbEntity
8
0
100
AcDbSpline
62
7
6
CONTINUOUS
70
0
71
3
72
12
73
8
74
6
42
0.0000001000
43
0.0000001000
44
0.0000000001
40
0.0000000000
40
0.0000000000
40
0.0000000000
40
0.0000000000
40
0.1989015326
40
0.4003678466
40
0.5999171887
40
0.8009519027
40
1.0000000000
40
1.0000000000
40
1.0000000000
40
1.0000000000
10
93.3868281075
20
137.8363022850
30
0.0000000000
10
93.3868281075
20
137.9400185234
30
0.0000000000
10
93.4198347447
20
138.1502327985
30
0.0000000000
10
93.5640725747
20
138.4335073787
30
0.0000000000
10
93.7898289005
20
138.6591594140
30
0.0000000000
10
94.0729601993
20
138.8032862128
30
0.0000000000
10
94.2830293513
20
138.8362961926
30
0.0000000000
10
94.3868220152
20
138.8362961926
30
0.0000000000
11
93.3868281075
21
137.8363022850
31
0.0000000000
11
93.4352347554
21
138.1436625288
31
0.0000000000
11
93.5781518641
21
138.4245559053
31
0.0000000000
11
93.7989336414
21
138.6452380018
31
0.0000000000
11
94.0792409105
21
138.7878181794
31
0.0000000000
11
94.3868220152
21
138.8362961926
31
0.0000000000
0
SPLINE
5
7C2
100
AcDbEntity
8
0
100
AcDbSpline
62
7
6
CONTINUOUS
70
0
71
3
72
8
73
4
74
2
42
0.0000001000
43
0.0000001000
44
0.0000000001
40
0.0000000000
40
0.0000000000
40
0.0000000000
40
0.0000000000
40
1.0000000000
40
1.0000000000
40
1.0000000000
40
1.0000000000
10
107.3903012864
20
138.7630034677
30
0.0000000000
10
107.3783656054
20
138.7754002033
30
0.0000000000
10
107.3579404445
20
138.7687145111
30
0.0000000000
10
107.3386984977
20
138.7645552465
30
0.0000000000
11
107.3903012864
21
138.7630034677
31
0.0000000000
11
107.3386984977
21
138.7645552465
31
0.0000000000
0
SPLINE
5
7C3
100
AcDbEntity
8
0
100
AcDbSpline
62
7
6
CONTINUOUS
70
0
71
3
72
8
73
4
74
2
42
0.0000001000
43
0.0000001000
44
0.0000000001
40
0.0000000000
40
0.0000000000
40
0.0000000000
40
0.0000000000
40
1.0000000000
40
1.0000000000
40
1.0000000000
40
1.0000000000
10
107.3386984977
20
138.7645552465
30
0.0000000000
10
107.2833489355
20
138.7525910997
30
0.0000000000
10
107.2377896221
20
138.7615313295
30
0.0000000000
10
107.1902029610
20
138.7660236250
30
0.0000000000
11
107.3386984977
21
138.7645552465
31
0.0000000000
11
107.1902029610
21
138.7660236250
31
0.0000000000
0
SPLINE
5
7C4
100
AcDbEntity
8
0
100
AcDbSpline
62
7
6
CONTINUOUS
70
0
71
3
72
12
73
8
74
6
42
0.0000001000
43
0.0000001000
44
0.0000000001
40
0.0000000000
40
0.0000000000
40
0.0000000000
40
0.0000000000
40
0.1322362654
40
0.3075452101
40
0.5173395742
40
0.7512878001
40
1.0000000000
40
1.0000000000
40
1.0000000000
40
1.0000000000
10
107.1902029610
20
138.7660236250
30
0.0000000000
10
107.1140329387
20
138.7732142587
30
0.0000000000
10
106.9248019175
20
138.7634335114
30
0.0000000000
10
106.6174033616
20
138.7700530463
30
0.0000000000
10
106.2455649194
20
138.7688678228
30
0.0000000000
10
105.8309515616
20
138.7699998367
30
0.0000000000
10
105.5416766711
20
138.7699669122
30
0.0000000000
10
105.3926518051
20
138.7699612269
30
0.0000000000
11
107.1902029610
21
138.7660236250
31
0.0000000000
11
106.9525042476
21
138.7673390910
31
0.0000000000
11
106.6373781719
21
138.7684378665
31
0.0000000000
11
106.2602615493
21
138.7692661194
31
0.0000000000
11
105.8397263675
21
138.7697825875
31
0.0000000000
11
105.3926518051
21
138.7699612269
31
0.0000000000
0
SPLINE
5
7C5
100
AcDbEntity
8
0
100
AcDbSpline
62
7
6
CONTINUOUS
70
0
71
3
72
8
73
4
74
2
42
0.0000001000
43
0.0000001000
44
0.0000000001
40
0.0000000000
40
0.0000000000
40
0.0000000000
40
0.0000000000
40
1.0000000000
40
1.0000000000
40
1.0000000000
40
1.0000000000
10
114.3403012864
20
138.6966806867
30
0.0000000000
10
114.3283656054
20
138.7090774224
30
0.0000000000
10
114.3079404445
20
138.7023917302
30
0.0000000000
10
114.2886984977
20
138.6982324656
30
0.0000000000
11
114.3403012864
21
138.6966806867
31
0.0000000000
11
114.2886984977
21
138.6982324656
31
0.0000000000
0
SPLINE
5
7C6
100
AcDbEntity
8
0
100
AcDbSpline
62
7
6
CONTINUOUS
70
0
71
3
72
8
73
4
74
2
42
0.0000001000
43
0.0000001000
44
0.0000000001
40
0.0000000000
40
0.0000000000
40
0.0000000000
40
0.0000000000
40
1.0000000000
40
1.0000000000
40
1.0000000000
40
1.0000000000
10
114.2886984977
20
138.6982324656
30
0.0000000000
10
114.2333489354
20
138.6862683188
30
0.0000000000
10
114.1877896219
20
138.6952085486
30
0.0000000000
10
114.1402029608
20
138.6997008441
30
0.0000000000
11
114.2886984977
21
138.6982324656
31
0.0000000000
11
114.1402029608
21
138.6997008441
31
0.0000000000
0
SPLINE
5
7C7
100
AcDbEntity
8
0
100
AcDbSpline
62
7
6
CONTINUOUS
70
0
71
3
72
12
73
8
74
6
42
0.0000001000
43
0.0000001000
44
0.0000000001
40
0.0000000000
40
0.0000000000
40
0.0000000000
40
0.0000000000
40
0.1322362655
40
0.3075452101
40
0.5173395743
40
0.7512878001
40
1.0000000000
40
1.0000000000
40
1.0000000000
40
1.0000000000
10
114.1402029608
20
138.6997008441
30
0.0000000000
10
114.0640329384
20
138.7068914777
30
0.0000000000
10
113.8748019171
20
138.6971107305
30
0.0000000000
10
113.5674033610
20
138.7037302654
30
0.0000000000
10
113.1955649186
20
138.7025450418
30
0.0000000000
10
112.7809515606
20
138.7036770558
30
0.0000000000
10
112.4916766698
20
138.7036441312
30
0.0000000000
10
112.3426518038
20
138.7036384460
30
0.0000000000
11
114.1402029608
21
138.6997008441
31
0.0000000000
11
113.9025042473
21
138.7010163100
31
0.0000000000
11
113.5873781713
21
138.7021150856
31
0.0000000000
11
113.2102615485
21
138.7029433385
31
0.0000000000
11
112.7897263665
21
138.7034598066
31
0.0000000000
11
112.3426518038
21
138.7036384460
31
0.0000000000
0
SPLINE
5
7C8
100
AcDbEntity
8
0
100
AcDbSpline
62
7
6
CONTINUOUS
70
0
71
3
72
12
73
8
74
6
42
0.0000001000
43
0.0000001000
44
0.0000000001
40
0.0000000000
40
0.0000000000
40
0.0000000000
40
0.0000000000
40
0.2487122922
40
0.4826605340
40
0.6924548763
40
0.8677637785
40
1.0000000000
40
1.0000000000
40
1.0000000000
40
1.0000000000
10
112.3426547996
20
86.4689539392
30
0.0000000000
10
112.4916795029
20
86.4689482545
30
0.0000000000
10
112.7809540353
20
86.4689153318
30
0.0000000000
10
113.1955668384
20
86.4700473459
30
0.0000000000
10
113.5674047078
20
86.4688621259
30
0.0000000000
10
113.8748027498
20
86.4754816511
30
0.0000000000
10
114.0640334411
20
86.4657009228
30
0.0000000000
10
114.1402033267
20
86.4728915438
30
0.0000000000
11
112.3426547996
21
86.4689539392
31
0.0000000000
11
112.7897288741
21
86.4691325806
31
0.0000000000
11
113.2102634695
21
86.4696490500
31
0.0000000000
11
113.5873795012
21
86.4704773033
31
0.0000000000
11
113.9025050399
21
86.4715760787
31
0.0000000000
11
114.1402033267
21
86.4728915438
31
0.0000000000
0
SPLINE
5
7C9
100
AcDbEntity
8
0
100
AcDbSpline
62
7
6
CONTINUOUS
70
0
71
3
72
9
73
5
74
3
42
0.0000001000
43
0.0000001000
44
0.0000000001
40
0.0000000000
40
0.0000000000
40
0.0000000000
40
0.0000000000
40
0.7420356937
40
1.0000000000
40
1.0000000000
40
1.0000000000
40
1.0000000000
10
114.1402033267
20
86.4728915438
30
0.0000000000
10
114.1877899006
20
86.4773838312
30
0.0000000000
10
114.2491875267
20
86.4894320564
30
0.0000000000
10
114.3283656273
20
86.4635149853
30
0.0000000000
10
114.3403012865
20
86.4759116985
30
0.0000000000
11
114.1402033267
21
86.4728915438
31
0.0000000000
11
114.2886985918
21
86.4743599211
31
0.0000000000
11
114.3403012865
21
86.4759116985
31
0.0000000000
0
SPLINE
5
7CA
100
AcDbEntity
8
0
100
AcDbSpline
62
7
6
CONTINUOUS
70
0
71
3
72
12
73
8
74
6
42
0.0000001000
43
0.0000001000
44
0.0000000001
40
0.0000000000
40
0.0000000000
40
0.0000000000
40
0.0000000000
40
0.2487122921
40
0.4826605339
40
0.6924548762
40
0.8677637784
40
1.0000000000
40
1.0000000000
40
1.0000000000
40
1.0000000000
10
105.3926547972
20
86.4026311583
30
0.0000000000
10
105.5416795006
20
86.4026254735
30
0.0000000000
10
105.8309540333
20
86.4025925508
30
0.0000000000
10
106.2455668368
20
86.4037245650
30
0.0000000000
10
106.6174047067
20
86.4025393450
30
0.0000000000
10
106.9248027491
20
86.4091588701
30
0.0000000000
10
107.1140334407
20
86.3993781419
30
0.0000000000
10
107.1902033264
20
86.4065687628
30
0.0000000000
11
105.3926547972
21
86.4026311583
31
0.0000000000
11
105.8397288721
21
86.4028097997
31
0.0000000000
11
106.2602634679
21
86.4033262690
31
0.0000000000
11
106.6373795001
21
86.4041545224
31
0.0000000000
11
106.9525050392
21
86.4052532977
31
0.0000000000
11
107.1902033264
21
86.4065687628
31
0.0000000000
0
SPLINE
5
7CB
100
AcDbEntity
8
0
100
AcDbSpline
62
7
6
CONTINUOUS
70
0
71
3
72
9
73
5
74
3
42
0.0000001000
43
0.0000001000
44
0.0000000001
40
0.0000000000
40
0.0000000000
40
0.0000000000
40
0.0000000000
40
0.7420356937
40
1.0000000000
40
1.0000000000
40
1.0000000000
40
1.0000000000
10
107.1902033264
20
86.4065687628
30
0.0000000000
10
107.2377899004
20
86.4110610503
30
0.0000000000
10
107.2991875266
20
86.4231092755
30
0.0000000000
10
107.3783656272
20
86.3971922044
30
0.0000000000
10
107.3903012865
20
86.4095889175
30
0.0000000000
11
107.1902033264
21
86.4065687628
31
0.0000000000
11
107.3386985917
21
86.4080371401
31
0.0000000000
11
107.3903012865
21
86.4095889175
31
0.0000000000
0
SPLINE
5
7CC
100
AcDbEntity
8
0
100
AcDbSpline
62
7
6
CONTINUOUS
70
0
71
3
72
12
73
8
74
6
42
0.0000001000
43
0.0000001000
44
0.0000000001
40
0.0000000000
40
0.0000000000
40
0.0000000000
40
0.0000000000
40
0.1990480973
40
0.4000828113
40
0.5996321534
40
0.8010984674
40
1.0000000000
40
1.0000000000
40
1.0000000000
40
1.0000000000
10
94.3868220152
20
86.3362961926
30
0.0000000000
10
94.2830293513
20
86.3362961926
30
0.0000000000
10
94.0729601993
20
86.3693061724
30
0.0000000000
10
93.7898289005
20
86.5134329713
30
0.0000000000
10
93.5640725747
20
86.7390850065
30
0.0000000000
10
93.4198347447
20
87.0223595867
30
0.0000000000
10
93.3868281075
20
87.2325738618
30
0.0000000000
10
93.3868281075
20
87.3362901003
30
0.0000000000
11
94.3868220152
21
86.3362961926
31
0.0000000000
11
94.0792409105
21
86.3847742058
31
0.0000000000
11
93.7989336414
21
86.5273543834
31
0.0000000000
11
93.5781518641
21
86.7480364800
31
0.0000000000
11
93.4352347554
21
87.0289298564
31
0.0000000000
11
93.3868281075
21
87.3362901003
31
0.0000000000
0
SPLINE
5
7CD
100
AcDbEntity
8
0
100
AcDbSpline
62
7
6
CONTINUOUS
70
0
71
3
72
8
73
4
74
2
42
0.0000001000
43
0.0000001000
44
0.0000000001
40
0.0000000000
40
0.0000000000
40
0.0000000000
40
0.0000000000
40
1.0000000000
40
1.0000000000
40
1.0000000000
40
1.0000000000
10
158.4333067007
20
86.4759599263
30
0.0000000000
10
158.4247146697
20
86.4617701410
30
0.0000000000
10
158.4566474153
20
86.4695068207
30
0.0000000000
10
158.4830469174
20
86.4743889764
30
0.0000000000
11
158.4333067007
21
86.4759599263
31
0.0000000000
11
158.4830469174
21
86.4743889764
31
0.0000000000
0
SPLINE
5
7CE
100
AcDbEntity
8
0
100
AcDbSpline
62
7
6
CONTINUOUS
70
0
71
3
72
8
73
4
74
2
42
0.0000001000
43
0.0000001000
44
0.0000000001
40
0.0000000000
40
0.0000000000
40
0.0000000000
40
0.0000000000
40
1.0000000000
40
1.0000000000
40
1.0000000000
40
1.0000000000
10
158.4830469174
20
86.4743889764
30
0.0000000000
10
158.5613360681
20
86.4888672731
30
0.0000000000
10
158.5909630488
20
86.4782414272
30
0.0000000000
10
158.6306203784
20
86.4729120111
30
0.0000000000
11
158.4830469174
21
86.4743889764
31
0.0000000000
11
158.6306203784
21
86.4729120111
31
0.0000000000
0
SPLINE
5
7CF
100
AcDbEntity
8
0
100
AcDbSpline
62
7
6
CONTINUOUS
70
0
71
3
72
12
73
8
74
6
42
0.0000001000
43
0.0000001000
44
0.0000000001
40
0.0000000000
40
0.0000000000
40
0.0000000000
40
0.0000000000
40
0.1319475275
40
0.3073513820
40
0.5175227679
40
0.7521466580
40
1.0000000000
40
1.0000000000
40
1.0000000000
40
1.0000000000
10
158.6306203784
20
86.4729120111
30
0.0000000000
10
158.6945466134
20
86.4643211779
30
0.0000000000
10
158.9041630478
20
86.4763675708
30
0.0000000000
10
159.2021777195
20
86.4685421800
30
0.0000000000
10
159.5795112360
20
86.4701519272
30
0.0000000000
10
159.9942900962
20
86.4688816101
30
0.0000000000
10
160.2846105523
20
86.4689460367
30
0.0000000000
10
160.4335665310
20
86.4689539392
30
0.0000000000
11
158.6306203784
21
86.4729120111
31
0.0000000000
11
158.8685118879
21
86.4715876169
31
0.0000000000
11
159.1847548665
21
86.4704815536
31
0.0000000000
11
159.5636830902
21
86.4696485691
31
0.0000000000
11
159.9866986291
21
86.4691303590
31
0.0000000000
11
160.4335665310
21
86.4689539392
31
0.0000000000
0
SPLINE
5
7D0
100
AcDbEntity
8
0
100
AcDbSpline
62
7
6
CONTINUOUS
70
0
71
3
72
8
73
4
74
2
42
0.0000001000
43
0.0000001000
44
0.0000000001
40
0.0000000000
40
0.0000000000
40
0.0000000000
40
0.0000000000
40
1.0000000000
40
1.0000000000
40
1.0000000000
40
1.0000000000
10
165.3833148184
20
86.4096290277
30
0.0000000000
10
165.3747424017
20
86.3954716738
30
0.0000000000
10
165.4065974705
20
86.4031919442
30
0.0000000000
10
165.4329415811
20
86.4080678145
30
0.0000000000
11
165.3833148184
21
86.4096290277
31
0.0000000000
11
165.4329415811
21
86.4080678145
31
0.0000000000
0
SPLINE
5
7D1
100
AcDbEntity
8
0
100
AcDbSpline
62
7
6
CONTINUOUS
70
0
71
3
72
8
73
4
74
2
42
0.0000001000
43
0.0000001000
44
0.0000000001
40
0.0000000000
40
0.0000000000
40
0.0000000000
40
0.0000000000
40
1.0000000000
40
1.0000000000
40
1.0000000000
40
1.0000000000
10
165.4329415811
20
86.4080678145
30
0.0000000000
10
165.5112436308
20
86.4225602620
30
0.0000000000
10
165.5408594354
20
86.4119240194
30
0.0000000000
10
165.5805117446
20
86.4065900193
30
0.0000000000
11
165.4329415811
21
86.4080678145
31
0.0000000000
11
165.5805117446
21
86.4065900193
31
0.0000000000
0
SPLINE
5
7D2
100
AcDbEntity
8
0
100
AcDbSpline
62
7
6
CONTINUOUS
70
0
71
3
72
12
73
8
74
6
42
0.0000001000
43
0.0000001000
44
0.0000000001
40
0.0000000000
40
0.0000000000
40
0.0000000000
40
0.0000000000
40
0.1317590584
40
0.3069427257
40
0.5168755656
40
0.7510996549
40
1.0000000000
40
1.0000000000
40
1.0000000000
40
1.0000000000
10
165.5805117446
20
86.4065900193
30
0.0000000000
10
165.6444161554
20
86.3979936439
30
0.0000000000
10
165.8540136420
20
86.4100497140
30
0.0000000000
10
166.1520043797
20
86.4022179130
30
0.0000000000
10
166.5292677280
20
86.4038297990
30
0.0000000000
10
166.9447871705
20
86.4025566974
30
0.0000000000
10
167.2358450852
20
86.4026232129
30
0.0000000000
10
167.3856087456
20
86.4026311583
30
0.0000000000
11
165.5805117446
21
86.4065900193
31
0.0000000000
11
165.8183468460
21
86.4052655597
31
0.0000000000
11
166.1345696305
21
86.4041592895
31
0.0000000000
11
166.5135193010
21
86.4033260644
31
0.0000000000
11
166.9363177986
21
86.4028078829
31
0.0000000000
11
167.3856087456
21
86.4026311583
31
0.0000000000
0
SPLINE
5
7D3
100
AcDbEntity
8
0
100
AcDbSpline
62
7
6
CONTINUOUS
70
0
71
3
72
12
73
8
74
6
42
0.0000001000
43
0.0000001000
44
0.0000000001
40
0.0000000000
40
0.0000000000
40
0.0000000000
40
0.0000000000
40
0.1989015326
40
0.4003678466
40
0.5999171887
40
0.8009519027
40
1.0000000000
40
1.0000000000
40
1.0000000000
40
1.0000000000
10
179.3868281075
20
87.3362901003
30
0.0000000000
10
179.3868281075
20
87.2325738618
30
0.0000000000
10
179.3538214703
20
87.0223595867
30
0.0000000000
10
179.2095836403
20
86.7390850065
30
0.0000000000
10
178.9838273145
20
86.5134329713
30
0.0000000000
10
178.7006960157
20
86.3693061724
30
0.0000000000
10
178.4906268637
20
86.3362961926
30
0.0000000000
10
178.3868341998
20
86.3362961926
30
0.0000000000
11
179.3868281075
21
87.3362901003
31
0.0000000000
11
179.3384214596
21
87.0289298564
31
0.0000000000
11
179.1955043509
21
86.7480364800
31
0.0000000000
11
178.9747225736
21
86.5273543834
31
0.0000000000
11
178.6944153045
21
86.3847742058
31
0.0000000000
11
178.3868341998
21
86.3362961926
31
0.0000000000
0
SPLINE
5
7D4
100
AcDbEntity
8
0
100
AcDbSpline
62
7
6
CONTINUOUS
70
0
71
3
72
12
73
8
74
6
42
0.0000001000
43
0.0000001000
44
0.0000000001
40
0.0000000000
40
0.0000000000
40
0.0000000000
40
0.0000000000
40
0.2478535260
40
0.4824775521
40
0.6926489803
40
0.8680527378
40
1.0000000000
40
1.0000000000
40
1.0000000000
40
1.0000000000
10
167.3835665339
20
138.7699612269
30
0.0000000000
10
167.2346103026
20
138.7699691294
30
0.0000000000
10
166.9442892581
20
138.7700334858
30
0.0000000000
10
166.5295102802
20
138.7687634577
30
0.0000000000
10
166.1521748287
20
138.7703723040
30
0.0000000000
10
165.8541643625
20
138.7625494559
30
0.0000000000
10
165.6445397495
20
138.7745909549
30
0.0000000000
10
165.5806186627
20
138.7660031426
30
0.0000000000
11
167.3835665339
21
138.7699612269
31
0.0000000000
11
166.9366978742
21
138.7697848065
31
0.0000000000
11
166.5136816870
21
138.7692665947
31
0.0000000000
11
166.1347530258
21
138.7684336075
31
0.0000000000
11
165.8185099206
21
138.7673275407
31
0.0000000000
11
165.5806186627
21
138.7660031426
31
0.0000000000
0
SPLINE
5
7D5
100
AcDbEntity
8
0
100
AcDbSpline
62
7
6
CONTINUOUS
70
0
71
3
72
9
73
5
74
3
42
0.0000001000
43
0.0000001000
44
0.0000000001
40
0.0000000000
40
0.0000000000
40
0.0000000000
40
0.0000000000
40
0.7478315178
40
1.0000000000
40
1.0000000000
40
1.0000000000
40
1.0000000000
10
165.5806186627
20
138.7660031426
30
0.0000000000
10
165.5409646614
20
138.7606756186
30
0.0000000000
10
165.5013562522
20
138.7464719580
30
0.0000000000
10
165.3747066331
20
138.7771397434
30
0.0000000000
10
165.3833066799
20
138.7629552190
30
0.0000000000
11
165.5806186627
21
138.7660031426
31
0.0000000000
11
165.4330458590
21
138.7645261735
31
0.0000000000
11
165.3833066799
21
138.7629552190
31
0.0000000000
0
SPLINE
5
7D6
100
AcDbEntity
8
0
100
AcDbSpline
62
7
6
CONTINUOUS
70
0
71
3
72
12
73
8
74
6
42
0.0000001000
43
0.0000001000
44
0.0000000001
40
0.0000000000
40
0.0000000000
40
0.0000000000
40
0.0000000000
40
0.2478535261
40
0.4824775523
40
0.6926489805
40
0.8680527379
40
1.0000000000
40
1.0000000000
40
1.0000000000
40
1.0000000000
10
160.4335665339
20
138.7036384460
30
0.0000000000
10
160.2846103025
20
138.7036463485
30
0.0000000000
10
159.9942892577
20
138.7037107048
30
0.0000000000
10
159.5795102797
20
138.7024406769
30
0.0000000000
10
159.2021748273
20
138.7040495227
30
0.0000000000
10
158.9041643632
20
138.6962266759
30
0.0000000000
10
158.6945397461
20
138.7082681725
30
0.0000000000
10
158.6306186619
20
138.6996803616
30
0.0000000000
11
160.4335665339
21
138.7036384460
31
0.0000000000
11
159.9866978738
21
138.7034620256
31
0.0000000000
11
159.5636816863
21
138.7029438137
31
0.0000000000
11
159.1847530249
21
138.7021108265
31
0.0000000000
11
158.8685099196
21
138.7010047597
31
0.0000000000
11
158.6306186619
21
138.6996803616
31
0.0000000000
0
SPLINE
5
7D7
100
AcDbEntity
8
0
100
AcDbSpline
62
7
6
CONTINUOUS
70
0
71
3
72
9
73
5
74
3
42
0.0000001000
43
0.0000001000
44
0.0000000001
40
0.0000000000
40
0.0000000000
40
0.0000000000
40
0.0000000000
40
0.7478315193
40
1.0000000000
40
1.0000000000
40
1.0000000000
40
1.0000000000
10
158.6306186619
20
138.6996803616
30
0.0000000000
10
158.5909646622
20
138.6943528386
30
0.0000000000
10
158.5513562574
20
138.6801491806
30
0.0000000000
10
158.4247066291
20
138.7108169599
30
0.0000000000
10
158.4333066799
20
138.6966324381
30
0.0000000000
11
158.6306186619
21
138.6996803616
31
0.0000000000
11
158.4830458585
21
138.6982033925
31
0.0000000000
11
158.4333066799
21
138.6966324381
31
0.0000000000
0
SPLINE
5
7D8
100
AcDbEntity
8
0
100
AcDbSpline
62
7
6
CONTINUOUS
70
0
71
3
72
12
73
8
74
6
42
0.0000001000
43
0.0000001000
44
0.0000000001
40
0.0000000000
40
0.0000000000
40
0.0000000000
40
0.0000000000
40
0.1990480973
40
0.4000828113
40
0.5996321534
40
0.8010984674
40
1.0000000000
40
1.0000000000
40
1.0000000000
40
1.0000000000
10
178.3868341998
20
138.8362961926
30
0.0000000000
10
178.4906268637
20
138.8362961926
30
0.0000000000
10
178.7006960157
20
138.8032862128
30
0.0000000000
10
178.9838273145
20
138.6591594140
30
0.0000000000
10
179.2095836403
20
138.4335073787
30
0.0000000000
10
179.3538214703
20
138.1502327985
30
0.0000000000
10
179.3868281075
20
137.9400185234
30
0.0000000000
10
179.3868281075
20
137.8363022850
30
0.0000000000
11
178.3868341998
21
138.8362961926
31
0.0000000000
11
178.6944153045
21
138.7878181794
31
0.0000000000
11
178.9747225736
21
138.6452380018
31
0.0000000000
11
179.1955043509
21
138.4245559053
31
0.0000000000
11
179.3384214596
21
138.1436625288
31
0.0000000000
11
179.3868281075
21
137.8363022850
31
0.0000000000
0
SPLINE
5
7D9
100
AcDbEntity
8
0
100
AcDbSpline
62
7
6
CONTINUOUS
70
0
71
3
72
16
73
12
74
10
42
0.0000001000
43
0.0000001000
44
0.0000000001
40
0.0000000000
40
0.0000000000
40
0.0000000000
40
0.0000000000
40
0.0323511619
40
0.1205498771
40
0.2518259677
40
0.4150761045
40
0.5849238955
40
0.7481740323
40
0.8794501229
40
0.9676488381
40
1.0000000000
40
1.0000000000
40
1.0000000000
40
1.0000000000
10
106.4080602902
20
116.5861438878
30
0.0000000000
10
106.4038315438
20
116.5649980945
30
0.0000000000
10
106.4109834397
20
116.4837027354
30
0.0000000000
10
106.4031427056
20
116.3166750230
30
0.0000000000
10
106.4059516025
20
116.0611435187
30
0.0000000000
10
106.4043900036
20
115.7517682316
30
0.0000000000
10
106.4043900036
20
115.4208241536
30
0.0000000000
10
106.4059516025
20
115.1114488665
30
0.0000000000
10
106.4031427056
20
114.8559173622
30
0.0000000000
10
106.4109834397
20
114.6888896498
30
0.0000000000
10
106.4038315438
20
114.6075942907
30
0.0000000000
10
106.4080602902
20
114.5864484975
30
0.0000000000
11
106.4080602902
21
116.5861438878
31
0.0000000000
11
106.4068847707
21
116.5214611237
31
0.0000000000
11
106.4058476317
21
116.3450909491
31
0.0000000000
11
106.4050907391
21
116.0825758882
31
0.0000000000
11
106.4046812426
21
115.7561206760
31
0.0000000000
11
106.4046812426
21
115.4164717092
31
0.0000000000
11
106.4050907391
21
115.0900164970
31
0.0000000000
11
106.4058476317
21
114.8275014361
31
0.0000000000
11
106.4068847707
21
114.6511312615
31
0.0000000000
11
106.4080602902
21
114.5864484975
31
0.0000000000
0
SPLINE
5
7DA
100
AcDbEntity
8
0
100
AcDbSpline
62
7
6
CONTINUOUS
70
0
71
3
72
12
73
8
74
6
42
0.0000001000
43
0.0000001000
44
0.0000000001
40
0.0000000000
40
0.0000000000
40
0.0000000000
40
0.0000000000
40
0.0495423665
40
0.1928581537
40
0.4134889896
40
0.6932100167
40
1.0000000000
40
1.0000000000
40
1.0000000000
40
1.0000000000
10
106.4496724005
20
120.3783676624
30
0.0000000000
10
106.4529121181
20
120.3621674950
30
0.0000000000
10
106.5482062533
20
120.3885707923
30
0.0000000000
10
106.6574554757
20
120.3569357991
30
0.0000000000
10
106.8869349387
20
120.3679081505
30
0.0000000000
10
107.1502826510
20
120.3600387715
30
0.0000000000
10
107.3473608106
20
120.3609735270
30
0.0000000000
10
107.4496663082
20
120.3609735270
30
0.0000000000
11
106.4496724005
21
120.3783676624
31
0.0000000000
11
106.4989454938
21
120.3730166791
31
0.0000000000
11
106.6422371029
21
120.3681307238
31
0.0000000000
11
106.8629255691
21
120.3642939194
31
0.0000000000
11
107.1427509717
21
120.3618159639
31
0.0000000000
11
107.4496663082
21
120.3609735270
31
0.0000000000
0
SPLINE
5
7DB
100
AcDbEntity
8
0
100
AcDbSpline
62
7
6
CONTINUOUS
70
0
71
3
72
16
73
12
74
10
42
0.0000001000
43
0.0000001000
44
0.0000000001
40
0.0000000000
40
0.0000000000
40
0.0000000000
40
0.0000000000
40
0.0323511619
40
0.1205498771
40
0.2518259677
40
0.4150761045
40
0.5849238955
40
0.7481740323
40
0.8794501229
40
0.9676488381
40
1.0000000000
40
1.0000000000
40
1.0000000000
40
1.0000000000
10
106.4080602902
20
110.5861438878
30
0.0000000000
10
106.4038315438
20
110.5649980945
30
0.0000000000
10
106.4109834397
20
110.4837027354
30
0.0000000000
10
106.4031427056
20
110.3166750230
30
0.0000000000
10
106.4059516025
20
110.0611435187
30
0.0000000000
10
106.4043900036
20
109.7517682316
30
0.0000000000
10
106.4043900036
20
109.4208241536
30
0.0000000000
10
106.4059516025
20
109.1114488665
30
0.0000000000
10
106.4031427056
20
108.8559173622
30
0.0000000000
10
106.4109834397
20
108.6888896498
30
0.0000000000
10
106.4038315438
20
108.6075942907
30
0.0000000000
10
106.4080602902
20
108.5864484975
30
0.0000000000
11
106.4080602902
21
110.5861438878
31
0.0000000000
11
106.4068847707
21
110.5214611237
31
0.0000000000
11
106.4058476317
21
110.3450909491
31
0.0000000000
11
106.4050907391
21
110.0825758882
31
0.0000000000
11
106.4046812426
21
109.7561206760
31
0.0000000000
11
106.4046812426
21
109.4164717092
31
0.0000000000
11
106.4050907391
21
109.0900164970
31
0.0000000000
11
106.4058476317
21
108.8275014361
31
0.0000000000
11
106.4068847707
21
108.6511312615
31
0.0000000000
11
106.4080602902
21
108.5864484975
31
0.0000000000
0
SPLINE
5
7DC
100
AcDbEntity
8
0
100
AcDbSpline
62
7
6
CONTINUOUS
70
0
71
3
72
12
73
8
74
6
42
0.0000001000
43
0.0000001000
44
0.0000000001
40
0.0000000000
40
0.0000000000
40
0.0000000000
40
0.0000000000
40
0.3067899833
40
0.5865110104
40
0.8071418463
40
0.9504576335
40
1.0000000000
40
1.0000000000
40
1.0000000000
40
1.0000000000
10
107.4496663082
20
122.8116188582
30
0.0000000000
10
107.3473608106
20
122.8116188582
30
0.0000000000
10
107.1502826510
20
122.8125536137
30
0.0000000000
10
106.8869349387
20
122.8046842347
30
0.0000000000
10
106.6574554757
20
122.8156565861
30
0.0000000000
10
106.5482062533
20
122.7840215929
30
0.0000000000
10
106.4529121181
20
122.8104248902
30
0.0000000000
10
106.4496724005
20
122.7942247228
30
0.0000000000
11
107.4496663082
21
122.8116188582
31
0.0000000000
11
107.1427509717
21
122.8107764213
31
0.0000000000
11
106.8629255691
21
122.8082984659
31
0.0000000000
11
106.6422371029
21
122.8044616615
31
0.0000000000
11
106.4989454938
21
122.7995757061
31
0.0000000000
11
106.4496724005
21
122.7942247228
31
0.0000000000
0
SPLINE
5
7DD
100
AcDbEntity
8
0
100
AcDbSpline
62
7
6
CONTINUOUS
70
0
71
3
72
12
73
8
74
6
42
0.0000001000
43
0.0000001000
44
0.0000000001
40
0.0000000000
40
0.0000000000
40
0.0000000000
40
0.0000000000
40
0.0495423665
40
0.1928581537
40
0.4134889896
40
0.6932100167
40
1.0000000000
40
1.0000000000
40
1.0000000000
40
1.0000000000
10
106.4496724005
20
126.3783676624
30
0.0000000000
10
106.4529121181
20
126.3621674950
30
0.0000000000
10
106.5482062533
20
126.3885707923
30
0.0000000000
10
106.6574554757
20
126.3569357991
30
0.0000000000
10
106.8869349387
20
126.3679081505
30
0.0000000000
10
107.1502826510
20
126.3600387715
30
0.0000000000
10
107.3473608106
20
126.3609735270
30
0.0000000000
10
107.4496663082
20
126.3609735270
30
0.0000000000
11
106.4496724005
21
126.3783676624
31
0.0000000000
11
106.4989454938
21
126.3730166791
31
0.0000000000
11
106.6422371029
21
126.3681307238
31
0.0000000000
11
106.8629255691
21
126.3642939194
31
0.0000000000
11
107.1427509717
21
126.3618159639
31
0.0000000000
11
107.4496663082
21
126.3609735270
31
0.0000000000
0
SPLINE
5
7DE
100
AcDbEntity
8
0
100
AcDbSpline
62
7
6
CONTINUOUS
70
0
71
3
72
16
73
12
74
10
42
0.0000001000
43
0.0000001000
44
0.0000000001
40
0.0000000000
40
0.0000000000
40
0.0000000000
40
0.0000000000
40
0.0323511619
40
0.1205498771
40
0.2518259677
40
0.4150761045
40
0.5849238955
40
0.7481740323
40
0.8794501229
40
0.9676488381
40
1.0000000000
40
1.0000000000
40
1.0000000000
40
1.0000000000
10
106.4080602902
20
104.5861438878
30
0.0000000000
10
106.4038315438
20
104.5649980945
30
0.0000000000
10
106.4109834397
20
104.4837027354
30
0.0000000000
10
106.4031427056
20
104.3166750230
30
0.0000000000
10
106.4059516025
20
104.0611435187
30
0.0000000000
10
106.4043900036
20
103.7517682316
30
0.0000000000
10
106.4043900036
20
103.4208241536
30
0.0000000000
10
106.4059516025
20
103.1114488665
30
0.0000000000
10
106.4031427056
20
102.8559173622
30
0.0000000000
10
106.4109834397
20
102.6888896498
30
0.0000000000
10
106.4038315438
20
102.6075942907
30
0.0000000000
10
106.4080602902
20
102.5864484975
30
0.0000000000
11
106.4080602902
21
104.5861438878
31
0.0000000000
11
106.4068847707
21
104.5214611237
31
0.0000000000
11
106.4058476317
21
104.3450909491
31
0.0000000000
11
106.4050907391
21
104.0825758882
31
0.0000000000
11
106.4046812426
21
103.7561206760
31
0.0000000000
11
106.4046812426
21
103.4164717092
31
0.0000000000
11
106.4050907391
21
103.0900164970
31
0.0000000000
11
106.4058476317
21
102.8275014361
31
0.0000000000
11
106.4068847707
21
102.6511312615
31
0.0000000000
11
106.4080602902
21
102.5864484975
31
0.0000000000
0
SPLINE
5
7DF
100
AcDbEntity
8
0
100
AcDbSpline
62
9
6
CONTINUOUS
70
0
71
3
72
12
73
8
74
6
42
0.0000001000
43
0.0000001000
44
0.0000000001
40
0.0000000000
40
0.0000000000
40
0.0000000000
40
0.0000000000
40
0.0498139526
40
0.1922247816
40
0.4133556742
40
0.6916547967
40
1.0000000000
40
1.0000000000
40
1.0000000000
40
1.0000000000
10
105.3950203480
20
138.7699612269
30
0.0000000000
10
105.3843232777
20
138.7572611047
30
0.0000000000
10
105.4075400196
20
138.6839632546
30
0.0000000000
10
105.3848220786
20
138.5546451522
30
0.0000000000
10
105.3953862707
20
138.3362841073
30
0.0000000000
10
105.3900787273
20
138.0687443532
30
0.0000000000
10
105.3906312957
20
137.8727496759
30
0.0000000000
10
105.3903126878
20
137.7699673193
30
0.0000000000
11
105.3950203480
21
138.7699612269
31
0.0000000000
11
105.3940876355
21
138.7201554662
31
0.0000000000
11
105.3931327571
21
138.5777462922
31
0.0000000000
11
105.3921904962
21
138.3566150060
31
0.0000000000
11
105.3912679660
21
138.0783143908
31
0.0000000000
11
105.3903126878
21
137.7699673193
31
0.0000000000
0
SPLINE
5
7E0
100
AcDbEntity
8
0
100
AcDbSpline
62
9
6
CONTINUOUS
70
0
71
3
72
8
73
4
74
2
42
0.0000001000
43
0.0000001000
44
0.0000000001
40
0.0000000000
40
0.0000000000
40
0.0000000000
40
0.0000000000
40
1.0000000000
40
1.0000000000
40
1.0000000000
40
1.0000000000
10
106.3903065955
20
137.7630108783
30
0.0000000000
10
106.3865034503
20
137.7707435504
30
0.0000000000
10
106.3749652245
20
137.7669153085
30
0.0000000000
10
106.3645012095
20
137.7645617591
30
0.0000000000
11
106.3903065955
21
137.7630108783
31
0.0000000000
11
106.3645012095
21
137.7645617591
31
0.0000000000
0
SPLINE
5
7E1
100
AcDbEntity
8
0
100
AcDbSpline
62
9
6
CONTINUOUS
70
0
71
3
72
13
73
9
74
7
42
0.0000001000
43
0.0000001000
44
0.0000000001
40
0.0000000000
40
0.0000000000
40
0.0000000000
40
0.0000000000
40
0.0764013380
40
0.1988053322
40
0.3611241339
40
0.5552971307
40
0.7717722128
40
1.0000000000
40
1.0000000000
40
1.0000000000
40
1.0000000000
10
106.3645012095
20
137.7645617591
30
0.0000000000
10
106.3343738126
20
137.7577855536
30
0.0000000000
10
106.2791496673
20
137.7719624324
30
0.0000000000
10
106.1561564251
20
137.7651197159
30
0.0000000000
10
106.0029968094
20
137.7694574230
30
0.0000000000
10
105.8161026942
20
137.7690776744
30
0.0000000000
10
105.6089040248
20
137.7699475043
30
0.0000000000
10
105.4644271254
20
137.7699664333
30
0.0000000000
10
105.3903126878
20
137.7699663777
30
0.0000000000
11
106.3645012095
21
137.7645617591
31
0.0000000000
11
106.2900842725
21
137.7660318613
31
0.0000000000
11
106.1708435449
21
137.7673497793
31
0.0000000000
11
106.0127136947
21
137.7684504790
31
0.0000000000
11
105.8235489375
21
137.7692783121
31
0.0000000000
11
105.6126559326
21
137.7697925176
31
0.0000000000
11
105.3903126878
21
137.7699663777
31
0.0000000000
0
SPLINE
5
7E2
100
AcDbEntity
8
0
100
AcDbSpline
62
9
6
CONTINUOUS
70
0
71
3
72
12
73
8
74
6
42
0.0000001000
43
0.0000001000
44
0.0000000001
40
0.0000000000
40
0.0000000000
40
0.0000000000
40
0.0000000000
40
0.2000030774
40
0.4000058529
40
0.6000069477
40
0.8000052347
40
1.0000000000
40
1.0000000000
40
1.0000000000
40
1.0000000000
10
107.3903005031
20
138.7630042510
30
0.0000000000
10
107.2860102815
20
138.7630029803
30
0.0000000000
10
107.0759603064
20
138.7298256675
30
0.0000000000
10
106.7928199890
20
138.5854444995
30
0.0000000000
10
106.5678559131
20
138.3604758583
30
0.0000000000
10
106.4234826863
20
138.0773393497
30
0.0000000000
10
106.3903078661
20
137.8672962307
30
0.0000000000
10
106.3903065955
20
137.7630103434
30
0.0000000000
11
107.3903005031
21
138.7630042510
31
0.0000000000
11
107.0812824527
21
138.7140563454
31
0.0000000000
11
106.8025149998
21
138.5720124629
31
0.0000000000
11
106.5812864668
21
138.3507794447
31
0.0000000000
11
106.4392504328
21
138.0720158731
31
0.0000000000
11
106.3903065955
21
137.7630103434
31
0.0000000000
0
SPLINE
5
7E3
100
AcDbEntity
8
0
100
AcDbSpline
62
7
6
CONTINUOUS
70
0
71
3
72
16
73
12
74
10
42
0.0000001000
43
0.0000001000
44
0.0000000001
40
0.0000000000
40
0.0000000000
40
0.0000000000
40
0.0000000000
40
0.0323511619
40
0.1205498771
40
0.2518259677
40
0.4150761045
40
0.5849238955
40
0.7481740323
40
0.8794501229
40
0.9676488381
40
1.0000000000
40
1.0000000000
40
1.0000000000
40
1.0000000000
10
106.4080602902
20
98.5861438878
30
0.0000000000
10
106.4038315438
20
98.5649980945
30
0.0000000000
10
106.4109834397
20
98.4837027354
30
0.0000000000
10
106.4031427056
20
98.3166750230
30
0.0000000000
10
106.4059516025
20
98.0611435187
30
0.0000000000
10
106.4043900036
20
97.7517682316
30
0.0000000000
10
106.4043900036
20
97.4208241536
30
0.0000000000
10
106.4059516025
20
97.1114488665
30
0.0000000000
10
106.4031427056
20
96.8559173622
30
0.0000000000
10
106.4109834397
20
96.6888896498
30
0.0000000000
10
106.4038315438
20
96.6075942907
30
0.0000000000
10
106.4080602902
20
96.5864484975
30
0.0000000000
11
106.4080602902
21
98.5861438878
31
0.0000000000
11
106.4068847707
21
98.5214611237
31
0.0000000000
11
106.4058476317
21
98.3450909491
31
0.0000000000
11
106.4050907391
21
98.0825758882
31
0.0000000000
11
106.4046812426
21
97.7561206760
31
0.0000000000
11
106.4046812426
21
97.4164717092
31
0.0000000000
11
106.4050907391
21
97.0900164970
31
0.0000000000
11
106.4058476317
21
96.8275014361
31
0.0000000000
11
106.4068847707
21
96.6511312615
31
0.0000000000
11
106.4080602902
21
96.5864484975
31
0.0000000000
0
SPLINE
5
7E4
100
AcDbEntity
8
0
100
AcDbSpline
62
9
6
CONTINUOUS
70
0
71
3
72
12
73
8
74
6
42
0.0000001000
43
0.0000001000
44
0.0000000001
40
0.0000000000
40
0.0000000000
40
0.0000000000
40
0.0000000000
40
0.0498139526
40
0.1922247816
40
0.4133556742
40
0.6916547967
40
1.0000000000
40
1.0000000000
40
1.0000000000
40
1.0000000000
10
112.3450203467
20
138.7036384460
30
0.0000000000
10
112.3343232781
20
138.6909383223
30
0.0000000000
10
112.3575400165
20
138.6176404756
30
0.0000000000
10
112.3348220791
20
138.4883223701
30
0.0000000000
10
112.3453862697
20
138.2699613268
30
0.0000000000
10
112.3400787272
20
138.0024215721
30
0.0000000000
10
112.3406312956
20
137.8064268949
30
0.0000000000
10
112.3403126878
20
137.7036445383
30
0.0000000000
11
112.3450203467
21
138.7036384460
31
0.0000000000
11
112.3440876345
21
138.6538326852
31
0.0000000000
11
112.3431327563
21
138.5114235112
31
0.0000000000
11
112.3421904957
21
138.2902922250
31
0.0000000000
11
112.3412679657
21
138.0119916098
31
0.0000000000
11
112.3403126878
21
137.7036445383
31
0.0000000000
0
SPLINE
5
7E5
100
AcDbEntity
8
0
100
AcDbSpline
62
9
6
CONTINUOUS
70
0
71
3
72
8
73
4
74
2
42
0.0000001000
43
0.0000001000
44
0.0000000001
40
0.0000000000
40
0.0000000000
40
0.0000000000
40
0.0000000000
40
1.0000000000
40
1.0000000000
40
1.0000000000
40
1.0000000000
10
113.3403065955
20
137.6966880973
30
0.0000000000
10
113.3365034503
20
137.7044207694
30
0.0000000000
10
113.3249652245
20
137.7005925275
30
0.0000000000
10
113.3145012095
20
137.6982389782
30
0.0000000000
11
113.3403065955
21
137.6966880973
31
0.0000000000
11
113.3145012095
21
137.6982389782
31
0.0000000000
0
SPLINE
5
7E6
100
AcDbEntity
8
0
100
AcDbSpline
62
9
6
CONTINUOUS
70
0
71
3
72
13
73
9
74
7
42
0.0000001000
43
0.0000001000
44
0.0000000001
40
0.0000000000
40
0.0000000000
40
0.0000000000
40
0.0000000000
40
0.0764013380
40
0.1988053322
40
0.3611241339
40
0.5552971307
40
0.7717722128
40
1.0000000000
40
1.0000000000
40
1.0000000000
40
1.0000000000
10
113.3145012095
20
137.6982389782
30
0.0000000000
10
113.2843738126
20
137.6914627726
30
0.0000000000
10
113.2291496673
20
137.7056396514
30
0.0000000000
10
113.1061564251
20
137.6987969349
30
0.0000000000
10
112.9529968094
20
137.7031346420
30
0.0000000000
10
112.7661026942
20
137.7027548934
30
0.0000000000
10
112.5589040248
20
137.7036247234
30
0.0000000000
10
112.4144271254
20
137.7036436524
30
0.0000000000
10
112.3403126878
20
137.7036435967
30
0.0000000000
11
113.3145012095
21
137.6982389782
31
0.0000000000
11
113.2400842725
21
137.6997090804
31
0.0000000000
11
113.1208435449
21
137.7010269984
31
0.0000000000
11
112.9627136947
21
137.7021276981
31
0.0000000000
11
112.7735489375
21
137.7029555312
31
0.0000000000
11
112.5626559326
21
137.7034697366
31
0.0000000000
11
112.3403126878
21
137.7036435967
31
0.0000000000
0
SPLINE
5
7E7
100
AcDbEntity
8
0
100
AcDbSpline
62
7
6
CONTINUOUS
70
0
71
3
72
12
73
8
74
6
42
0.0000001000
43
0.0000001000
44
0.0000000001
40
0.0000000000
40
0.0000000000
40
0.0000000000
40
0.0000000000
40
0.3065695139
40
0.5868740918
40
0.8074068066
40
0.9503859980
40
1.0000000000
40
1.0000000000
40
1.0000000000
40
1.0000000000
10
165.3239899069
20
114.3609735270
30
0.0000000000
10
165.4262218756
20
114.3609735270
30
0.0000000000
10
165.6234213539
20
114.3600381642
30
0.0000000000
10
165.8868475621
20
114.3679192930
30
0.0000000000
10
166.1163733185
20
114.3569498732
30
0.0000000000
10
166.2255590675
20
114.3885354031
30
0.0000000000
10
166.3207394127
20
114.3621440718
30
0.0000000000
10
166.3239838145
20
114.3783676624
30
0.0000000000
11
165.3239899069
21
114.3609735270
31
0.0000000000
11
165.6306846596
21
114.3618147228
31
0.0000000000
11
165.9110938013
21
114.3642985145
31
0.0000000000
11
166.1316840422
21
114.3681370557
31
0.0000000000
11
166.2746390555
21
114.3730128448
31
0.0000000000
11
166.3239838145
21
114.3783676624
31
0.0000000000
0
SPLINE
5
7E8
100
AcDbEntity
8
0
100
AcDbSpline
62
9
6
CONTINUOUS
70
0
71
3
72
12
73
8
74
6
42
0.0000001000
43
0.0000001000
44
0.0000000001
40
0.0000000000
40
0.0000000000
40
0.0000000000
40
0.0000000000
40
0.2000030774
40
0.4000058529
40
0.6000069477
40
0.8000052347
40
1.0000000000
40
1.0000000000
40
1.0000000000
40
1.0000000000
10
114.3403005031
20
138.6966814701
30
0.0000000000
10
114.2360102815
20
138.6966801993
30
0.0000000000
10
114.0259603064
20
138.6635028866
30
0.0000000000
10
113.7428199890
20
138.5191217186
30
0.0000000000
10
113.5178559131
20
138.2941530773
30
0.0000000000
10
113.3734826863
20
138.0110165688
30
0.0000000000
10
113.3403078661
20
137.8009734497
30
0.0000000000
10
113.3403065955
20
137.6966875624
30
0.0000000000
11
114.3403005031
21
138.6966814701
31
0.0000000000
11
114.0312824527
21
138.6477335644
31
0.0000000000
11
113.7525149998
21
138.5056896819
31
0.0000000000
11
113.5312864668
21
138.2844566638
31
0.0000000000
11
113.3892504328
21
138.0056930922
31
0.0000000000
11
113.3403065955
21
137.6966875624
31
0.0000000000
0
SPLINE
5
7E9
100
AcDbEntity
8
0
100
AcDbSpline
62
7
6
CONTINUOUS
70
0
71
3
72
12
73
8
74
6
42
0.0000001000
43
0.0000001000
44
0.0000000001
40
0.0000000000
40
0.0000000000
40
0.0000000000
40
0.0000000000
40
0.0496140020
40
0.1925931934
40
0.4131259082
40
0.6934304861
40
1.0000000000
40
1.0000000000
40
1.0000000000
40
1.0000000000
10
166.3239838145
20
104.7942247228
30
0.0000000000
10
166.3207394127
20
104.8104483134
30
0.0000000000
10
166.2255590675
20
104.7840569822
30
0.0000000000
10
166.1163733185
20
104.8156425120
30
0.0000000000
10
165.8868475621
20
104.8046730922
30
0.0000000000
10
165.6234213539
20
104.8125542210
30
0.0000000000
10
165.4262218756
20
104.8116188582
30
0.0000000000
10
165.3239899069
20
104.8116188582
30
0.0000000000
11
166.3239838145
21
104.7942247228
31
0.0000000000
11
166.2746390555
21
104.7995795404
31
0.0000000000
11
166.1316840422
21
104.8044553295
31
0.0000000000
11
165.9110938013
21
104.8082938707
31
0.0000000000
11
165.6306846596
21
104.8107776625
31
0.0000000000
11
165.3239899069
21
104.8116188582
31
0.0000000000
0
SPLINE
5
7EA
100
AcDbEntity
8
0
100
AcDbSpline
62
7
6
CONTINUOUS
70
0
71
3
72
12
73
8
74
6
42
0.0000001000
43
0.0000001000
44
0.0000000001
40
0.0000000000
40
0.0000000000
40
0.0000000000
40
0.0000000000
40
0.3065695139
40
0.5868740918
40
0.8074068066
40
0.9503859980
40
1.0000000000
40
1.0000000000
40
1.0000000000
40
1.0000000000
10
165.3239899069
20
108.3609735270
30
0.0000000000
10
165.4262218756
20
108.3609735270
30
0.0000000000
10
165.6234213539
20
108.3600381642
30
0.0000000000
10
165.8868475621
20
108.3679192930
30
0.0000000000
10
166.1163733185
20
108.3569498732
30
0.0000000000
10
166.2255590675
20
108.3885354031
30
0.0000000000
10
166.3207394127
20
108.3621440718
30
0.0000000000
10
166.3239838145
20
108.3783676624
30
0.0000000000
11
165.3239899069
21
108.3609735270
31
0.0000000000
11
165.6306846596
21
108.3618147228
31
0.0000000000
11
165.9110938013
21
108.3642985145
31
0.0000000000
11
166.1316840422
21
108.3681370557
31
0.0000000000
11
166.2746390555
21
108.3730128448
31
0.0000000000
11
166.3239838145
21
108.3783676624
31
0.0000000000
0
SPLINE
5
7EB
100
AcDbEntity
8
0
100
AcDbSpline
62
7
6
CONTINUOUS
70
0
71
3
72
12
73
8
74
6
42
0.0000001000
43
0.0000001000
44
0.0000000001
40
0.0000000000
40
0.0000000000
40
0.0000000000
40
0.0000000000
40
0.0496140020
40
0.1925931934
40
0.4131259082
40
0.6934304861
40
1.0000000000
40
1.0000000000
40
1.0000000000
40
1.0000000000
10
166.3239838145
20
98.7942247228
30
0.0000000000
10
166.3207394127
20
98.8104483134
30
0.0000000000
10
166.2255590675
20
98.7840569822
30
0.0000000000
10
166.1163733185
20
98.8156425120
30
0.0000000000
10
165.8868475621
20
98.8046730922
30
0.0000000000
10
165.6234213539
20
98.8125542210
30
0.0000000000
10
165.4262218756
20
98.8116188582
30
0.0000000000
10
165.3239899069
20
98.8116188582
30
0.0000000000
11
166.3239838145
21
98.7942247228
31
0.0000000000
11
166.2746390555
21
98.7995795404
31
0.0000000000
11
166.1316840422
21
98.8044553295
31
0.0000000000
11
165.9110938013
21
98.8082938707
31
0.0000000000
11
165.6306846596
21
98.8107776625
31
0.0000000000
11
165.3239899069
21
98.8116188582
31
0.0000000000
0
SPLINE
5
7EC
100
AcDbEntity
8
0
100
AcDbSpline
62
7
6
CONTINUOUS
70
0
71
3
72
12
73
8
74
6
42
0.0000001000
43
0.0000001000
44
0.0000000001
40
0.0000000000
40
0.0000000000
40
0.0000000000
40
0.0000000000
40
0.3065695139
40
0.5868740918
40
0.8074068066
40
0.9503859980
40
1.0000000000
40
1.0000000000
40
1.0000000000
40
1.0000000000
10
165.3239899069
20
102.3609735270
30
0.0000000000
10
165.4262218756
20
102.3609735270
30
0.0000000000
10
165.6234213539
20
102.3600381642
30
0.0000000000
10
165.8868475621
20
102.3679192930
30
0.0000000000
10
166.1163733185
20
102.3569498732
30
0.0000000000
10
166.2255590675
20
102.3885354031
30
0.0000000000
10
166.3207394127
20
102.3621440718
30
0.0000000000
10
166.3239838145
20
102.3783676624
30
0.0000000000
11
165.3239899069
21
102.3609735270
31
0.0000000000
11
165.6306846596
21
102.3618147228
31
0.0000000000
11
165.9110938013
21
102.3642985145
31
0.0000000000
11
166.1316840422
21
102.3681370557
31
0.0000000000
11
166.2746390555
21
102.3730128448
31
0.0000000000
11
166.3239838145
21
102.3783676624
31
0.0000000000
0
SPLINE
5
7ED
100
AcDbEntity
8
0
100
AcDbSpline
62
7
6
CONTINUOUS
70
0
71
3
72
12
73
8
74
6
42
0.0000001000
43
0.0000001000
44
0.0000000001
40
0.0000000000
40
0.0000000000
40
0.0000000000
40
0.0000000000
40
0.3067899833
40
0.5865110104
40
0.8071418463
40
0.9504576335
40
1.0000000000
40
1.0000000000
40
1.0000000000
40
1.0000000000
10
107.4496663082
20
98.8116188582
30
0.0000000000
10
107.3473608106
20
98.8116188582
30
0.0000000000
10
107.1502826510
20
98.8125536137
30
0.0000000000
10
106.8869349387
20
98.8046842347
30
0.0000000000
10
106.6574554757
20
98.8156565861
30
0.0000000000
10
106.5482062533
20
98.7840215929
30
0.0000000000
10
106.4529121181
20
98.8104248902
30
0.0000000000
10
106.4496724005
20
98.7942247228
30
0.0000000000
11
107.4496663082
21
98.8116188582
31
0.0000000000
11
107.1427509717
21
98.8107764213
31
0.0000000000
11
106.8629255691
21
98.8082984659
31
0.0000000000
11
106.6422371029
21
98.8044616615
31
0.0000000000
11
106.4989454938
21
98.7995757061
31
0.0000000000
11
106.4496724005
21
98.7942247228
31
0.0000000000
0
SPLINE
5
7EE
100
AcDbEntity
8
0
100
AcDbSpline
62
7
6
CONTINUOUS
70
0
71
3
72
12
73
8
74
6
42
0.0000001000
43
0.0000001000
44
0.0000000001
40
0.0000000000
40
0.0000000000
40
0.0000000000
40
0.0000000000
40
0.0495423665
40
0.1928581537
40
0.4134889896
40
0.6932100167
40
1.0000000000
40
1.0000000000
40
1.0000000000
40
1.0000000000
10
106.4496724005
20
102.3783676624
30
0.0000000000
10
106.4529121181
20
102.3621674950
30
0.0000000000
10
106.5482062533
20
102.3885707923
30
0.0000000000
10
106.6574554757
20
102.3569357991
30
0.0000000000
10
106.8869349387
20
102.3679081505
30
0.0000000000
10
107.1502826510
20
102.3600387715
30
0.0000000000
10
107.3473608106
20
102.3609735270
30
0.0000000000
10
107.4496663082
20
102.3609735270
30
0.0000000000
11
106.4496724005
21
102.3783676624
31
0.0000000000
11
106.4989454938
21
102.3730166791
31
0.0000000000
11
106.6422371029
21
102.3681307238
31
0.0000000000
11
106.8629255691
21
102.3642939194
31
0.0000000000
11
107.1427509717
21
102.3618159639
31
0.0000000000
11
107.4496663082
21
102.3609735270
31
0.0000000000
0
SPLINE
5
7EF
100
AcDbEntity
8
0
100
AcDbSpline
62
9
6
CONTINUOUS
70
0
71
3
72
12
73
8
74
6
42
0.0000001000
43
0.0000001000
44
0.0000000001
40
0.0000000000
40
0.0000000000
40
0.0000000000
40
0.0000000000
40
0.2000030774
40
0.4000058530
40
0.6000069477
40
0.8000052347
40
1.0000000000
40
1.0000000000
40
1.0000000000
40
1.0000000000
10
114.3403005031
20
86.4759109152
30
0.0000000000
10
114.2360102815
20
86.4759121859
30
0.0000000000
10
114.0259603064
20
86.5090894986
30
0.0000000000
10
113.7428199890
20
86.6534706666
30
0.0000000000
10
113.5178559131
20
86.8784393079
30
0.0000000000
10
113.3734826863
20
87.1615758165
30
0.0000000000
10
113.3403078661
20
87.3716189355
30
0.0000000000
10
113.3403065955
20
87.4759048228
30
0.0000000000
11
114.3403005031
21
86.4759109152
31
0.0000000000
11
114.0312824527
21
86.5248588208
31
0.0000000000
11
113.7525149998
21
86.6669027033
31
0.0000000000
11
113.5312864668
21
86.8881357215
31
0.0000000000
11
113.3892504328
21
87.1668992930
31
0.0000000000
11
113.3403065955
21
87.4759048228
31
0.0000000000
0
SPLINE
5
7F0
100
AcDbEntity
8
0
100
AcDbSpline
62
7
6
CONTINUOUS
70
0
71
3
72
12
73
8
74
6
42
0.0000001000
43
0.0000001000
44
0.0000000001
40
0.0000000000
40
0.0000000000
40
0.0000000000
40
0.0000000000
40
0.3067899833
40
0.5865110104
40
0.8071418463
40
0.9504576335
40
1.0000000000
40
1.0000000000
40
1.0000000000
40
1.0000000000
10
107.4496663082
20
104.8116188582
30
0.0000000000
10
107.3473608106
20
104.8116188582
30
0.0000000000
10
107.1502826510
20
104.8125536137
30
0.0000000000
10
106.8869349387
20
104.8046842347
30
0.0000000000
10
106.6574554757
20
104.8156565861
30
0.0000000000
10
106.5482062533
20
104.7840215929
30
0.0000000000
10
106.4529121181
20
104.8104248902
30
0.0000000000
10
106.4496724005
20
104.7942247228
30
0.0000000000
11
107.4496663082
21
104.8116188582
31
0.0000000000
11
107.1427509717
21
104.8107764213
31
0.0000000000
11
106.8629255691
21
104.8082984659
31
0.0000000000
11
106.6422371029
21
104.8044616615
31
0.0000000000
11
106.4989454938
21
104.7995757061
31
0.0000000000
11
106.4496724005
21
104.7942247228
31
0.0000000000
0
SPLINE
5
7F1
100
AcDbEntity
8
0
100
AcDbSpline
62
9
6
CONTINUOUS
70
0
71
3
72
14
73
10
74
8
42
0.0000001000
43
0.0000001000
44
0.0000000001
40
0.0000000000
40
0.0000000000
40
0.0000000000
40
0.0000000000
40
0.2223280592
40
0.4332072228
40
0.6223608139
40
0.7804836464
40
0.8997234761
40
0.9741498263
40
1.0000000000
40
1.0000000000
40
1.0000000000
40
1.0000000000
10
112.3403126878
20
87.4689487885
30
0.0000000000
10
112.4144271254
20
87.4689487328
30
0.0000000000
10
112.5589040248
20
87.4689676618
30
0.0000000000
10
112.7661026942
20
87.4698374918
30
0.0000000000
10
112.9529968094
20
87.4694577432
30
0.0000000000
10
113.1061564251
20
87.4737954503
30
0.0000000000
10
113.2291496673
20
87.4669527338
30
0.0000000000
10
113.2917450208
20
87.4830219140
30
0.0000000000
10
113.3365034503
20
87.4681716158
30
0.0000000000
10
113.3403065955
20
87.4759042879
30
0.0000000000
11
112.3403126878
21
87.4689487885
31
0.0000000000
11
112.5626559326
21
87.4691226486
31
0.0000000000
11
112.7735489375
21
87.4696368540
31
0.0000000000
11
112.9627136947
21
87.4704646872
31
0.0000000000
11
113.1208435449
21
87.4715653868
31
0.0000000000
11
113.2400842725
21
87.4728833048
31
0.0000000000
11
113.3145012095
21
87.4743534071
31
0.0000000000
11
113.3403065955
21
87.4759042879
31
0.0000000000
0
SPLINE
5
7F2
100
AcDbEntity
8
0
100
AcDbSpline
62
9
6
CONTINUOUS
70
0
71
3
72
12
73
8
74
6
42
0.0000001000
43
0.0000001000
44
0.0000000001
40
0.0000000000
40
0.0000000000
40
0.0000000000
40
0.0000000000
40
0.0498139625
40
0.1922247916
40
0.4133556808
40
0.6916547991
40
1.0000000000
40
1.0000000000
40
1.0000000000
40
1.0000000000
10
112.3450233507
20
86.4689539392
30
0.0000000000
10
112.3343222883
20
86.4816507027
30
0.0000000000
10
112.3575471351
20
86.5549564895
30
0.0000000000
10
112.3348208583
20
86.6842673122
30
0.0000000000
10
112.3453885800
20
86.9026321529
30
0.0000000000
10
112.3400789018
20
87.1701704282
30
0.0000000000
10
112.3406314989
20
87.3661654895
30
0.0000000000
10
112.3403126878
20
87.4689478469
30
0.0000000000
11
112.3450233507
21
86.4689539392
31
0.0000000000
11
112.3440900433
21
86.5187596999
31
0.0000000000
11
112.3431345558
21
86.6611688730
31
0.0000000000
11
112.3421916939
21
86.8823001579
31
0.0000000000
11
112.3412685753
21
87.1606007729
31
0.0000000000
11
112.3403126878
21
87.4689478469
31
0.0000000000
0
SPLINE
5
7F3
100
AcDbEntity
8
0
100
AcDbSpline
62
7
6
CONTINUOUS
70
0
71
3
72
16
73
12
74
10
42
0.0000001000
43
0.0000001000
44
0.0000000001
40
0.0000000000
40
0.0000000000
40
0.0000000000
40
0.0000000000
40
0.0323511619
40
0.1205498771
40
0.2518259677
40
0.4150761045
40
0.5849238955
40
0.7481740323
40
0.8794501229
40
0.9676488381
40
1.0000000000
40
1.0000000000
40
1.0000000000
40
1.0000000000
10
166.3655959248
20
96.5864484975
30
0.0000000000
10
166.3698246712
20
96.6075942907
30
0.0000000000
10
166.3626727753
20
96.6888896498
30
0.0000000000
10
166.3705135094
20
96.8559173622
30
0.0000000000
10
166.3677046125
20
97.1114488665
30
0.0000000000
10
166.3692662114
20
97.4208241536
30
0.0000000000
10
166.3692662114
20
97.7517682316
30
0.0000000000
10
166.3677046125
20
98.0611435187
30
0.0000000000
10
166.3705135094
20
98.3166750230
30
0.0000000000
10
166.3626727753
20
98.4837027354
30
0.0000000000
10
166.3698246712
20
98.5649980945
30
0.0000000000
10
166.3655959248
20
98.5861438878
30
0.0000000000
11
166.3655959248
21
96.5864484975
31
0.0000000000
11
166.3667714443
21
96.6511312615
31
0.0000000000
11
166.3678085833
21
96.8275014361
31
0.0000000000
11
166.3685654759
21
97.0900164970
31
0.0000000000
11
166.3689749724
21
97.4164717092
31
0.0000000000
11
166.3689749724
21
97.7561206760
31
0.0000000000
11
166.3685654759
21
98.0825758882
31
0.0000000000
11
166.3678085833
21
98.3450909491
31
0.0000000000
11
166.3667714443
21
98.5214611237
31
0.0000000000
11
166.3655959248
21
98.5861438878
31
0.0000000000
0
SPLINE
5
7F4
100
AcDbEntity
8
0
100
AcDbSpline
62
7
6
CONTINUOUS
70
0
71
3
72
16
73
12
74
10
42
0.0000001000
43
0.0000001000
44
0.0000000001
40
0.0000000000
40
0.0000000000
40
0.0000000000
40
0.0000000000
40
0.0323511619
40
0.1205498771
40
0.2518259677
40
0.4150761045
40
0.5849238955
40
0.7481740323
40
0.8794501229
40
0.9676488381
40
1.0000000000
40
1.0000000000
40
1.0000000000
40
1.0000000000
10
166.3655959248
20
102.5864484975
30
0.0000000000
10
166.3698246712
20
102.6075942907
30
0.0000000000
10
166.3626727753
20
102.6888896498
30
0.0000000000
10
166.3705135094
20
102.8559173622
30
0.0000000000
10
166.3677046125
20
103.1114488665
30
0.0000000000
10
166.3692662114
20
103.4208241536
30
0.0000000000
10
166.3692662114
20
103.7517682316
30
0.0000000000
10
166.3677046125
20
104.0611435187
30
0.0000000000
10
166.3705135094
20
104.3166750230
30
0.0000000000
10
166.3626727753
20
104.4837027354
30
0.0000000000
10
166.3698246712
20
104.5649980945
30
0.0000000000
10
166.3655959248
20
104.5861438878
30
0.0000000000
11
166.3655959248
21
102.5864484975
31
0.0000000000
11
166.3667714443
21
102.6511312615
31
0.0000000000
11
166.3678085833
21
102.8275014361
31
0.0000000000
11
166.3685654759
21
103.0900164970
31
0.0000000000
11
166.3689749724
21
103.4164717092
31
0.0000000000
11
166.3689749724
21
103.7561206760
31
0.0000000000
11
166.3685654759
21
104.0825758882
31
0.0000000000
11
166.3678085833
21
104.3450909491
31
0.0000000000
11
166.3667714443
21
104.5214611237
31
0.0000000000
11
166.3655959248
21
104.5861438878
31
0.0000000000
0
SPLINE
5
7F5
100
AcDbEntity
8
0
100
AcDbSpline
62
7
6
CONTINUOUS
70
0
71
3
72
16
73
12
74
10
42
0.0000001000
43
0.0000001000
44
0.0000000001
40
0.0000000000
40
0.0000000000
40
0.0000000000
40
0.0000000000
40
0.0323511619
40
0.1205498771
40
0.2518259677
40
0.4150761045
40
0.5849238955
40
0.7481740323
40
0.8794501229
40
0.9676488381
40
1.0000000000
40
1.0000000000
40
1.0000000000
40
1.0000000000
10
166.3655959248
20
108.5864484975
30
0.0000000000
10
166.3698246712
20
108.6075942907
30
0.0000000000
10
166.3626727753
20
108.6888896498
30
0.0000000000
10
166.3705135094
20
108.8559173622
30
0.0000000000
10
166.3677046125
20
109.1114488665
30
0.0000000000
10
166.3692662114
20
109.4208241536
30
0.0000000000
10
166.3692662114
20
109.7517682316
30
0.0000000000
10
166.3677046125
20
110.0611435187
30
0.0000000000
10
166.3705135094
20
110.3166750230
30
0.0000000000
10
166.3626727753
20
110.4837027354
30
0.0000000000
10
166.3698246712
20
110.5649980945
30
0.0000000000
10
166.3655959248
20
110.5861438878
30
0.0000000000
11
166.3655959248
21
108.5864484975
31
0.0000000000
11
166.3667714443
21
108.6511312615
31
0.0000000000
11
166.3678085833
21
108.8275014361
31
0.0000000000
11
166.3685654759
21
109.0900164970
31
0.0000000000
11
166.3689749724
21
109.4164717092
31
0.0000000000
11
166.3689749724
21
109.7561206760
31
0.0000000000
11
166.3685654759
21
110.0825758882
31
0.0000000000
11
166.3678085833
21
110.3450909491
31
0.0000000000
11
166.3667714443
21
110.5214611237
31
0.0000000000
11
166.3655959248
21
110.5861438878
31
0.0000000000
0
SPLINE
5
7F6
100
AcDbEntity
8
0
100
AcDbSpline
62
7
6
CONTINUOUS
70
0
71
3
72
16
73
12
74
10
42
0.0000001000
43
0.0000001000
44
0.0000000001
40
0.0000000000
40
0.0000000000
40
0.0000000000
40
0.0000000000
40
0.0323511619
40
0.1205498771
40
0.2518259677
40
0.4150761045
40
0.5849238955
40
0.7481740323
40
0.8794501229
40
0.9676488381
40
1.0000000000
40
1.0000000000
40
1.0000000000
40
1.0000000000
10
166.3655959248
20
114.5864484975
30
0.0000000000
10
166.3698246712
20
114.6075942907
30
0.0000000000
10
166.3626727753
20
114.6888896498
30
0.0000000000
10
166.3705135094
20
114.8559173622
30
0.0000000000
10
166.3677046125
20
115.1114488665
30
0.0000000000
10
166.3692662114
20
115.4208241536
30
0.0000000000
10
166.3692662114
20
115.7517682316
30
0.0000000000
10
166.3677046125
20
116.0611435187
30
0.0000000000
10
166.3705135094
20
116.3166750230
30
0.0000000000
10
166.3626727753
20
116.4837027354
30
0.0000000000
10
166.3698246712
20
116.5649980945
30
0.0000000000
10
166.3655959248
20
116.5861438878
30
0.0000000000
11
166.3655959248
21
114.5864484975
31
0.0000000000
11
166.3667714443
21
114.6511312615
31
0.0000000000
11
166.3678085833
21
114.8275014361
31
0.0000000000
11
166.3685654759
21
115.0900164970
31
0.0000000000
11
166.3689749724
21
115.4164717092
31
0.0000000000
11
166.3689749724
21
115.7561206760
31
0.0000000000
11
166.3685654759
21
116.0825758882
31
0.0000000000
11
166.3678085833
21
116.3450909491
31
0.0000000000
11
166.3667714443
21
116.5214611237
31
0.0000000000
11
166.3655959248
21
116.5861438878
31
0.0000000000
0
SPLINE
5
7F7
100
AcDbEntity
8
0
100
AcDbSpline
62
7
6
CONTINUOUS
70
0
71
3
72
16
73
12
74
10
42
0.0000001000
43
0.0000001000
44
0.0000000001
40
0.0000000000
40
0.0000000000
40
0.0000000000
40
0.0000000000
40
0.0323511619
40
0.1205498771
40
0.2518259677
40
0.4150761045
40
0.5849238955
40
0.7481740323
40
0.8794501229
40
0.9676488381
40
1.0000000000
40
1.0000000000
40
1.0000000000
40
1.0000000000
10
166.3655959248
20
120.5864484975
30
0.0000000000
10
166.3698246712
20
120.6075942907
30
0.0000000000
10
166.3626727753
20
120.6888896498
30
0.0000000000
10
166.3705135094
20
120.8559173622
30
0.0000000000
10
166.3677046125
20
121.1114488665
30
0.0000000000
10
166.3692662114
20
121.4208241536
30
0.0000000000
10
166.3692662114
20
121.7517682316
30
0.0000000000
10
166.3677046125
20
122.0611435187
30
0.0000000000
10
166.3705135094
20
122.3166750230
30
0.0000000000
10
166.3626727753
20
122.4837027354
30
0.0000000000
10
166.3698246712
20
122.5649980945
30
0.0000000000
10
166.3655959248
20
122.5861438878
30
0.0000000000
11
166.3655959248
21
120.5864484975
31
0.0000000000
11
166.3667714443
21
120.6511312615
31
0.0000000000
11
166.3678085833
21
120.8275014361
31
0.0000000000
11
166.3685654759
21
121.0900164970
31
0.0000000000
11
166.3689749724
21
121.4164717092
31
0.0000000000
11
166.3689749724
21
121.7561206760
31
0.0000000000
11
166.3685654759
21
122.0825758882
31
0.0000000000
11
166.3678085833
21
122.3450909491
31
0.0000000000
11
166.3667714443
21
122.5214611237
31
0.0000000000
11
166.3655959248
21
122.5861438878
31
0.0000000000
0
SPLINE
5
7F8
100
AcDbEntity
8
0
100
AcDbSpline
62
7
6
CONTINUOUS
70
0
71
3
72
16
73
12
74
10
42
0.0000001000
43
0.0000001000
44
0.0000000001
40
0.0000000000
40
0.0000000000
40
0.0000000000
40
0.0000000000
40
0.0323511619
40
0.1205498771
40
0.2518259677
40
0.4150761045
40
0.5849238955
40
0.7481740323
40
0.8794501229
40
0.9676488381
40
1.0000000000
40
1.0000000000
40
1.0000000000
40
1.0000000000
10
166.3655959248
20
126.5864484975
30
0.0000000000
10
166.3698246712
20
126.6075942907
30
0.0000000000
10
166.3626727753
20
126.6888896498
30
0.0000000000
10
166.3705135094
20
126.8559173622
30
0.0000000000
10
166.3677046125
20
127.1114488665
30
0.0000000000
10
166.3692662114
20
127.4208241536
30
0.0000000000
10
166.3692662114
20
127.7517682316
30
0.0000000000
10
166.3677046125
20
128.0611435187
30
0.0000000000
10
166.3705135094
20
128.3166750230
30
0.0000000000
10
166.3626727753
20
128.4837027354
30
0.0000000000
10
166.3698246712
20
128.5649980945
30
0.0000000000
10
166.3655959248
20
128.5861438878
30
0.0000000000
11
166.3655959248
21
126.5864484975
31
0.0000000000
11
166.3667714443
21
126.6511312615
31
0.0000000000
11
166.3678085833
21
126.8275014361
31
0.0000000000
11
166.3685654759
21
127.0900164970
31
0.0000000000
11
166.3689749724
21
127.4164717092
31
0.0000000000
11
166.3689749724
21
127.7561206760
31
0.0000000000
11
166.3685654759
21
128.0825758882
31
0.0000000000
11
166.3678085833
21
128.3450909491
31
0.0000000000
11
166.3667714443
21
128.5214611237
31
0.0000000000
11
166.3655959248
21
128.5861438878
31
0.0000000000
0
SPLINE
5
7F9
100
AcDbEntity
8
0
100
AcDbSpline
62
9
6
CONTINUOUS
70
0
71
3
72
12
73
8
74
6
42
0.0000001000
43
0.0000001000
44
0.0000000001
40
0.0000000000
40
0.0000000000
40
0.0000000000
40
0.0000000000
40
0.2000030774
40
0.4000058530
40
0.6000069477
40
0.8000052347
40
1.0000000000
40
1.0000000000
40
1.0000000000
40
1.0000000000
10
107.3903005031
20
86.4095881342
30
0.0000000000
10
107.2860102815
20
86.4095894049
30
0.0000000000
10
107.0759603064
20
86.4427667177
30
0.0000000000
10
106.7928199890
20
86.5871478857
30
0.0000000000
10
106.5678559131
20
86.8121165270
30
0.0000000000
10
106.4234826863
20
87.0952530355
30
0.0000000000
10
106.3903078661
20
87.3052961546
30
0.0000000000
10
106.3903065955
20
87.4095820419
30
0.0000000000
11
107.3903005031
21
86.4095881342
31
0.0000000000
11
107.0812824527
21
86.4585360398
31
0.0000000000
11
106.8025149998
21
86.6005799224
31
0.0000000000
11
106.5812864668
21
86.8218129405
31
0.0000000000
11
106.4392504328
21
87.1005765121
31
0.0000000000
11
106.3903065955
21
87.4095820419
31
0.0000000000
0
SPLINE
5
7FA
100
AcDbEntity
8
0
100
AcDbSpline
62
9
6
CONTINUOUS
70
0
71
3
72
14
73
10
74
8
42
0.0000001000
43
0.0000001000
44
0.0000000001
40
0.0000000000
40
0.0000000000
40
0.0000000000
40
0.0000000000
40
0.2223280592
40
0.4332072228
40
0.6223608139
40
0.7804836464
40
0.8997234761
40
0.9741498263
40
1.0000000000
40
1.0000000000
40
1.0000000000
40
1.0000000000
10
105.3903126878
20
87.4026260075
30
0.0000000000
10
105.4644271254
20
87.4026259519
30
0.0000000000
10
105.6089040248
20
87.4026448809
30
0.0000000000
10
105.8161026942
20
87.4035147108
30
0.0000000000
10
106.0029968094
20
87.4031349623
30
0.0000000000
10
106.1561564251
20
87.4074726694
30
0.0000000000
10
106.2791496673
20
87.4006299528
30
0.0000000000
10
106.3417450208
20
87.4166991330
30
0.0000000000
10
106.3865034503
20
87.4018488349
30
0.0000000000
10
106.3903065955
20
87.4095815070
30
0.0000000000
11
105.3903126878
21
87.4026260075
31
0.0000000000
11
105.6126559326
21
87.4027998677
31
0.0000000000
11
105.8235489375
21
87.4033140731
31
0.0000000000
11
106.0127136947
21
87.4041419062
31
0.0000000000
11
106.1708435449
21
87.4052426059
31
0.0000000000
11
106.2900842725
21
87.4065605239
31
0.0000000000
11
106.3645012095
21
87.4080306261
31
0.0000000000
11
106.3903065955
21
87.4095815070
31
0.0000000000
0
SPLINE
5
7FB
100
AcDbEntity
8
0
100
AcDbSpline
62
7
6
CONTINUOUS
70
0
71
3
72
12
73
8
74
6
42
0.0000001000
43
0.0000001000
44
0.0000000001
40
0.0000000000
40
0.0000000000
40
0.0000000000
40
0.0000000000
40
0.0495423665
40
0.1928581537
40
0.4134889896
40
0.6932100167
40
1.0000000000
40
1.0000000000
40
1.0000000000
40
1.0000000000
10
106.4496724005
20
108.3783676624
30
0.0000000000
10
106.4529121181
20
108.3621674950
30
0.0000000000
10
106.5482062533
20
108.3885707923
30
0.0000000000
10
106.6574554757
20
108.3569357991
30
0.0000000000
10
106.8869349387
20
108.3679081505
30
0.0000000000
10
107.1502826510
20
108.3600387715
30
0.0000000000
10
107.3473608106
20
108.3609735270
30
0.0000000000
10
107.4496663082
20
108.3609735270
30
0.0000000000
11
106.4496724005
21
108.3783676624
31
0.0000000000
11
106.4989454938
21
108.3730166791
31
0.0000000000
11
106.6422371029
21
108.3681307238
31
0.0000000000
11
106.8629255691
21
108.3642939194
31
0.0000000000
11
107.1427509717
21
108.3618159639
31
0.0000000000
11
107.4496663082
21
108.3609735270
31
0.0000000000
0
SPLINE
5
7FC
100
AcDbEntity
8
0
100
AcDbSpline
62
9
6
CONTINUOUS
70
0
71
3
72
12
73
8
74
6
42
0.0000001000
43
0.0000001000
44
0.0000000001
40
0.0000000000
40
0.0000000000
40
0.0000000000
40
0.0000000000
40
0.0498139625
40
0.1922247916
40
0.4133556808
40
0.6916547991
40
1.0000000000
40
1.0000000000
40
1.0000000000
40
1.0000000000
10
105.3950233482
20
86.4026311583
30
0.0000000000
10
105.3843222891
20
86.4153279245
30
0.0000000000
10
105.4075471294
20
86.4886337048
30
0.0000000000
10
105.3848208593
20
86.6179445334
30
0.0000000000
10
105.3953885781
20
86.8363093711
30
0.0000000000
10
105.3900789017
20
87.1038476476
30
0.0000000000
10
105.3906314987
20
87.2998427085
30
0.0000000000
10
105.3903126878
20
87.4026250659
30
0.0000000000
11
105.3950233482
21
86.4026311583
31
0.0000000000
11
105.3940900413
21
86.4524369189
31
0.0000000000
11
105.3931345543
21
86.5948460920
31
0.0000000000
11
105.3921916929
21
86.8159773769
31
0.0000000000
11
105.3912685748
21
87.0942779920
31
0.0000000000
11
105.3903126878
21
87.4026250659
31
0.0000000000
0
SPLINE
5
7FD
100
AcDbEntity
8
0
100
AcDbSpline
62
7
6
CONTINUOUS
70
0
71
3
72
12
73
8
74
6
42
0.0000001000
43
0.0000001000
44
0.0000000001
40
0.0000000000
40
0.0000000000
40
0.0000000000
40
0.0000000000
40
0.0495423665
40
0.1928581537
40
0.4134889896
40
0.6932100167
40
1.0000000000
40
1.0000000000
40
1.0000000000
40
1.0000000000
10
106.4496724005
20
96.3783676624
30
0.0000000000
10
106.4529121181
20
96.3621674950
30
0.0000000000
10
106.5482062533
20
96.3885707923
30
0.0000000000
10
106.6574554757
20
96.3569357991
30
0.0000000000
10
106.8869349387
20
96.3679081505
30
0.0000000000
10
107.1502826510
20
96.3600387715
30
0.0000000000
10
107.3473608106
20
96.3609735270
30
0.0000000000
10
107.4496663082
20
96.3609735270
30
0.0000000000
11
106.4496724005
21
96.3783676624
31
0.0000000000
11
106.4989454938
21
96.3730166791
31
0.0000000000
11
106.6422371029
21
96.3681307238
31
0.0000000000
11
106.8629255691
21
96.3642939194
31
0.0000000000
11
107.1427509717
21
96.3618159639
31
0.0000000000
11
107.4496663082
21
96.3609735270
31
0.0000000000
0
SPLINE
5
7FE
100
AcDbEntity
8
0
100
AcDbSpline
62
9
6
CONTINUOUS
70
0
71
3
72
12
73
8
74
6
42
0.0000001000
43
0.0000001000
44
0.0000000001
40
0.0000000000
40
0.0000000000
40
0.0000000000
40
0.0000000000
40
0.2000059025
40
0.4000072253
40
0.6000055369
40
0.8000026285
40
1.0000000000
40
1.0000000000
40
1.0000000000
40
1.0000000000
10
158.4333168037
20
86.4759498233
30
0.0000000000
10
158.5376084959
20
86.4759485661
30
0.0000000000
10
158.7476599388
20
86.5091196782
30
0.0000000000
10
159.0308051135
20
86.6534889371
30
0.0000000000
10
159.2557775458
20
86.8784450053
30
0.0000000000
10
159.4001632273
20
87.1615744739
30
0.0000000000
10
159.4333456820
20
87.3716175791
30
0.0000000000
10
159.4333496195
20
87.4759048228
30
0.0000000000
11
158.4333168037
21
86.4759498233
31
0.0000000000
11
158.7423406405
21
86.5248893967
31
0.0000000000
11
159.0211115805
21
86.6669214131
31
0.0000000000
11
159.2423470358
21
86.8881413408
31
0.0000000000
11
159.3843945588
21
87.1668969509
31
0.0000000000
11
159.4333496195
21
87.4759048228
31
0.0000000000
0
SPLINE
5
7FF
100
AcDbEntity
8
0
100
AcDbSpline
62
7
6
CONTINUOUS
70
0
71
3
72
12
73
8
74
6
42
0.0000001000
43
0.0000001000
44
0.0000000001
40
0.0000000000
40
0.0000000000
40
0.0000000000
40
0.0000000000
40
0.0496140020
40
0.1925931934
40
0.4131259082
40
0.6934304861
40
1.0000000000
40
1.0000000000
40
1.0000000000
40
1.0000000000
10
166.3239838145
20
122.7942247228
30
0.0000000000
10
166.3207394127
20
122.8104483134
30
0.0000000000
10
166.2255590675
20
122.7840569822
30
0.0000000000
10
166.1163733185
20
122.8156425120
30
0.0000000000
10
165.8868475621
20
122.8046730922
30
0.0000000000
10
165.6234213539
20
122.8125542210
30
0.0000000000
10
165.4262218756
20
122.8116188582
30
0.0000000000
10
165.3239899069
20
122.8116188582
30
0.0000000000
11
166.3239838145
21
122.7942247228
31
0.0000000000
11
166.2746390555
21
122.7995795404
31
0.0000000000
11
166.1316840422
21
122.8044553295
31
0.0000000000
11
165.9110938013
21
122.8082938707
31
0.0000000000
11
165.6306846596
21
122.8107776625
31
0.0000000000
11
165.3239899069
21
122.8116188582
31
0.0000000000
0
SPLINE
5
800
100
AcDbEntity
8
0
100
AcDbSpline
62
9
6
CONTINUOUS
70
0
71
3
72
8
73
4
74
2
42
0.0000001000
43
0.0000001000
44
0.0000000001
40
0.0000000000
40
0.0000000000
40
0.0000000000
40
0.0000000000
40
1.0000000000
40
1.0000000000
40
1.0000000000
40
1.0000000000
10
159.4333496195
20
87.4759036425
30
0.0000000000
10
159.4371615325
20
87.4681743454
30
0.0000000000
10
159.4486957773
20
87.4720009146
30
0.0000000000
10
159.4591575871
20
87.4743534033
30
0.0000000000
11
159.4333496195
21
87.4759036425
31
0.0000000000
11
159.4591575871
21
87.4743534033
31
0.0000000000
0
SPLINE
5
801
100
AcDbEntity
8
0
100
AcDbSpline
62
9
6
CONTINUOUS
70
0
71
3
72
13
73
9
74
7
42
0.0000001000
43
0.0000001000
44
0.0000000001
40
0.0000000000
40
0.0000000000
40
0.0000000000
40
0.0000000000
40
0.0764097030
40
0.1988160777
40
0.3611385556
40
0.5553182880
40
0.7717830427
40
1.0000000000
40
1.0000000000
40
1.0000000000
40
1.0000000000
10
159.4591575871
20
87.4743534033
30
0.0000000000
10
159.4892788953
20
87.4811266137
30
0.0000000000
10
159.5445220394
20
87.4669553768
30
0.0000000000
10
159.6675096756
20
87.4737939934
30
0.0000000000
10
159.8206771623
20
87.4694580626
30
0.0000000000
10
160.0075693473
20
87.4698372231
30
0.0000000000
10
160.2147632775
20
87.4689681116
30
0.0000000000
10
160.3592328028
20
87.4689478651
30
0.0000000000
10
160.4333435272
20
87.4689479335
30
0.0000000000
11
159.4591575871
21
87.4743534033
31
0.0000000000
11
159.5335824752
21
87.4728831735
31
0.0000000000
11
159.6528252056
21
87.4715652079
31
0.0000000000
11
159.8109582188
21
87.4704645521
31
0.0000000000
11
160.0001290374
21
87.4696367997
31
0.0000000000
11
160.2110114226
21
87.4691226505
31
0.0000000000
11
160.4333435272
21
87.4689479335
31
0.0000000000
0
SPLINE
5
802
100
AcDbEntity
8
0
100
AcDbSpline
62
9
6
CONTINUOUS
70
0
71
3
72
12
73
8
74
6
42
0.0000001000
43
0.0000001000
44
0.0000000001
40
0.0000000000
40
0.0000000000
40
0.0000000000
40
0.0000000000
40
0.2000059025
40
0.4000072253
40
0.6000055369
40
0.8000026285
40
1.0000000000
40
1.0000000000
40
1.0000000000
40
1.0000000000
10
165.3833168037
20
86.4096270424
30
0.0000000000
10
165.4876084959
20
86.4096257852
30
0.0000000000
10
165.6976599387
20
86.4427968972
30
0.0000000000
10
165.9808051135
20
86.5871661562
30
0.0000000000
10
166.2057775458
20
86.8121222243
30
0.0000000000
10
166.3501632273
20
87.0952516930
30
0.0000000000
10
166.3833456820
20
87.3052947982
30
0.0000000000
10
166.3833496195
20
87.4095820419
30
0.0000000000
11
165.3833168037
21
86.4096270424
31
0.0000000000
11
165.6923406404
21
86.4585666158
31
0.0000000000
11
165.9711115804
21
86.6005986322
31
0.0000000000
11
166.1923470357
21
86.8218185599
31
0.0000000000
11
166.3343945588
21
87.1005741699
31
0.0000000000
11
166.3833496195
21
87.4095820419
31
0.0000000000
0
SPLINE
5
803
100
AcDbEntity
8
0
100
AcDbSpline
62
9
6
CONTINUOUS
70
0
71
3
72
8
73
4
74
2
42
0.0000001000
43
0.0000001000
44
0.0000000001
40
0.0000000000
40
0.0000000000
40
0.0000000000
40
0.0000000000
40
1.0000000000
40
1.0000000000
40
1.0000000000
40
1.0000000000
10
166.3833496195
20
87.4095813284
30
0.0000000000
10
166.3871612528
20
87.4018525942
30
0.0000000000
10
166.3986946087
20
87.4056785265
30
0.0000000000
10
166.4091556735
20
87.4080306819
30
0.0000000000
11
166.3833496195
21
87.4095813284
31
0.0000000000
11
166.4091556735
21
87.4080306819
31
0.0000000000
0
SPLINE
5
804
100
AcDbEntity
8
0
100
AcDbSpline
62
9
6
CONTINUOUS
70
0
71
3
72
13
73
9
74
7
42
0.0000001000
43
0.0000001000
44
0.0000000001
40
0.0000000000
40
0.0000000000
40
0.0000000000
40
0.0000000000
40
0.0764093934
40
0.1988158594
40
0.3611382167
40
0.5553158962
40
0.7717767372
40
1.0000000000
40
1.0000000000
40
1.0000000000
40
1.0000000000
10
166.4091556735
20
87.4080306819
30
0.0000000000
10
166.4392769709
20
87.4148034127
30
0.0000000000
10
166.4945200779
20
87.4006329339
30
0.0000000000
10
166.6175079081
20
87.4074710937
30
0.0000000000
10
166.7706750006
20
87.4031353354
30
0.0000000000
10
166.9575655732
20
87.4035145155
30
0.0000000000
10
167.1647600208
20
87.4026449834
30
0.0000000000
10
167.3092306096
20
87.4026258879
30
0.0000000000
10
167.3833435272
20
87.4026259563
30
0.0000000000
11
166.4091556735
21
87.4080306819
31
0.0000000000
11
166.4835804057
21
87.4065604225
31
0.0000000000
11
166.6028234591
21
87.4052424422
31
0.0000000000
11
166.7609566654
21
87.4041417798
31
0.0000000000
11
166.9501258555
21
87.4033140295
31
0.0000000000
11
167.1610048423
21
87.4027998802
31
0.0000000000
11
167.3833435272
21
87.4026259563
31
0.0000000000
0
SPLINE
5
805
100
AcDbEntity
8
0
100
AcDbSpline
62
7
6
CONTINUOUS
70
0
71
3
72
12
73
8
74
6
42
0.0000001000
43
0.0000001000
44
0.0000000001
40
0.0000000000
40
0.0000000000
40
0.0000000000
40
0.0000000000
40
0.3065695139
40
0.5868740918
40
0.8074068066
40
0.9503859980
40
1.0000000000
40
1.0000000000
40
1.0000000000
40
1.0000000000
10
165.3239899069
20
126.3609735270
30
0.0000000000
10
165.4262218756
20
126.3609735270
30
0.0000000000
10
165.6234213539
20
126.3600381642
30
0.0000000000
10
165.8868475621
20
126.3679192930
30
0.0000000000
10
166.1163733185
20
126.3569498732
30
0.0000000000
10
166.2255590675
20
126.3885354031
30
0.0000000000
10
166.3207394127
20
126.3621440718
30
0.0000000000
10
166.3239838145
20
126.3783676624
30
0.0000000000
11
165.3239899069
21
126.3609735270
31
0.0000000000
11
165.6306846596
21
126.3618147228
31
0.0000000000
11
165.9110938013
21
126.3642985145
31
0.0000000000
11
166.1316840422
21
126.3681370557
31
0.0000000000
11
166.2746390555
21
126.3730128448
31
0.0000000000
11
166.3239838145
21
126.3783676624
31
0.0000000000
0
SPLINE
5
806
100
AcDbEntity
8
0
100
AcDbSpline
62
9
6
CONTINUOUS
70
0
71
3
72
14
73
10
74
8
42
0.0000001000
43
0.0000001000
44
0.0000000001
40
0.0000000000
40
0.0000000000
40
0.0000000000
40
0.0000000000
40
0.2223169297
40
0.4331854833
40
0.6223451428
40
0.7804711443
40
0.8997129821
40
0.9741472870
40
1.0000000000
40
1.0000000000
40
1.0000000000
40
1.0000000000
10
167.3833435272
20
137.7699672326
30
0.0000000000
10
167.3092328028
20
137.7699673011
30
0.0000000000
10
167.1647632775
20
137.7699470546
30
0.0000000000
10
166.9575693473
20
137.7690779431
30
0.0000000000
10
166.7706771623
20
137.7694571035
30
0.0000000000
10
166.6175096756
20
137.7651211728
30
0.0000000000
10
166.4945220394
20
137.7719597893
30
0.0000000000
10
166.4319048061
20
137.7558969157
30
0.0000000000
10
166.3871615325
20
137.7707408208
30
0.0000000000
10
166.3833496195
20
137.7630115237
30
0.0000000000
11
167.3833435272
21
137.7699672326
31
0.0000000000
11
167.1610114226
21
137.7697925157
31
0.0000000000
11
166.9501290374
21
137.7692783665
31
0.0000000000
11
166.7609582188
21
137.7684506141
31
0.0000000000
11
166.6028252056
21
137.7673499582
31
0.0000000000
11
166.4835824752
21
137.7660319927
31
0.0000000000
11
166.4091575871
21
137.7645617628
31
0.0000000000
11
166.3833496195
21
137.7630115237
31
0.0000000000
0
SPLINE
5
807
100
AcDbEntity
8
0
100
AcDbSpline
62
9
6
CONTINUOUS
70
0
71
3
72
12
73
8
74
6
42
0.0000001000
43
0.0000001000
44
0.0000000001
40
0.0000000000
40
0.0000000000
40
0.0000000000
40
0.0000000000
40
0.2000058999
40
0.4000072196
40
0.6000055295
40
0.8000026227
40
1.0000000000
40
1.0000000000
40
1.0000000000
40
1.0000000000
10
165.3833167843
20
138.7629653234
30
0.0000000000
10
165.4876084751
20
138.7629665819
30
0.0000000000
10
165.6976599153
20
138.7297954741
30
0.0000000000
10
165.9808050904
20
138.5854262251
30
0.0000000000
10
166.2057775290
20
138.3604701658
30
0.0000000000
10
166.3501632208
20
138.0773406989
30
0.0000000000
10
166.3833456807
20
137.8672975901
30
0.0000000000
10
166.3833496195
20
137.7630103434
30
0.0000000000
11
165.3833167843
21
138.7629653234
31
0.0000000000
11
165.6923406179
21
138.7140257561
31
0.0000000000
11
165.9711115575
21
138.5719937496
31
0.0000000000
11
166.1923470182
21
138.3507738311
31
0.0000000000
11
166.3343945509
21
138.0720182233
31
0.0000000000
11
166.3833496195
21
137.7630103434
31
0.0000000000
0
SPLINE
5
808
100
AcDbEntity
8
0
100
AcDbSpline
62
9
6
CONTINUOUS
70
0
71
3
72
14
73
10
74
8
42
0.0000001000
43
0.0000001000
44
0.0000000001
40
0.0000000000
40
0.0000000000
40
0.0000000000
40
0.0000000000
40
0.2223169297
40
0.4331854833
40
0.6223451428
40
0.7804711443
40
0.8997129821
40
0.9741472870
40
1.0000000000
40
1.0000000000
40
1.0000000000
40
1.0000000000
10
160.4333435272
20
137.7036444517
30
0.0000000000
10
160.3592328028
20
137.7036445201
30
0.0000000000
10
160.2147632775
20
137.7036242736
30
0.0000000000
10
160.0075693473
20
137.7027551621
30
0.0000000000
10
159.8206771623
20
137.7031343226
30
0.0000000000
10
159.6675096756
20
137.6987983918
30
0.0000000000
10
159.5445220394
20
137.7056370084
30
0.0000000000
10
159.4819048061
20
137.6895741348
30
0.0000000000
10
159.4371615325
20
137.7044180399
30
0.0000000000
10
159.4333496195
20
137.6966887427
30
0.0000000000
11
160.4333435272
21
137.7036444517
31
0.0000000000
11
160.2110114226
21
137.7034697347
31
0.0000000000
11
160.0001290373
21
137.7029555855
31
0.0000000000
11
159.8109582188
21
137.7021278331
31
0.0000000000
11
159.6528252056
21
137.7010271773
31
0.0000000000
11
159.5335824752
21
137.6997092117
31
0.0000000000
11
159.4591575871
21
137.6982389819
31
0.0000000000
11
159.4333496195
21
137.6966887427
31
0.0000000000
0
SPLINE
5
809
100
AcDbEntity
8
0
100
AcDbSpline
62
9
6
CONTINUOUS
70
0
71
3
72
12
73
8
74
6
42
0.0000001000
43
0.0000001000
44
0.0000000001
40
0.0000000000
40
0.0000000000
40
0.0000000000
40
0.0000000000
40
0.2000058999
40
0.4000072196
40
0.6000055295
40
0.8000026226
40
1.0000000000
40
1.0000000000
40
1.0000000000
40
1.0000000000
10
158.4333167843
20
138.6966425424
30
0.0000000000
10
158.5376084751
20
138.6966438009
30
0.0000000000
10
158.7476599153
20
138.6634726932
30
0.0000000000
10
159.0308050904
20
138.5191034442
30
0.0000000000
10
159.2557775290
20
138.2941473848
30
0.0000000000
10
159.4001632208
20
138.0110179179
30
0.0000000000
10
159.4333456807
20
137.8009748091
30
0.0000000000
10
159.4333496195
20
137.6966875624
30
0.0000000000
11
158.4333167843
21
138.6966425424
31
0.0000000000
11
158.7423406179
21
138.6477029751
31
0.0000000000
11
159.0211115574
21
138.5056709687
31
0.0000000000
11
159.2423470181
21
138.2844510501
31
0.0000000000
11
159.3843945509
21
138.0056954424
31
0.0000000000
11
159.4333496195
21
137.6966875624
31
0.0000000000
0
SPLINE
5
80A
100
AcDbEntity
8
0
100
AcDbSpline
62
7
6
CONTINUOUS
70
0
71
3
72
12
73
8
74
6
42
0.0000001000
43
0.0000001000
44
0.0000000001
40
0.0000000000
40
0.0000000000
40
0.0000000000
40
0.0000000000
40
0.0496140020
40
0.1925931934
40
0.4131259082
40
0.6934304861
40
1.0000000000
40
1.0000000000
40
1.0000000000
40
1.0000000000
10
166.3239838145
20
128.7942247228
30
0.0000000000
10
166.3207394127
20
128.8104483134
30
0.0000000000
10
166.2255590675
20
128.7840569822
30
0.0000000000
10
166.1163733185
20
128.8156425120
30
0.0000000000
10
165.8868475621
20
128.8046730922
30
0.0000000000
10
165.6234213539
20
128.8125542210
30
0.0000000000
10
165.4262218756
20
128.8116188582
30
0.0000000000
10
165.3239899069
20
128.8116188582
30
0.0000000000
11
166.3239838145
21
128.7942247228
31
0.0000000000
11
166.2746390555
21
128.7995795404
31
0.0000000000
11
166.1316840422
21
128.8044553295
31
0.0000000000
11
165.9110938013
21
128.8082938707
31
0.0000000000
11
165.6306846596
21
128.8107776625
31
0.0000000000
11
165.3239899069
21
128.8116188582
31
0.0000000000
0
SPLINE
5
80B
100
AcDbEntity
8
0
100
AcDbSpline
62
7
6
CONTINUOUS
70
0
71
3
72
12
73
8
74
6
42
0.0000001000
43
0.0000001000
44
0.0000000001
40
0.0000000000
40
0.0000000000
40
0.0000000000
40
0.0000000000
40
0.0496140020
40
0.1925931934
40
0.4131259082
40
0.6934304861
40
1.0000000000
40
1.0000000000
40
1.0000000000
40
1.0000000000
10
166.3239838145
20
116.7942247228
30
0.0000000000
10
166.3207394127
20
116.8104483134
30
0.0000000000
10
166.2255590675
20
116.7840569822
30
0.0000000000
10
166.1163733185
20
116.8156425120
30
0.0000000000
10
165.8868475621
20
116.8046730922
30
0.0000000000
10
165.6234213539
20
116.8125542210
30
0.0000000000
10
165.4262218756
20
116.8116188582
30
0.0000000000
10
165.3239899069
20
116.8116188582
30
0.0000000000
11
166.3239838145
21
116.7942247228
31
0.0000000000
11
166.2746390555
21
116.7995795404
31
0.0000000000
11
166.1316840422
21
116.8044553295
31
0.0000000000
11
165.9110938013
21
116.8082938707
31
0.0000000000
11
165.6306846596
21
116.8107776625
31
0.0000000000
11
165.3239899069
21
116.8116188582
31
0.0000000000
0
SPLINE
5
80C
100
AcDbEntity
8
0
100
AcDbSpline
62
7
6
CONTINUOUS
70
0
71
3
72
12
73
8
74
6
42
0.0000001000
43
0.0000001000
44
0.0000000001
40
0.0000000000
40
0.0000000000
40
0.0000000000
40
0.0000000000
40
0.3065695139
40
0.5868740918
40
0.8074068066
40
0.9503859980
40
1.0000000000
40
1.0000000000
40
1.0000000000
40
1.0000000000
10
165.3239899069
20
96.3609735270
30
0.0000000000
10
165.4262218756
20
96.3609735270
30
0.0000000000
10
165.6234213539
20
96.3600381642
30
0.0000000000
10
165.8868475621
20
96.3679192930
30
0.0000000000
10
166.1163733185
20
96.3569498732
30
0.0000000000
10
166.2255590675
20
96.3885354031
30
0.0000000000
10
166.3207394127
20
96.3621440718
30
0.0000000000
10
166.3239838145
20
96.3783676624
30
0.0000000000
11
165.3239899069
21
96.3609735270
31
0.0000000000
11
165.6306846596
21
96.3618147228
31
0.0000000000
11
165.9110938013
21
96.3642985145
31
0.0000000000
11
166.1316840422
21
96.3681370557
31
0.0000000000
11
166.2746390555
21
96.3730128448
31
0.0000000000
11
166.3239838145
21
96.3783676624
31
0.0000000000
0
SPLINE
5
80D
100
AcDbEntity
8
0
100
AcDbSpline
62
7
6
CONTINUOUS
70
0
71
3
72
12
73
8
74
6
42
0.0000001000
43
0.0000001000
44
0.0000000001
40
0.0000000000
40
0.0000000000
40
0.0000000000
40
0.0000000000
40
0.3067899833
40
0.5865110104
40
0.8071418463
40
0.9504576335
40
1.0000000000
40
1.0000000000
40
1.0000000000
40
1.0000000000
10
107.4496663082
20
128.8116188582
30
0.0000000000
10
107.3473608106
20
128.8116188582
30
0.0000000000
10
107.1502826510
20
128.8125536137
30
0.0000000000
10
106.8869349387
20
128.8046842347
30
0.0000000000
10
106.6574554757
20
128.8156565861
30
0.0000000000
10
106.5482062533
20
128.7840215929
30
0.0000000000
10
106.4529121181
20
128.8104248902
30
0.0000000000
10
106.4496724005
20
128.7942247228
30
0.0000000000
11
107.4496663082
21
128.8116188582
31
0.0000000000
11
107.1427509717
21
128.8107764213
31
0.0000000000
11
106.8629255691
21
128.8082984659
31
0.0000000000
11
106.6422371029
21
128.8044616615
31
0.0000000000
11
106.4989454938
21
128.7995757061
31
0.0000000000
11
106.4496724005
21
128.7942247228
31
0.0000000000
0
SPLINE
5
80E
100
AcDbEntity
8
0
100
AcDbSpline
62
7
6
CONTINUOUS
70
0
71
3
72
12
73
8
74
6
42
0.0000001000
43
0.0000001000
44
0.0000000001
40
0.0000000000
40
0.0000000000
40
0.0000000000
40
0.0000000000
40
0.3065695139
40
0.5868740918
40
0.8074068066
40
0.9503859980
40
1.0000000000
40
1.0000000000
40
1.0000000000
40
1.0000000000
10
165.3239899069
20
120.3609735270
30
0.0000000000
10
165.4262218756
20
120.3609735270
30
0.0000000000
10
165.6234213539
20
120.3600381642
30
0.0000000000
10
165.8868475621
20
120.3679192930
30
0.0000000000
10
166.1163733185
20
120.3569498732
30
0.0000000000
10
166.2255590675
20
120.3885354031
30
0.0000000000
10
166.3207394127
20
120.3621440718
30
0.0000000000
10
166.3239838145
20
120.3783676624
30
0.0000000000
11
165.3239899069
21
120.3609735270
31
0.0000000000
11
165.6306846596
21
120.3618147228
31
0.0000000000
11
165.9110938013
21
120.3642985145
31
0.0000000000
11
166.1316840422
21
120.3681370557
31
0.0000000000
11
166.2746390555
21
120.3730128448
31
0.0000000000
11
166.3239838145
21
120.3783676624
31
0.0000000000
0
SPLINE
5
80F
100
AcDbEntity
8
0
100
AcDbSpline
62
7
6
CONTINUOUS
70
0
71
3
72
12
73
8
74
6
42
0.0000001000
43
0.0000001000
44
0.0000000001
40
0.0000000000
40
0.0000000000
40
0.0000000000
40
0.0000000000
40
0.0496140020
40
0.1925931934
40
0.4131259082
40
0.6934304861
40
1.0000000000
40
1.0000000000
40
1.0000000000
40
1.0000000000
10
166.3239838145
20
110.7942247228
30
0.0000000000
10
166.3207394127
20
110.8104483134
30
0.0000000000
10
166.2255590675
20
110.7840569822
30
0.0000000000
10
166.1163733185
20
110.8156425120
30
0.0000000000
10
165.8868475621
20
110.8046730922
30
0.0000000000
10
165.6234213539
20
110.8125542210
30
0.0000000000
10
165.4262218756
20
110.8116188582
30
0.0000000000
10
165.3239899069
20
110.8116188582
30
0.0000000000
11
166.3239838145
21
110.7942247228
31
0.0000000000
11
166.2746390555
21
110.7995795404
31
0.0000000000
11
166.1316840422
21
110.8044553295
31
0.0000000000
11
165.9110938013
21
110.8082938707
31
0.0000000000
11
165.6306846596
21
110.8107776625
31
0.0000000000
11
165.3239899069
21
110.8116188582
31
0.0000000000
0
SPLINE
5
810
100
AcDbEntity
8
0
100
AcDbSpline
62
7
6
CONTINUOUS
70
0
71
3
72
16
73
12
74
10
42
0.0000001000
43
0.0000001000
44
0.0000000001
40
0.0000000000
40
0.0000000000
40
0.0000000000
40
0.0000000000
40
0.0323511619
40
0.1205498771
40
0.2518259677
40
0.4150761045
40
0.5849238955
40
0.7481740323
40
0.8794501229
40
0.9676488381
40
1.0000000000
40
1.0000000000
40
1.0000000000
40
1.0000000000
10
106.4080602902
20
128.5861438878
30
0.0000000000
10
106.4038315438
20
128.5649980945
30
0.0000000000
10
106.4109834397
20
128.4837027354
30
0.0000000000
10
106.4031427056
20
128.3166750230
30
0.0000000000
10
106.4059516025
20
128.0611435187
30
0.0000000000
10
106.4043900036
20
127.7517682316
30
0.0000000000
10
106.4043900036
20
127.4208241536
30
0.0000000000
10
106.4059516025
20
127.1114488665
30
0.0000000000
10
106.4031427056
20
126.8559173622
30
0.0000000000
10
106.4109834397
20
126.6888896498
30
0.0000000000
10
106.4038315438
20
126.6075942907
30
0.0000000000
10
106.4080602902
20
126.5864484975
30
0.0000000000
11
106.4080602902
21
128.5861438878
31
0.0000000000
11
106.4068847707
21
128.5214611237
31
0.0000000000
11
106.4058476317
21
128.3450909491
31
0.0000000000
11
106.4050907391
21
128.0825758882
31
0.0000000000
11
106.4046812426
21
127.7561206760
31
0.0000000000
11
106.4046812426
21
127.4164717092
31
0.0000000000
11
106.4050907391
21
127.0900164970
31
0.0000000000
11
106.4058476317
21
126.8275014361
31
0.0000000000
11
106.4068847707
21
126.6511312615
31
0.0000000000
11
106.4080602902
21
126.5864484975
31
0.0000000000
0
SPLINE
5
811
100
AcDbEntity
8
0
100
AcDbSpline
62
7
6
CONTINUOUS
70
0
71
3
72
12
73
8
74
6
42
0.0000001000
43
0.0000001000
44
0.0000000001
40
0.0000000000
40
0.0000000000
40
0.0000000000
40
0.0000000000
40
0.3067899833
40
0.5865110104
40
0.8071418463
40
0.9504576335
40
1.0000000000
40
1.0000000000
40
1.0000000000
40
1.0000000000
10
107.4496663082
20
110.8116188582
30
0.0000000000
10
107.3473608106
20
110.8116188582
30
0.0000000000
10
107.1502826510
20
110.8125536137
30
0.0000000000
10
106.8869349387
20
110.8046842347
30
0.0000000000
10
106.6574554757
20
110.8156565861
30
0.0000000000
10
106.5482062533
20
110.7840215929
30
0.0000000000
10
106.4529121181
20
110.8104248902
30
0.0000000000
10
106.4496724005
20
110.7942247228
30
0.0000000000
11
107.4496663082
21
110.8116188582
31
0.0000000000
11
107.1427509717
21
110.8107764213
31
0.0000000000
11
106.8629255691
21
110.8082984659
31
0.0000000000
11
106.6422371029
21
110.8044616615
31
0.0000000000
11
106.4989454938
21
110.7995757061
31
0.0000000000
11
106.4496724005
21
110.7942247228
31
0.0000000000
0
SPLINE
5
812
100
AcDbEntity
8
0
100
AcDbSpline
62
7
6
CONTINUOUS
70
0
71
3
72
12
73
8
74
6
42
0.0000001000
43
0.0000001000
44
0.0000000001
40
0.0000000000
40
0.0000000000
40
0.0000000000
40
0.0000000000
40
0.0495423665
40
0.1928581537
40
0.4134889896
40
0.6932100167
40
1.0000000000
40
1.0000000000
40
1.0000000000
40
1.0000000000
10
106.4496724005
20
114.3783676624
30
0.0000000000
10
106.4529121181
20
114.3621674950
30
0.0000000000
10
106.5482062533
20
114.3885707923
30
0.0000000000
10
106.6574554757
20
114.3569357991
30
0.0000000000
10
106.8869349387
20
114.3679081505
30
0.0000000000
10
107.1502826510
20
114.3600387715
30
0.0000000000
10
107.3473608106
20
114.3609735270
30
0.0000000000
10
107.4496663082
20
114.3609735270
30
0.0000000000
11
106.4496724005
21
114.3783676624
31
0.0000000000
11
106.4989454938
21
114.3730166791
31
0.0000000000
11
106.6422371029
21
114.3681307238
31
0.0000000000
11
106.8629255691
21
114.3642939194
31
0.0000000000
11
107.1427509717
21
114.3618159639
31
0.0000000000
11
107.4496663082
21
114.3609735270
31
0.0000000000
0
SPLINE
5
813
100
AcDbEntity
8
0
100
AcDbSpline
62
7
6
CONTINUOUS
70
0
71
3
72
12
73
8
74
6
42
0.0000001000
43
0.0000001000
44
0.0000000001
40
0.0000000000
40
0.0000000000
40
0.0000000000
40
0.0000000000
40
0.3067899833
40
0.5865110104
40
0.8071418463
40
0.9504576335
40
1.0000000000
40
1.0000000000
40
1.0000000000
40
1.0000000000
10
107.4496663082
20
116.8116188582
30
0.0000000000
10
107.3473608106
20
116.8116188582
30
0.0000000000
10
107.1502826510
20
116.8125536137
30
0.0000000000
10
106.8869349387
20
116.8046842347
30
0.0000000000
10
106.6574554757
20
116.8156565861
30
0.0000000000
10
106.5482062533
20
116.7840215929
30
0.0000000000
10
106.4529121181
20
116.8104248902
30
0.0000000000
10
106.4496724005
20
116.7942247228
30
0.0000000000
11
107.4496663082
21
116.8116188582
31
0.0000000000
11
107.1427509717
21
116.8107764213
31
0.0000000000
11
106.8629255691
21
116.8082984659
31
0.0000000000
11
106.6422371029
21
116.8044616615
31
0.0000000000
11
106.4989454938
21
116.7995757061
31
0.0000000000
11
106.4496724005
21
116.7942247228
31
0.0000000000
0
SPLINE
5
814
100
AcDbEntity
8
0
100
AcDbSpline
62
7
6
CONTINUOUS
70
0
71
3
72
16
73
12
74
10
42
0.0000001000
43
0.0000001000
44
0.0000000001
40
0.0000000000
40
0.0000000000
40
0.0000000000
40
0.0000000000
40
0.0323511619
40
0.1205498771
40
0.2518259677
40
0.4150761045
40
0.5849238955
40
0.7481740323
40
0.8794501229
40
0.9676488381
40
1.0000000000
40
1.0000000000
40
1.0000000000
40
1.0000000000
10
106.4080602902
20
122.5861438878
30
0.0000000000
10
106.4038315438
20
122.5649980945
30
0.0000000000
10
106.4109834397
20
122.4837027354
30
0.0000000000
10
106.4031427056
20
122.3166750230
30
0.0000000000
10
106.4059516025
20
122.0611435187
30
0.0000000000
10
106.4043900036
20
121.7517682316
30
0.0000000000
10
106.4043900036
20
121.4208241536
30
0.0000000000
10
106.4059516025
20
121.1114488665
30
0.0000000000
10
106.4031427056
20
120.8559173622
30
0.0000000000
10
106.4109834397
20
120.6888896498
30
0.0000000000
10
106.4038315438
20
120.6075942907
30
0.0000000000
10
106.4080602902
20
120.5864484975
30
0.0000000000
11
106.4080602902
21
122.5861438878
31
0.0000000000
11
106.4068847707
21
122.5214611237
31
0.0000000000
11
106.4058476317
21
122.3450909491
31
0.0000000000
11
106.4050907391
21
122.0825758882
31
0.0000000000
11
106.4046812426
21
121.7561206760
31
0.0000000000
11
106.4046812426
21
121.4164717092
31
0.0000000000
11
106.4050907391
21
121.0900164970
31
0.0000000000
11
106.4058476317
21
120.8275014361
31
0.0000000000
11
106.4068847707
21
120.6511312615
31
0.0000000000
11
106.4080602902
21
120.5864484975
31
0.0000000000
0
SPLINE
5
815
100
AcDbEntity
8
0
100
AcDbSpline
62
9
6
CONTINUOUS
70
0
71
3
72
14
73
10
74
8
42
0.0000001000
43
0.0000001000
44
0.0000000001
40
0.0000000000
40
0.0000000000
40
0.0000000000
40
0.0000000000
40
0.0251192250
40
0.0990654001
40
0.2180626463
40
0.3761959147
40
0.5656131629
40
0.7769761942
40
1.0000000000
40
1.0000000000
40
1.0000000000
40
1.0000000000
10
312.1036295990
20
228.6764417693
30
0.0000000000
10
312.1035717627
20
228.6847856196
30
0.0000000000
10
312.1033431574
20
228.7176921596
30
0.0000000000
10
312.1028367815
20
228.7901259759
30
0.0000000000
10
312.1020232137
20
228.9067430465
30
0.0000000000
10
312.1009401844
20
229.0617161062
30
0.0000000000
10
312.0996442516
20
229.2473702974
30
0.0000000000
10
312.0981974840
20
229.4545791617
30
0.0000000000
10
312.0971919343
20
229.5988693540
30
0.0000000000
10
312.0966740996
20
229.6729511179
30
0.0000000000
11
312.1036295990
21
228.6764417693
31
0.0000000000
11
312.1034557389
21
228.7014733178
31
0.0000000000
11
312.1029415334
21
228.7751613734
31
0.0000000000
11
312.1021137003
21
228.8937432407
31
0.0000000000
11
312.1010130006
21
229.0513245155
31
0.0000000000
11
312.0996950826
21
229.2400805711
31
0.0000000000
11
312.0982249804
21
229.4507058079
31
0.0000000000
11
312.0966740996
21
229.6729511179
31
0.0000000000
0
SPLINE
5
816
100
AcDbEntity
8
0
100
AcDbSpline
62
9
6
CONTINUOUS
70
0
71
3
72
14
73
10
74
8
42
0.0000001000
43
0.0000001000
44
0.0000000001
40
0.0000000000
40
0.0000000000
40
0.0000000000
40
0.0000000000
40
0.0251192250
40
0.0990654001
40
0.2180626463
40
0.3761959147
40
0.5656131629
40
0.7769761942
40
1.0000000000
40
1.0000000000
40
1.0000000000
40
1.0000000000
10
312.1699523799
20
209.6764417693
30
0.0000000000
10
312.1698945437
20
209.6847856196
30
0.0000000000
10
312.1696659383
20
209.7176921596
30
0.0000000000
10
312.1691595624
20
209.7901259759
30
0.0000000000
10
312.1683459947
20
209.9067430465
30
0.0000000000
10
312.1672629653
20
210.0617161062
30
0.0000000000
10
312.1659670326
20
210.2473702974
30
0.0000000000
10
312.1645202650
20
210.4545791617
30
0.0000000000
10
312.1635147153
20
210.5988693540
30
0.0000000000
10
312.1629968805
20
210.6729511179
30
0.0000000000
11
312.1699523799
21
209.6764417693
31
0.0000000000
11
312.1697785198
21
209.7014733178
31
0.0000000000
11
312.1692643144
21
209.7751613734
31
0.0000000000
11
312.1684364813
21
209.8937432407
31
0.0000000000
11
312.1673357816
21
210.0513245155
31
0.0000000000
11
312.1660178636
21
210.2400805711
31
0.0000000000
11
312.1645477614
21
210.4507058079
31
0.0000000000
11
312.1629968805
21
210.6729511179
31
0.0000000000
0
SPLINE
5
817
100
AcDbEntity
8
0
100
AcDbSpline
62
9
6
CONTINUOUS
70
0
71
3
72
12
73
8
74
6
42
0.0000001000
43
0.0000001000
44
0.0000000001
40
0.0000000000
40
0.0000000000
40
0.0000000000
40
0.0000000000
40
0.0489560850
40
0.1910000777
40
0.4122320186
40
0.6909946414
40
1.0000000000
40
1.0000000000
40
1.0000000000
40
1.0000000000
10
313.1629902533
20
210.6729511179
30
0.0000000000
10
313.1629332901
20
210.6892697929
30
0.0000000000
10
313.0604523884
20
210.6524109851
30
0.0000000000
10
312.9589737142
20
210.6873168476
30
0.0000000000
10
312.7261448888
20
210.6691390978
30
0.0000000000
10
312.4638242860
20
210.6757240757
30
0.0000000000
10
312.2659980058
20
210.6733106582
30
0.0000000000
10
312.1629963456
20
210.6729511179
30
0.0000000000
11
313.1629902533
21
210.6729511179
31
0.0000000000
11
313.1140423476
21
210.6738589364
31
0.0000000000
11
312.9719984651
21
210.6743361946
31
0.0000000000
11
312.7507654469
21
210.6743361791
31
0.0000000000
11
312.4720018754
21
210.6738589075
31
0.0000000000
11
312.1629963456
21
210.6729511179
31
0.0000000000
0
SPLINE
5
818
100
AcDbEntity
8
0
100
AcDbSpline
62
9
6
CONTINUOUS
70
0
71
3
72
12
73
8
74
6
42
0.0000001000
43
0.0000001000
44
0.0000000001
40
0.0000000000
40
0.0000000000
40
0.0000000000
40
0.0000000000
40
0.0489560850
40
0.1910000777
40
0.4122320186
40
0.6909946414
40
1.0000000000
40
1.0000000000
40
1.0000000000
40
1.0000000000
10
313.0966674723
20
229.6729511179
30
0.0000000000
10
313.0966105092
20
229.6892697929
30
0.0000000000
10
312.9941296075
20
229.6524109851
30
0.0000000000
10
312.8926509333
20
229.6873168476
30
0.0000000000
10
312.6598221078
20
229.6691390978
30
0.0000000000
10
312.3975015050
20
229.6757240757
30
0.0000000000
10
312.1996752249
20
229.6733106582
30
0.0000000000
10
312.0966735646
20
229.6729511179
30
0.0000000000
11
313.0966674723
21
229.6729511179
31
0.0000000000
11
313.0477195667
21
229.6738589364
31
0.0000000000
11
312.9056756842
21
229.6743361946
31
0.0000000000
11
312.6844426660
21
229.6743361791
31
0.0000000000
11
312.4056790944
21
229.6738589075
31
0.0000000000
11
312.0966735646
21
229.6729511179
31
0.0000000000
0
ENDSEC
0
SECTION
2
OBJECTS
0
DICTIONARY
5
819
100
AcDbDictionary
3
ACAD_GROUP
350
81A
3
ACAD_MLINESTYLE
350
81B
0
DICTIONARY
5
81A
102
{ACAD_REACTORS
330
819
102
}
100
AcDbDictionary
0
DICTIONARY
5
81B
102
{ACAD_REACTORS
330
819
102
}
100
AcDbDictionary
3
STANDARD
350
81C
0
MLINESTYLE
5
81C
102
{ACAD_REACTORS
330
81B
102
}
100
AcDbMlineStyle
2
STANDARD
70
0
3

62
256
51
90.0
52
90.0
71
2
49
0.5
62
256
6
BYLAYER
49
-0.5
62
256
6
BYLAYER
0
ENDSEC
0
EOF
