  0
SECTION
  2
HEADER
  9
$ACADVER
  1
AC1015
  9
$ACADMAINTVER
 70
    20
  9
$DWGCODEPAGE
  3
ANSI_1252
  9
$INSBASE
 10
0.0
 20
0.0
 30
0.0
  9
$EXTMIN
 10
-85.57534781086349
 20
-85.57159443513127
 30
-48.75369234523233
  9
$EXTMAX
 10
399.8812836133102
 20
231.2241648696303
 30
72.25369290868252
  9
$LIMMIN
 10
0.0
 20
0.0
  9
$LIMMAX
 10
420.0
 20
297.0
  9
$ORTHOMODE
 70
     1
  9
$REGENMODE
 70
     1
  9
$FILLMODE
 70
     1
  9
$QTEXTMODE
 70
     0
  9
$MIRRTEXT
 70
     1
  9
$LTSCALE
 40
1.0
  9
$ATTMODE
 70
     1
  9
$TEXTSIZE
 40
3.5
  9
$TRACEWID
 40
1.0
  9
$TEXTSTYLE
  7
STANDARD
  9
$CLAYER
  8
4
  9
$CELTYPE
  6
BYLAYER
  9
$CECOLOR
 62
   256
  9
$CELTSCALE
 40
1.0
  9
$DISPSILH
 70
     0
  9
$DIMSCALE
 40
1.0
  9
$DIMASZ
 40
2.6
  9
$DIMEXO
 40
1.0
  9
$DIMDLI
 40
10.0
  9
$DIMRND
 40
0.0
  9
$DIMDLE
 40
0.0
  9
$DIMEXE
 40
1.0
  9
$DIMTP
 40
0.1
  9
$DIMTM
 40
0.1
  9
$DIMTXT
 40
3.2
  9
$DIMCEN
 40
0.0
  9
$DIMTSZ
 40
0.0
  9
$DIMTOL
 70
     0
  9
$DIMLIM
 70
     0
  9
$DIMTIH
 70
     0
  9
$DIMTOH
 70
     0
  9
$DIMSE1
 70
     0
  9
$DIMSE2
 70
     0
  9
$DIMTAD
 70
     1
  9
$DIMZIN
 70
     8
  9
$DIMBLK
  1

  9
$DIMASO
 70
     1
  9
$DIMSHO
 70
     1
  9
$DIMPOST
  1

  9
$DIMAPOST
  1
"
  9
$DIMALT
 70
     0
  9
$DIMALTD
 70
     2
  9
$DIMALTF
 40
0.0393701
  9
$DIMLFAC
 40
1.0
  9
$DIMTOFL
 70
     1
  9
$DIMTVP
 40
0.0
  9
$DIMTIX
 70
     0
  9
$DIMSOXD
 70
     0
  9
$DIMSAH
 70
     0
  9
$DIMBLK1
  1

  9
$DIMBLK2
  1

  9
$DIMSTYLE
  2
AM_ISO
  9
$DIMCLRD
 70
   256
  9
$DIMCLRE
 70
   256
  9
$DIMCLRT
 70
   256
  9
$DIMTFAC
 40
0.71
  9
$DIMGAP
 40
0.3
  9
$DIMJUST
 70
     0
  9
$DIMSD1
 70
     0
  9
$DIMSD2
 70
     0
  9
$DIMTOLJ
 70
     0
  9
$DIMTZIN
 70
     8
  9
$DIMALTZ
 70
     0
  9
$DIMALTTZ
 70
     0
  9
$DIMUPT
 70
     0
  9
$DIMDEC
 70
     2
  9
$DIMTDEC
 70
     2
  9
$DIMALTU
 70
     2
  9
$DIMALTTD
 70
     2
  9
$DIMTXSTY
  7
STANDARD
  9
$DIMAUNIT
 70
     0
  9
$DIMADEC
 70
     2
  9
$DIMALTRND
 40
0.0
  9
$DIMAZIN
 70
     2
  9
$DIMDSEP
 70
    46
  9
$DIMATFIT
 70
     3
  9
$DIMFRAC
 70
     0
  9
$DIMLDRBLK
  1

  9
$DIMLUNIT
 70
     2
  9
$DIMLWD
 70
    -1
  9
$DIMLWE
 70
    -1
  9
$DIMTMOVE
 70
     0
  9
$LUNITS
 70
     2
  9
$LUPREC
 70
     4
  9
$SKETCHINC
 40
1.0
  9
$FILLETRAD
 40
0.0
  9
$AUNITS
 70
     0
  9
$AUPREC
 70
     4
  9
$MENU
  1
.
  9
$ELEVATION
 40
0.0
  9
$PELEVATION
 40
0.0
  9
$THICKNESS
 40
0.0
  9
$LIMCHECK
 70
     0
  9
$CHAMFERA
 40
2.5
  9
$CHAMFERB
 40
2.5
  9
$CHAMFERC
 40
20.0
  9
$CHAMFERD
 40
0.0
  9
$SKPOLY
 70
     0
  9
$TDCREATE
 40
2453950.399355104
  9
$TDUCREATE
 40
2453950.316021771
  9
$TDUPDATE
 40
2453950.453418692
  9
$TDUUPDATE
 40
2453950.370085359
  9
$TDINDWG
 40
0.0573782870
  9
$TDUSRTIMER
 40
0.0573782870
  9
$USRTIMER
 70
     1
  9
$ANGBASE
 50
0.0
  9
$ANGDIR
 70
     0
  9
$PDMODE
 70
     0
  9
$PDSIZE
 40
0.0
  9
$PLINEWID
 40
0.0
  9
$SPLFRAME
 70
     0
  9
$SPLINETYPE
 70
     6
  9
$SPLINESEGS
 70
     8
  9
$HANDSEED
  5
4CB
  9
$SURFTAB1
 70
     6
  9
$SURFTAB2
 70
     6
  9
$SURFTYPE
 70
     6
  9
$SURFU
 70
     6
  9
$SURFV
 70
     6
  9
$UCSBASE
  2

  9
$UCSNAME
  2

  9
$UCSORG
 10
0.0
 20
0.0
 30
0.0
  9
$UCSXDIR
 10
1.0
 20
0.0
 30
0.0
  9
$UCSYDIR
 10
0.0
 20
1.0
 30
0.0
  9
$UCSORTHOREF
  2

  9
$UCSORTHOVIEW
 70
     0
  9
$UCSORGTOP
 10
0.0
 20
0.0
 30
0.0
  9
$UCSORGBOTTOM
 10
0.0
 20
0.0
 30
0.0
  9
$UCSORGLEFT
 10
0.0
 20
0.0
 30
0.0
  9
$UCSORGRIGHT
 10
0.0
 20
0.0
 30
0.0
  9
$UCSORGFRONT
 10
0.0
 20
0.0
 30
0.0
  9
$UCSORGBACK
 10
0.0
 20
0.0
 30
0.0
  9
$PUCSBASE
  2

  9
$PUCSNAME
  2

  9
$PUCSORG
 10
0.0
 20
0.0
 30
0.0
  9
$PUCSXDIR
 10
1.0
 20
0.0
 30
0.0
  9
$PUCSYDIR
 10
0.0
 20
1.0
 30
0.0
  9
$PUCSORTHOREF
  2

  9
$PUCSORTHOVIEW
 70
     0
  9
$PUCSORGTOP
 10
0.0
 20
0.0
 30
0.0
  9
$PUCSORGBOTTOM
 10
0.0
 20
0.0
 30
0.0
  9
$PUCSORGLEFT
 10
0.0
 20
0.0
 30
0.0
  9
$PUCSORGRIGHT
 10
0.0
 20
0.0
 30
0.0
  9
$PUCSORGFRONT
 10
0.0
 20
0.0
 30
0.0
  9
$PUCSORGBACK
 10
0.0
 20
0.0
 30
0.0
  9
$USERI1
 70
     0
  9
$USERI2
 70
     0
  9
$USERI3
 70
     0
  9
$USERI4
 70
     0
  9
$USERI5
 70
     0
  9
$USERR1
 40
0.0
  9
$USERR2
 40
0.0
  9
$USERR3
 40
0.0
  9
$USERR4
 40
0.0
  9
$USERR5
 40
0.0
  9
$WORLDVIEW
 70
     1
  9
$SHADEDGE
 70
     3
  9
$SHADEDIF
 70
    70
  9
$TILEMODE
 70
     1
  9
$MAXACTVP
 70
    48
  9
$PINSBASE
 10
0.0
 20
0.0
 30
0.0
  9
$PLIMCHECK
 70
     0
  9
$PEXTMIN
 10
-129.8210971745716
 20
-173.6995556822631
 30
0.0
  9
$PEXTMAX
 10
286.5931754209025
 20
312.4704199353236
 30
0.0
  9
$PLIMMIN
 10
-3.17498779296875
 20
-4.180416584014892
  9
$PLIMMAX
 10
293.7510070800781
 20
205.7929110527039
  9
$UNITMODE
 70
     0
  9
$VISRETAIN
 70
     1
  9
$PLINEGEN
 70
     0
  9
$PSLTSCALE
 70
     1
  9
$TREEDEPTH
 70
  3020
  9
$CMLSTYLE
  2
STANDARD
  9
$CMLJUST
 70
     0
  9
$CMLSCALE
 40
1.0
  9
$PROXYGRAPHICS
 70
     1
  9
$MEASUREMENT
 70
     1
  9
$CELWEIGHT
370
    -1
  9
$ENDCAPS
280
     0
  9
$JOINSTYLE
280
     0
  9
$LWDISPLAY
290
     0
  9
$INSUNITS
 70
     4
  9
$HYPERLINKBASE
  1

  9
$STYLESHEET
  1

  9
$XEDIT
290
     1
  9
$CEPSNTYPE
380
     0
  9
$PSTYLEMODE
290
     1
  9
$FINGERPRINTGUID
  2
{517EA965-845E-458C-9AF9-7C5E0127A7C8}
  9
$VERSIONGUID
  2
{BE5C31F7-C881-4981-92D2-50B4593C34B6}
  9
$EXTNAMES
290
     1
  9
$PSVPSCALE
 40
0.0
  9
$OLESTARTUP
290
     0
  0
ENDSEC
  0
SECTION
  2
CLASSES
  0
CLASS
  1
DICTIONARYVAR
  2
AcDbDictionaryVar
  3
ObjectDBX Classes
 90
        0
280
     0
281
     0
  0
CLASS
  1
ACMESTATEMGR
  2
AcMeStateMgr
  3
AcMeServices
 90
        0
280
     0
281
     0
  0
CLASS
  1
ACMESCOPE
  2
AcMeScope
  3
AcMeServices
 90
        0
280
     0
281
     0
  0
CLASS
  1
ACMECOMMANDHISTORY
  2
AcMeCommandHistory
  3
AcMeServices
 90
    32768
280
     0
281
     0
  0
CLASS
  1
ACRFINSADJUSTERMGR
  2
AcRfInsAdjusterMgr
  3
AcMeServices
 90
    32768
280
     0
281
     0
  0
CLASS
  1
ACMEDRAWINGMAN
  2
AcMeDrawingMan
  3
AcMeServices
 90
    32768
280
     0
281
     0
  0
CLASS
  1
AMATTR
  2
AcMeAttribute
  3
AcMeServices
 90
    32768
280
     0
281
     0
  0
CLASS
  1
ACMEBOMCOLUMN
  2
AcMeBOMColumn
  3
AcMeServices
 90
    32768
280
     0
281
     0
  0
CLASS
  1
ACMEBOMCONF
  2
AcMeBOMConf
  3
AcMeServices
 90
    32768
280
     0
281
     0
  0
CLASS
  1
ACMEBOMTABLE
  2
AcMeBOMTable
  3
AcMeServices
 90
    32768
280
     0
281
     0
  0
CLASS
  1
ACMEBOMENTRY
  2
AcMeBOMEntry
  3
AcMeServices
 90
    32768
280
     0
281
     0
  0
CLASS
  1
ACMEVIEW
  2
AcMeView
  3
AcMeServices
 90
    32768
280
     0
281
     0
  0
CLASS
  1
ACGREFMASTER
  2
AcGrefMaster
  3
AcAttribServices
 90
        0
280
     0
281
     0
  0
CLASS
  1
AMIMASTER
  2
AmiMaster
  3
AmiServices
 90
    32768
280
     0
281
     0
  0
CLASS
  1
ACASGREFMASTER
  2
AcAsGrefMaster
  3
AutoSurfResolverServices
 90
    32768
280
     0
281
     0
  0
CLASS
  1
ADAPPL
  2
AcAdAppl
  3
DesignerServices
 90
        0
280
     0
281
     0
  0
CLASS
  1
DEPMGR
  2
AcAdDepMgr
  3
DesignerServices
 90
        0
280
     0
281
     0
  0
CLASS
  1
PARAMMGR
  2
AcAdParamMgr
  3
DesignerServices
 90
        0
280
     0
281
     0
  0
CLASS
  1
PARAMSCOPE
  2
AcAdParamScope
  3
DesignerServices
 90
        0
280
     0
281
     0
  0
CLASS
  1
ACIMSYSVARMAN
  2
AcImSysVarManager
  3
AcMeServices
 90
        0
280
     0
281
     0
  0
CLASS
  1
ACIMINTSYSVAR
  2
AcImIntSysVar
  3
AcMeServices
 90
        0
280
     0
281
     0
  0
CLASS
  1
ACIMREALSYSVAR
  2
AcImRealSysVar
  3
AcMeServices
 90
        0
280
     0
281
     0
  0
CLASS
  1
ACIMSTRSYSVAR
  2
AcImStrSysVar
  3
AcMeServices
 90
        0
280
     0
281
     0
  0
CLASS
  1
NAMEDAPPL
  2
AcAdNamedAppl
  3
DesignerServices
 90
        0
280
     0
281
     0
  0
CLASS
  1
ADHNTMPLT
  2
AdHoleNoteTemplateMgr
  3
DesignerServices
 90
    32768
280
     0
281
     0
  0
CLASS
  1
AM_HNTEMPLATE_MGR_NAME
  2
AdHoleNoteTemplateMgrName
  3
DesignerServices
 90
    32768
280
     0
281
     0
  0
CLASS
  1
ACADGREFMODULE
  2
AcAdGrefModule
  3
AdGrefServices
 90
    32768
280
     0
281
     0
  0
CLASS
  1
AM_DRAWING_MGR
  2
AcDmDwgMgr
  3
AcMechDwgViewMgmt
 90
        0
280
     0
281
     0
  0
CLASS
  1
AM_DWG_DOCUMENT
  2
AcDmDwgDocument
  3
AcMechDwgViewMgmt
 90
        0
280
     0
281
     0
  0
CLASS
  1
AM_DWG_SHEET
  2
AcDmSheet
  3
AcMechDwgViewMgmt
 90
        0
280
     0
281
     0
  0
CLASS
  1
AM_VIEWDIMPARMAP
  2
AcDmViewDimParMap
  3
AcMechDwgViewMgmt
 90
        0
280
     0
281
     0
  0
CLASS
  1
AM_DWGMGR_NAME
  2
AcDmDwgMgrName
  3
AcMechDwgViewMgmt
 90
        0
280
     0
281
     0
  0
CLASS
  1
ACAMPROJECT
  2
AcAmProject
  3
DesignerAssemblies
 90
    32768
280
     0
281
     0
  0
CLASS
  1
ACAMGRCOMPSET
  2
AcAmGrCompSet
  3
DesignerAssemblies
 90
    32768
280
     1
281
     0
  0
CLASS
  1
ACAMGRCOMPDEFSET
  2
AcAmGrCompDefSet
  3
DesignerAssemblies
 90
    32768
280
     0
281
     0
  0
CLASS
  1
ACAMGRCOMPDEF
  2
AcAmGrCompDef
  3
DesignerAssemblies
 90
    32768
280
     0
281
     0
  0
CLASS
  1
ACCMCONTEXT
  2
AcCmContext
  3
DesignerAssemblies
 90
    32768
280
     0
281
     0
  0
CLASS
  1
ACAMCOMPDEF
  2
AcAmCompDef
  3
DesignerAssemblies
 90
    32768
280
     0
281
     0
  0
CLASS
  1
ACAMCOMPDEFMGR
  2
AcAmCompDefMgr
  3
DesignerAssemblies
 90
    32768
280
     0
281
     0
  0
CLASS
  1
AMCONTEXTMGR
  2
AcAmContextMgr
  3
DesignerAssemblies
 90
    32768
280
     0
281
     0
  0
CLASS
  1
ACAMCONTEXTMODELER
  2
AcAmContextModeler
  3
DesignerAssemblies
 90
    32768
280
     0
281
     0
  0
CLASS
  1
ACDMVIEWGEOM
  2
AcDmViewGeometry
  3
AcMechDwgViewMgmt
 90
    32768
280
     0
281
     1
  0
CLASS
  1
CBROWSERAPPOBJECT
  2
CBrowserAppObject
  3
McadcomServices
 90
    32768
280
     0
281
     0
  0
CLASS
  1
IM_STATIC_MAN
  2
AcImStaticVarManager
  3
AcMeServices
 90
    32768
280
     0
281
     0
  0
CLASS
  1
ASAPP
  2
AcAsAppObject
  3
AutoSurfServices
 90
    32768
280
     0
281
     0
  0
CLASS
  1
ACIMDBLSTATICVAR
  2
AcImDblStaticVar
  3
AcMeServices
 90
    32768
280
     0
281
     0
  0
CLASS
  1
ACIMSTRSTATICVAR
  2
AcImStrStaticVar
  3
AcMeServices
 90
    32768
280
     0
281
     0
  0
CLASS
  1
ACIMINTSTATICVAR
  2
AcImIntStaticVar
  3
AcMeServices
 90
    32768
280
     0
281
     0
  0
CLASS
  1
CATALOGSTATE
  2
AcAmCatalogState
  3
DesignerAssemblies
 90
    32768
280
     0
281
     0
  0
CLASS
  1
DM_PLACEHOLDER
  2
AcDmSelsetPlaceholder
  3
AcMechDwgViewMgmt
 90
    32768
280
     0
281
     0
  0
CLASS
  1
LAYER_INDEX
  2
AcDbLayerIndex
  3
ObjectDBX Classes
 90
    32768
280
     0
281
     0
  0
CLASS
  1
IDBUFFER
  2
AcDbIdBuffer
  3
ObjectDBX Classes
 90
    32768
280
     0
281
     0
  0
CLASS
  1
ACMSTANDARDJIS
  2
AcmStandardJIS
  3
"Amdt_StdImp|Product Description: AutoCAD Mechanical 2004 DX|Company: Autodesk"
 90
    32768
280
     0
281
     0
  0
CLASS
  1
ACMSTANDARDANSI
  2
AcmStandardANSI
  3
"Amdt_StdImp|Product Description: AutoCAD Mechanical 2004 DX|Company: Autodesk"
 90
    32768
280
     0
281
     0
  0
CLASS
  1
ACMSTANDARDBSI
  2
AcmStandardBSI
  3
"Amdt_StdImp|Product Description: AutoCAD Mechanical 2004 DX|Company: Autodesk"
 90
    32768
280
     0
281
     0
  0
CLASS
  1
ACMSTANDARDDIN
  2
AcmStandardDIN
  3
"Amdt_StdImp|Product Description: AutoCAD Mechanical 2004 DX|Company: Autodesk"
 90
    32768
280
     0
281
     0
  0
CLASS
  1
ACMSTANDARDISO
  2
AcmStandardISO
  3
"Amdt_StdImp|Product Description: AutoCAD Mechanical 2004 DX|Company: Autodesk"
 90
        0
280
     0
281
     0
  0
CLASS
  1
ACDBDICTIONARYWDFLT
  2
AcDbDictionaryWithDefault
  3
ObjectDBX Classes
 90
        0
280
     0
281
     0
  0
CLASS
  1
ACDBPLACEHOLDER
  2
AcDbPlaceHolder
  3
ObjectDBX Classes
 90
        0
280
     0
281
     0
  0
CLASS
  1
LAYOUT
  2
AcDbLayout
  3
ObjectDBX Classes
 90
        0
280
     0
281
     0
  0
CLASS
  1
ACME_DOCUMENT
  2
AcMeDbDoc
  3
AcMeServices
 90
    32768
280
     0
281
     0
  0
CLASS
  1
AMGSETTINGSOBJ
  2
AmgSettingsObj
  3
"AcadM|Product Description: AutoCAD Mechanical 2000|Company: Autodesk"
 90
        0
280
     0
281
     0
  0
CLASS
  1
AMGOBJPROPCFG
  2
AmgObjPropCfg
  3
"AmgLay|Product Description: AutoCAD Mechanical 2000|Company: Autodesk"
 90
        1
280
     0
281
     0
  0
CLASS
  1
ACDBENTITYCACHE
  2
AcMeEntityCache
  3
AcMeServices
 90
    32768
280
     0
281
     0
  0
CLASS
  1
GSMANAGER
  2
AcMeGSManager
  3
AcMeServices
 90
    32768
280
     0
281
     0
  0
CLASS
  1
AMDTINTERNALREACTOR
  2
AmdtInternalReactor
  3
AcMeServices
 90
        0
280
     0
281
     0
  0
CLASS
  1
ACME_DATABASE
  2
AcMeDbDatabase
  3
AcMeServices
 90
    32768
280
     0
281
     0
  0
CLASS
  1
ACGREFACADMASTER
  2
AcGrefacadMaster
  3
AcGrefServices
 90
    32768
280
     0
281
     0
  0
CLASS
  1
AMDTMENUSTATEMGR
  2
AmdtMenuStateMgr
  3
McadcomServices
 90
    32768
280
     0
281
     0
  0
CLASS
  1
AMDTMCOMMENUSTATE
  2
AmdtMcomMenuState
  3
McadcomServices
 90
    32768
280
     0
281
     0
  0
CLASS
  1
MAPIADMODULE
  2
MApiAdModule
  3
MApiAdServices
 90
    32768
280
     0
281
     0
  0
CLASS
  1
AMDTDMMENUSTATE
  2
AmdtDmMenuState
  3
AcMechDwgViewMgmt
 90
    32768
280
     0
281
     0
  0
CLASS
  1
AMDTADMENUSTATE
  2
AmdtAdMenuState
  3
DesignerServices
 90
    32768
280
     0
281
     0
  0
CLASS
  1
AMDTAMMENUSTATE
  2
AmdtAmMenuState
  3
DesignerAssemblies
 90
    32768
280
     0
281
     0
  0
CLASS
  1
ACMDATADICTIONARY
  2
AcmDataDictionary
  3
"AcmSymBB|Product Description: AutoCAD Mechanical 2004 DX|Company: Autodesk"
 90
    32768
280
     0
281
     0
  0
CLASS
  1
ACMDATAENTRYBLOCK
  2
AcmDataEntryBlock
  3
"AcmSymBB|Product Description: AutoCAD Mechanical 2004 DX|Company: Autodesk"
 90
    32768
280
     0
281
     0
  0
CLASS
  1
ACMSURFSTANDARDJIS
  2
AcmSurfTextStdJIS
  3
"Amdt_StdImp|Product Description: AutoCAD Mechanical 2004 DX|Company: Autodesk"
 90
    32768
280
     0
281
     0
  0
CLASS
  1
ACMFCFSTANDARDJIS
  2
AcmFCFStdJIS
  3
"Amdt_StdImp|Product Description: AutoCAD Mechanical 2004 DX|Company: Autodesk"
 90
    32768
280
     0
281
     0
  0
CLASS
  1
ACMWELDSTANDARDJIS
  2
AcmWeldingStdJIS
  3
"Amdt_StdImp|Product Description: AutoCAD Mechanical 2004 DX|Company: Autodesk"
 90
    32768
280
     0
281
     0
  0
CLASS
  1
ACMIDSTANDARDJIS
  2
AcmIdStdJIS
  3
"Amdt_StdImp|Product Description: AutoCAD Mechanical 2004 DX|Company: Autodesk"
 90
    32768
280
     0
281
     0
  0
CLASS
  1
ACMDATUMSTANDARDJIS
  2
AcmDatumStdJIS
  3
"Amdt_StdImp|Product Description: AutoCAD Mechanical 2004 DX|Company: Autodesk"
 90
    32768
280
     0
281
     0
  0
CLASS
  1
ACMBOMSTANDARDJIS
  2
AcmBOMStdJIS
  3
"Amdt_StdImp|Product Description: AutoCAD Mechanical 2004 DX|Company: Autodesk"
 90
    32768
280
     0
281
     0
  0
CLASS
  1
ACMSURFSTANDARDANSI
  2
AcmSurfTextStdANSI
  3
"Amdt_StdImp|Product Description: AutoCAD Mechanical 2004 DX|Company: Autodesk"
 90
    32768
280
     0
281
     0
  0
CLASS
  1
ACMFCFSTANDARDANSI
  2
AcmFCFStdANSI
  3
"Amdt_StdImp|Product Description: AutoCAD Mechanical 2004 DX|Company: Autodesk"
 90
    32768
280
     0
281
     0
  0
CLASS
  1
ACMWELDSTANDARDANSI
  2
AcmWeldingStdANSI
  3
"Amdt_StdImp|Product Description: AutoCAD Mechanical 2004 DX|Company: Autodesk"
 90
    32768
280
     0
281
     0
  0
CLASS
  1
ACMIDSTANDARDANSI
  2
AcmIdStdANSI
  3
"Amdt_StdImp|Product Description: AutoCAD Mechanical 2004 DX|Company: Autodesk"
 90
    32768
280
     0
281
     0
  0
CLASS
  1
ACMDATUMSTANDARDANSI
  2
AcmDatumStdANSI
  3
"Amdt_StdImp|Product Description: AutoCAD Mechanical 2004 DX|Company: Autodesk"
 90
    32768
280
     0
281
     0
  0
CLASS
  1
ACMBOMSTANDARDANSI
  2
AcmBOMStdANSI
  3
"Amdt_StdImp|Product Description: AutoCAD Mechanical 2004 DX|Company: Autodesk"
 90
    32768
280
     0
281
     0
  0
CLASS
  1
ACMSURFSTANDARDBSI
  2
AcmSurfTextStdBSI
  3
"Amdt_StdImp|Product Description: AutoCAD Mechanical 2004 DX|Company: Autodesk"
 90
    32768
280
     0
281
     0
  0
CLASS
  1
ACMFCFSTANDARDBSI
  2
AcmFCFStdBSI
  3
"Amdt_StdImp|Product Description: AutoCAD Mechanical 2004 DX|Company: Autodesk"
 90
    32768
280
     0
281
     0
  0
CLASS
  1
ACMWELDSTANDARDBSI
  2
AcmWeldingStdBSI
  3
"Amdt_StdImp|Product Description: AutoCAD Mechanical 2004 DX|Company: Autodesk"
 90
    32768
280
     0
281
     0
  0
CLASS
  1
ACMIDSTANDARDBSI
  2
AcmIdStdBSI
  3
"Amdt_StdImp|Product Description: AutoCAD Mechanical 2004 DX|Company: Autodesk"
 90
    32768
280
     0
281
     0
  0
CLASS
  1
ACMDATUMSTANDARDBSI
  2
AcmDatumStdBSI
  3
"Amdt_StdImp|Product Description: AutoCAD Mechanical 2004 DX|Company: Autodesk"
 90
    32768
280
     0
281
     0
  0
CLASS
  1
ACMBOMSTANDARDBSI
  2
AcmBOMStdBSI
  3
"Amdt_StdImp|Product Description: AutoCAD Mechanical 2004 DX|Company: Autodesk"
 90
    32768
280
     0
281
     0
  0
CLASS
  1
AMDTEDGESTANDARDDIN
  2
AmdtEdgeStdDIN
  3
"Amdt_StdImp|Product Description: AutoCAD Mechanical 2004 DX|Company: Autodesk"
 90
    32768
280
     0
281
     0
  0
CLASS
  1
ACMSURFSTANDARDDIN
  2
AcmSurfTextStdDIN
  3
"Amdt_StdImp|Product Description: AutoCAD Mechanical 2004 DX|Company: Autodesk"
 90
    32768
280
     0
281
     0
  0
CLASS
  1
ACMFCFSTANDARDDIN
  2
AcmFCFStdDIN
  3
"Amdt_StdImp|Product Description: AutoCAD Mechanical 2004 DX|Company: Autodesk"
 90
    32768
280
     0
281
     0
  0
CLASS
  1
ACMWELDSTANDARDDIN
  2
AcmWeldingStdDIN
  3
"Amdt_StdImp|Product Description: AutoCAD Mechanical 2004 DX|Company: Autodesk"
 90
    32768
280
     0
281
     0
  0
CLASS
  1
ACMIDSTANDARDDIN
  2
AcmIdStdDIN
  3
"Amdt_StdImp|Product Description: AutoCAD Mechanical 2004 DX|Company: Autodesk"
 90
    32768
280
     0
281
     0
  0
CLASS
  1
ACMDATUMSTANDARDDIN
  2
AcmDatumStdDIN
  3
"Amdt_StdImp|Product Description: AutoCAD Mechanical 2004 DX|Company: Autodesk"
 90
    32768
280
     0
281
     0
  0
CLASS
  1
ACMBOMSTANDARDDIN
  2
AcmBOMStdDIN
  3
"Amdt_StdImp|Product Description: AutoCAD Mechanical 2004 DX|Company: Autodesk"
 90
    32768
280
     0
281
     0
  0
CLASS
  1
ACMSURFSTANDARDISO
  2
AcmSurfTextStdISO
  3
"Amdt_StdImp|Product Description: AutoCAD Mechanical 2004 DX|Company: Autodesk"
 90
        0
280
     0
281
     0
  0
CLASS
  1
ACMFCFSTANDARDISO
  2
AcmFCFStdISO
  3
"Amdt_StdImp|Product Description: AutoCAD Mechanical 2004 DX|Company: Autodesk"
 90
        0
280
     0
281
     0
  0
CLASS
  1
ACMWELDSTANDARDISO
  2
AcmWeldingStdISO
  3
"Amdt_StdImp|Product Description: AutoCAD Mechanical 2004 DX|Company: Autodesk"
 90
        0
280
     0
281
     0
  0
CLASS
  1
ACMIDSTANDARDISO
  2
AcmIdStdISO
  3
"Amdt_StdImp|Product Description: AutoCAD Mechanical 2004 DX|Company: Autodesk"
 90
        0
280
     0
281
     0
  0
CLASS
  1
ACMDATUMSTANDARDISO
  2
AcmDatumStdISO
  3
"Amdt_StdImp|Product Description: AutoCAD Mechanical 2004 DX|Company: Autodesk"
 90
        0
280
     0
281
     0
  0
CLASS
  1
ACMBOMSTANDARDISO
  2
AcmBOMStdISO
  3
"Amdt_StdImp|Product Description: AutoCAD Mechanical 2004 DX|Company: Autodesk"
 90
        0
280
     0
281
     0
  0
CLASS
  1
AMDTBROWSERDBTAB
  2
AmdtBrowserDbTab
  3
McadcomServices
 90
    32768
280
     0
281
     0
  0
CLASS
  1
ACAMGFILTERDAT
  2
AcAmgFilterDat
  3
"AcadM|Product Description: AutoCAD Mechanical 2000|Company: Autodesk"
 90
    32768
280
     0
281
     0
  0
CLASS
  1
MAPIAMMOUDLE
  2
MApiAmModule
  3
MApiAmServices
 90
    32768
280
     0
281
     0
  0
CLASS
  1
AMDTMAPISURFMOUDULE
  2
AmdtMApiSurfModule
  3
MApiSurfServices
 90
    32768
280
     0
281
     0
  0
CLASS
  1
ACAMGLAYSTD
  2
AcAmgLayStd
  3
"AcAmgLayStd|Product Description: AutoCAD Mechanical 2000|Company: Autodesk"
 90
        0
280
     0
281
     0
  0
CLASS
  1
ACAMGDIMSTD
  2
AcAmgDimStd
  3
"AcAmgDimStd|Product Description: AutoCAD Mechanical 2000|Company: Autodesk"
 90
        0
280
     0
281
     0
  0
CLASS
  1
ACAMGTITLESTD
  2
AcAmgTitleStd
  3
"TITLEAPP"
 90
        0
280
     0
281
     0
  0
CLASS
  1
ACMDETAILSTANDARDJIS
  2
AmdtDetailSymStdJIS
  3
"Amdt_StdImp|Product Description: AutoCAD Mechanical 2004 DX|Company: Autodesk"
 90
    32768
280
     0
281
     0
  0
CLASS
  1
ACMSECTIONSTANDARDJIS
  2
AmdtSectionSymStdJIS
  3
"Amdt_StdImp|Product Description: AutoCAD Mechanical 2004 DX|Company: Autodesk"
 90
    32768
280
     0
281
     0
  0
CLASS
  1
ACMCENTERLINESTANDARDJIS
  2
AmdtCenterLineStdJIS
  3
"Amdt_StdImp|Product Description: AutoCAD Mechanical 2004 DX|Company: Autodesk"
 90
    32768
280
     0
281
     0
  0
CLASS
  1
ACMTHREADLINESTANDARDJIS
  2
AmdtThreadLineStdJIS
  3
"Amdt_StdImp|Product Description: AutoCAD Mechanical 2004 DX|Company: Autodesk"
 90
    32768
280
     0
281
     0
  0
CLASS
  1
ACMDETAILSTANDARDANSI
  2
AmdtDetailSymStdANSI
  3
"Amdt_StdImp|Product Description: AutoCAD Mechanical 2004 DX|Company: Autodesk"
 90
    32768
280
     0
281
     0
  0
CLASS
  1
ACMSECTIONSTANDARDANSI
  2
AmdtSectionSymStdANSI
  3
"Amdt_StdImp|Product Description: AutoCAD Mechanical 2004 DX|Company: Autodesk"
 90
    32768
280
     0
281
     0
  0
CLASS
  1
ACMCENTERLINESTANDARDANSI
  2
AmdtCenterLineStdANSI
  3
"Amdt_StdImp|Product Description: AutoCAD Mechanical 2004 DX|Company: Autodesk"
 90
    32768
280
     0
281
     0
  0
CLASS
  1
ACMTHREADLINESTANDARDANSI
  2
AmdtThreadLineStdANSI
  3
"Amdt_StdImp|Product Description: AutoCAD Mechanical 2004 DX|Company: Autodesk"
 90
    32768
280
     0
281
     0
  0
CLASS
  1
ACMDETAILSTANDARDBSI
  2
AmdtDetailSymStdBSI
  3
"Amdt_StdImp|Product Description: AutoCAD Mechanical 2004 DX|Company: Autodesk"
 90
    32768
280
     0
281
     0
  0
CLASS
  1
ACMSECTIONSTANDARDBSI
  2
AmdtSectionSymStdBSI
  3
"Amdt_StdImp|Product Description: AutoCAD Mechanical 2004 DX|Company: Autodesk"
 90
    32768
280
     0
281
     0
  0
CLASS
  1
ACMCENTERLINESTANDARDBSI
  2
AmdtCenterLineStdBSI
  3
"Amdt_StdImp|Product Description: AutoCAD Mechanical 2004 DX|Company: Autodesk"
 90
    32768
280
     0
281
     0
  0
CLASS
  1
ACMTHREADLINESTANDARDBSI
  2
AmdtThreadLineStdBSI
  3
"Amdt_StdImp|Product Description: AutoCAD Mechanical 2004 DX|Company: Autodesk"
 90
    32768
280
     0
281
     0
  0
CLASS
  1
ACMDETAILSTANDARDDIN
  2
AmdtDetailSymStdDIN
  3
"Amdt_StdImp|Product Description: AutoCAD Mechanical 2004 DX|Company: Autodesk"
 90
    32768
280
     0
281
     0
  0
CLASS
  1
ACMSECTIONSTANDARDDIN
  2
AmdtSectionSymStdDIN
  3
"Amdt_StdImp|Product Description: AutoCAD Mechanical 2004 DX|Company: Autodesk"
 90
    32768
280
     0
281
     0
  0
CLASS
  1
ACMCENTERLINESTANDARDDIN
  2
AmdtCenterLineStdDIN
  3
"Amdt_StdImp|Product Description: AutoCAD Mechanical 2004 DX|Company: Autodesk"
 90
    32768
280
     0
281
     0
  0
CLASS
  1
ACMTHREADLINESTANDARDDIN
  2
AmdtThreadLineStdDIN
  3
"Amdt_StdImp|Product Description: AutoCAD Mechanical 2004 DX|Company: Autodesk"
 90
    32768
280
     0
281
     0
  0
CLASS
  1
AMDTEDGESTANDARDISO
  2
AmdtEdgeStdISO
  3
"Amdt_StdImp|Product Description: AutoCAD Mechanical 2004 DX|Company: Autodesk"
 90
        0
280
     0
281
     0
  0
CLASS
  1
ACMDETAILSTANDARDISO
  2
AmdtDetailSymStdISO
  3
"Amdt_StdImp|Product Description: AutoCAD Mechanical 2004 DX|Company: Autodesk"
 90
        0
280
     0
281
     0
  0
CLASS
  1
ACMSECTIONSTANDARDISO
  2
AmdtSectionSymStdISO
  3
"Amdt_StdImp|Product Description: AutoCAD Mechanical 2004 DX|Company: Autodesk"
 90
        0
280
     0
281
     0
  0
CLASS
  1
ACMCENTERLINESTANDARDISO
  2
AmdtCenterLineStdISO
  3
"Amdt_StdImp|Product Description: AutoCAD Mechanical 2004 DX|Company: Autodesk"
 90
        0
280
     0
281
     0
  0
CLASS
  1
ACMTHREADLINESTANDARDISO
  2
AmdtThreadLineStdISO
  3
"Amdt_StdImp|Product Description: AutoCAD Mechanical 2004 DX|Company: Autodesk"
 90
        0
280
     0
281
     0
  0
CLASS
  1
ACMNOTESTANDARDISO
  2
AmdtNoteStdISO
  3
"Amdt_StdImp|Product Description: AutoCAD Mechanical 2004 DX|Company: Autodesk"
 90
        0
280
     0
281
     0
  0
CLASS
  1
ACAMGHOLECHARTSTDISO
  2
AcAmgHoleChartStdISO
  3
ACMSYMBB_MODULE_NAME
 90
        0
280
     0
281
     0
  0
CLASS
  1
ACMNOTESTANDARDANSI
  2
AmdtNoteStdANSI
  3
"Amdt_StdImp|Product Description: AutoCAD Mechanical 2004 DX|Company: Autodesk"
 90
    32768
280
     0
281
     0
  0
CLASS
  1
AMDTNOTETEMPLATEDB
  2
AmdtNoteTemplateDB
  3
AMDT_STDIMP_MODULE_NAME
 90
    32768
280
     0
281
     0
  0
CLASS
  1
ACAMGHOLECHARTSTDANSI
  2
AcAmgHoleChartStdANSI
  3
ACMSYMBB_MODULE_NAME
 90
    32768
280
     0
281
     0
  0
CLASS
  1
ADPART
  2
AcAdPart
  3
DesignerServices
 90
    32768
280
     0
281
     1
  0
CLASS
  1
ADBASE
  2
AcAdBase
  3
DesignerServices
 90
    32768
280
     0
281
     0
  0
CLASS
  1
BODYID
  2
AcAdBodyId
  3
DesignerServices
 90
    32768
280
     0
281
     0
  0
CLASS
  1
WORKPLANEDISPLAYMGR
  2
AcAdDisplayMgr
  3
DesignerServices
 90
    32768
280
     0
281
     0
  0
CLASS
  1
ACCMBODY
  2
AcCmBody
  3
DesignerAssemblies
 90
    32768
280
     0
281
     0
  0
CLASS
  1
ACAMCOMPENT
  2
AcAmCompEnt
  3
DesignerAssemblies
 90
    32768
280
     0
281
     1
  0
CLASS
  1
ACAMCOMPFEEDBACK
  2
AcAmCompFeedback
  3
DesignerAssemblies
 90
    32768
280
     0
281
     0
  0
CLASS
  1
ACAMCOMP
  2
AcAmComp
  3
DesignerAssemblies
 90
    32768
280
     0
281
     0
  0
CLASS
  1
ACAMCOMPENTCLONE
  2
AcAmCompEntClone
  3
DesignerAssemblies
 90
    32768
280
     0
281
     1
  0
CLASS
  1
ACAMCLONEREACTOR
  2
AcAmGrCompCloneReactor
  3
DesignerAssemblies
 90
    32768
280
     0
281
     0
  0
CLASS
  1
DATUMPLANEDISPLAY
  2
AcAdDatumPlaneDisplay
  3
DesignerServices
 90
    32768
280
     0
281
     1
  0
CLASS
  1
ADDATUMPLANEABS
  2
AcAdDatumPlaneAbs
  3
DesignerServices
 90
    32768
280
     0
281
     0
  0
CLASS
  1
ADDATUMAXISABS
  2
AcAdDatumAxisAbs
  3
DesignerServices
 90
    32768
280
     0
281
     0
  0
CLASS
  1
ADDATUMORIENTEDPLANE
  2
AcAdDatumOrientedPlane
  3
DesignerServices
 90
    32768
280
     0
281
     0
  0
CLASS
  1
ACMEPLINE
  2
AcImPlineDisplay
  3
AcMeServices
 90
    32768
280
     0
281
     1
  0
CLASS
  1
ACMELINEARARROW
  2
AcImLinearArrowDisplay
  3
AcMeServices
 90
    32768
280
     0
281
     1
  0
CLASS
  1
ACMETEXT
  2
AcImTextDisplay
  3
AcMeServices
 90
    32768
280
     0
281
     1
  0
CLASS
  1
AMDTFORMULAUPDATEDISPATCHER
  2
AmdtFormulaUpdateDispatcher
  3
AcMeServices
 90
    32768
280
     0
281
     0
  0
CLASS
  1
ACAD_LINE
  2
AcAdLine
  3
DesignerServices
 90
    32768
280
     0
281
     1
  0
CLASS
  1
ACADLINEACAD
  2
AcAdVirtualBoundedLineAcad
  3
DesignerServices
 90
    32768
280
     0
281
     0
  0
CLASS
  1
ACADREFLINEACAD
  2
AcAdVirtualReferenceLine
  3
DesignerServices
 90
    32768
280
     0
281
     0
  0
CLASS
  1
ACADCONSLINE
  2
AcAdConstrainedLine
  3
DesignerServices
 90
    32768
280
     0
281
     0
  0
CLASS
  1
ACADCONSGROUP
  2
AcAdConstraintGroup
  3
DesignerServices
 90
    32768
280
     0
281
     0
  0
CLASS
  1
ACADIMPPTACAD
  2
AcAdVirtualImplicitPoint
  3
DesignerServices
 90
    32768
280
     0
281
     0
  0
CLASS
  1
ACADCONSPOINT
  2
AcAdConstrainedPoint
  3
DesignerServices
 90
    32768
280
     0
281
     0
  0
CLASS
  1
ADPCURCNS
  2
AcAdPointCurveConstr
  3
DesignerServices
 90
    32768
280
     0
281
     0
  0
CLASS
  1
ADHORCNS
  2
AcAdHorizontalConstr
  3
DesignerServices
 90
    32768
280
     0
281
     0
  0
CLASS
  1
ADVERCNS
  2
AcAdVerticalConstr
  3
DesignerServices
 90
    32768
280
     0
281
     0
  0
CLASS
  1
ADCLPROF2D
  2
AcAdClosedProfile2d
  3
DesignerServices
 90
    32768
280
     0
281
     0
  0
CLASS
  1
ACAD_FIXCONSTRAINT
  2
AcAdFixedConstraint
  3
DesignerServices
 90
    32768
280
     0
281
     0
  0
CLASS
  1
PARAM
  2
AcAdParam
  3
DesignerServices
 90
    32768
280
     0
281
     0
  0
CLASS
  1
ACADVOLFEATWITHTRIM
  2
AcAdVolFeatWithTrim
  3
DesignerServices
 90
    32768
280
     0
281
     0
  0
CLASS
  1
DEPEDGEFEATUREORDERING
  2
AcAdDepEdgeFeatureOrdering
  3
DesignerServices
 90
    32768
280
     0
281
     0
  0
CLASS
  1
FACEID
  2
AcAdFaceId
  3
DesignerServices
 90
    32768
280
     0
281
     0
  0
CLASS
  1
ADHOLLOWFEAT
  2
AcAdHollowFeat
  3
DesignerServices
 90
    32768
280
     0
281
     0
  0
CLASS
  1
ADPLANEID
  2
AcAdPlaneId
  3
DesignerServices
 90
    32768
280
     0
281
     0
  0
CLASS
  1
DEPEDGESECONDARYDEPID
  2
AcAdDepEdgeSecondaryDepId
  3
DesignerServices
 90
    32768
280
     0
281
     0
  0
CLASS
  1
ADDATUMPLANEFACE
  2
AcAdDatumPlaneFace
  3
DesignerServices
 90
    32768
280
     0
281
     0
  0
CLASS
  1
ADCOLNCNS
  2
AcAdColinearConstr
  3
DesignerServices
 90
    32768
280
     0
281
     0
  0
CLASS
  1
ACAD_ARC
  2
AcAdArc
  3
DesignerServices
 90
    32768
280
     0
281
     1
  0
CLASS
  1
ACADARCACAD
  2
AcAdVirtualArcAcad
  3
DesignerServices
 90
    32768
280
     0
281
     0
  0
CLASS
  1
ACADCONSCIRCLE
  2
AcAdConstrainedCircle
  3
DesignerServices
 90
    32768
280
     0
281
     0
  0
CLASS
  1
ADCTRPTCNS
  2
AcAdCenterPointConstr
  3
DesignerServices
 90
    32768
280
     0
281
     0
  0
CLASS
  1
ADTANCNS
  2
AcAdTangentConstr
  3
DesignerServices
 90
    32768
280
     0
281
     0
  0
CLASS
  1
ADEQRADCNS
  2
AcAdEqualRadiusConstr
  3
DesignerServices
 90
    32768
280
     0
281
     0
  0
CLASS
  1
EDGEID
  2
AcAdEdgeId
  3
DesignerServices
 90
    32768
280
     0
281
     0
  0
CLASS
  1
ADFILLET
  2
AcAdFillet
  3
DesignerServices
 90
    32768
280
     0
281
     0
  0
CLASS
  1
ACMETAPERCONE
  2
AcImTaperConeDisplay
  3
AcMeServices
 90
    32768
280
     0
281
     1
  0
CLASS
  1
ACADFACETAPERFEAT
  2
AcAdFaceTaperFeat
  3
DesignerServices
 90
    32768
280
     0
281
     0
  0
CLASS
  1
AMACTIVEPARTSELECTFILTER
  2
AcDmActivePartViewEntFilter
  3
DesignerServices
 90
    32768
280
     0
281
     0
  0
CLASS
  1
AM_ABS_PLANE
  2
AcDmAbsPlnDef
  3
AcMechDwgViewMgmt
 90
    32768
280
     0
281
     0
  0
CLASS
  1
AM_ABS_AXIS
  2
AcDmAbsAxisDef
  3
AcMechDwgViewMgmt
 90
    32768
280
     0
281
     0
  0
CLASS
  1
AM_BASE_VIEW_ORIENT
  2
AcDmBaseViewOr
  3
AcMechDwgViewMgmt
 90
    32768
280
     0
281
     0
  0
CLASS
  1
AM_DWG_VIEWPORT
  2
AcDmViewport
  3
AcMechDwgViewMgmt
 90
    32768
280
     0
281
     0
  0
CLASS
  1
AM_VIEW_DISPLAY
  2
AcDmDwgViewDisplay
  3
AcMechDwgViewMgmt
 90
    32768
280
     0
281
     0
  0
CLASS
  1
AM_CLDFLTS
  2
AcDmClDflts
  3
AcMechDwgViewMgmt
 90
    32768
280
     0
281
     0
  0
CLASS
  1
AM_BASE_VIEW
  2
AcDmBaseView
  3
AcMechDwgViewMgmt
 90
    32768
280
     0
281
     0
  0
CLASS
  1
ACDMPARTVIEWDATA
  2
AcDmPartViewData
  3
AcMechDwgViewMgmt
 90
    32768
280
     0
281
     0
  0
CLASS
  1
ACDMDISPLAYATTRIBS
  2
AcDmDisplayAttribs
  3
AcMechDwgViewMgmt
 90
    32768
280
     0
281
     0
  0
CLASS
  1
ACDMBODYINSTANCEDATA
  2
AcDmBodyInstanceData
  3
AcMechDwgViewMgmt
 90
    32768
280
     0
281
     0
  0
CLASS
  1
ACDMVWEDLINE
  2
AcDmViewEdgeLine
  3
AcMechDwgViewMgmt
 90
    32768
280
     0
281
     1
  0
CLASS
  1
ACDMVWEDELLIPSE
  2
AcDmViewEdgeEllipse
  3
AcMechDwgViewMgmt
 90
    32768
280
     0
281
     1
  0
CLASS
  1
ACDMVWEDARC
  2
AcDmViewEdgeArc
  3
AcMechDwgViewMgmt
 90
    32768
280
     0
281
     1
  0
CLASS
  1
AM_ORTHO_VIEW_ORIENT
  2
AcDmOrthoViewOr
  3
AcMechDwgViewMgmt
 90
    32768
280
     0
281
     0
  0
CLASS
  1
AM_ORTHO_VIEW
  2
AcDmOrthoView
  3
AcMechDwgViewMgmt
 90
    32768
280
     0
281
     0
  0
CLASS
  1
CNRREFID
  2
AcAdCornerId
  3
DesignerServices
 90
    32768
280
     0
281
     0
  0
CLASS
  1
ACADPARTPOINTRES
  2
AcAdPartPointRes
  3
AdGrefServices
 90
    32768
280
     0
281
     0
  0
CLASS
  1
ACADPARTSKETCHPLANEAXISRES
  2
AcAdPartSketchPlaneAxisRes
  3
DesignerServices
 90
    32768
280
     0
281
     0
  0
CLASS
  1
AM_VIEWDIMPARALLEL
  2
AcDmViewDimParallel
  3
AcMechDwgViewMgmt
 90
    32768
280
     0
281
     0
  0
CLASS
  1
AMDTDMPARMAPDATA
  2
AmdtDmDimParMapData
  3
AcMechDwgViewMgmt
 90
    32768
280
     0
281
     0
  0
CLASS
  1
AM_ISO_VIEW_ORIENT
  2
AcDmIsoViewOr
  3
AcMechDwgViewMgmt
 90
    32768
280
     0
281
     0
  0
CLASS
  1
AM_ISO_VIEW
  2
AcDmIsoView
  3
AcMechDwgViewMgmt
 90
    32768
280
     0
281
     0
  0
ENDSEC
  0
SECTION
  2
TABLES
  0
TABLE
  2
VPORT
  5
1B
330
0
100
AcDbSymbolTable
 70
     1
  0
VPORT
  5
1C
330
1B
100
AcDbSymbolTableRecord
100
AcDbViewportTableRecord
  2
*Active
 70
     0
 10
0.0
 20
0.0
 11
1.0
 21
1.0
 12
202.1564835955435
 22
165.5187308973871
 13
0.0
 23
0.0
 14
2.5
 24
2.5
 15
10.0
 25
10.0
 16
0.0
 26
0.0
 36
1.0
 17
0.0
 27
0.0
 37
0.0
 40
382.6792769802917
 41
1.733570159857904
 42
50.0
 43
0.0
 44
0.0
 50
0.0
 51
0.0
 71
     0
 72
 15000
 73
     1
 74
     1
 75
     0
 76
     0
 77
     0
 78
     0
281
     0
 65
     0
110
0.0
120
0.0
130
0.0
111
1.0
121
0.0
131
0.0
112
0.0
122
1.0
132
0.0
 79
     0
146
0.0
  0
ENDTAB
  0
TABLE
  2
LTYPE
  5
16
330
0
100
AcDbSymbolTable
 70
    14
  0
LTYPE
  5
17
330
16
100
AcDbSymbolTableRecord
100
AcDbLinetypeTableRecord
  2
BYBLOCK
 70
     0
  3

 72
    65
 73
     0
 40
0.0
  0
LTYPE
  5
18
330
16
100
AcDbSymbolTableRecord
100
AcDbLinetypeTableRecord
  2
BYLAYER
 70
     0
  3

 72
    65
 73
     0
 40
0.0
  0
LTYPE
  5
9
330
16
100
AcDbSymbolTableRecord
100
AcDbLinetypeTableRecord
  2
CONTINUOUS
 70
     0
  3
Solid line
 72
    65
 73
     0
 40
0.0
  0
LTYPE
  5
46D
330
16
100
AcDbSymbolTableRecord
100
AcDbLinetypeTableRecord
  2
ACISOWELD
 70
     0
  3
_ _ _ _ _
 72
    65
 73
     2
 40
2.0
 49
2.0
 74
     0
 49
-1.0
 74
     0
  0
LTYPE
  5
470
330
16
100
AcDbSymbolTableRecord
100
AcDbLinetypeTableRecord
  2
ACISOTGB
 70
     0
  3
__ . . __ . .
 72
    65
 73
     6
 40
9.0
 49
4.0
 74
     0
 49
-1.0
 74
     0
 49
1.0
 74
     0
 49
-1.0
 74
     0
 49
1.0
 74
     0
 49
-1.0
 74
     0
  0
LTYPE
  5
471
330
16
100
AcDbSymbolTableRecord
100
AcDbLinetypeTableRecord
  2
ACISOTGL
 70
     0
  3
_ _ _ _ _
 72
    65
 73
     2
 40
3.0
 49
2.0
 74
     0
 49
-1.0
 74
     0
  0
LTYPE
  5
A0
330
16
100
AcDbSymbolTableRecord
100
AcDbLinetypeTableRecord
  2
AM_ISO02W050
 70
     0
  3
__ __ __ __ __ __ __ __ __ __ __ __ __ __ __
 72
    65
 73
     2
 40
7.5
 49
6.0
 74
     0
 49
-1.5
 74
     0
  0
LTYPE
  5
456
330
16
100
AcDbSymbolTableRecord
100
AcDbLinetypeTableRecord
  2
AM_ISO08W050
 70
     0
  3
____ . ____ . ____ . ____ . ____ . ____ . ____
 72
    65
 73
     4
 40
18.0
 49
12.0
 74
     0
 49
-1.5
 74
     0
 49
3.0
 74
     0
 49
-1.5
 74
     0
  0
LTYPE
  5
457
330
16
100
AcDbSymbolTableRecord
100
AcDbLinetypeTableRecord
  2
AM_ISO09W050
 70
     0
  3
_____ . . _____ . . _____ . . ____ .. ____
 72
    65
 73
     6
 40
22.5
 49
12.0
 74
     0
 49
-1.5
 74
     0
 49
3.0
 74
     0
 49
-1.5
 74
     0
 49
3.0
 74
     0
 49
-1.5
 74
     0
  0
LTYPE
  5
45A
330
16
100
AcDbSymbolTableRecord
100
AcDbLinetypeTableRecord
  2
AM_ISO02W050x2
 70
     0
  3
 _ _ _ _ _ _ _ _ _ _ _ _
 72
    65
 73
     2
 40
3.75
 49
3.0
 74
     0
 49
-0.75
 74
     0
  0
LTYPE
  5
459
330
16
100
AcDbSymbolTableRecord
100
AcDbLinetypeTableRecord
  2
AM_ISO08W050x2
 70
     0
  3
__ . __ . __ . __ . __ . __
 72
    65
 73
     4
 40
9.0
 49
6.0
 74
     0
 49
-0.75
 74
     0
 49
1.5
 74
     0
 49
-0.75
 74
     0
  0
LTYPE
  5
45B
330
16
100
AcDbSymbolTableRecord
100
AcDbLinetypeTableRecord
  2
amzigzag
 70
     0
  3
/\/-/\/-/\/-/\/-/\/-/\/
 72
    65
 73
     2
 40
11.0001
 49
0.0001
 74
     4
 75
   135
340
45C
 46
0.04
 50
0.0
 44
0.0
 45
0.0
 49
-11.0
 74
     0
  0
LTYPE
  5
458
330
16
100
AcDbSymbolTableRecord
100
AcDbLinetypeTableRecord
  2
Amconstr
 70
     0
  3
_______________________
 72
    65
 73
     2
 40
9999.0
 49
9999.0
 74
     0
 49
0.0
 74
     0
  0
LTYPE
  5
4BA
330
16
100
AcDbSymbolTableRecord
100
AcDbLinetypeTableRecord
  2
HIDDEN
 70
     0
  3
Hidden __ __ __ __ __ __ __ __ __ __ __ __ __ _
 72
    65
 73
     2
 40
9.524999999999998
 49
6.349999999999999
 74
     0
 49
-3.174999999999999
 74
     0
  0
LTYPE
  5
4BB
330
16
100
AcDbSymbolTableRecord
100
AcDbLinetypeTableRecord
  2
PHANTOM2
 70
     0
  3
Phantom (.5x) ___ _ _ ___ _ _ ___ _ _ ___ _ _
 72
    65
 73
     6
 40
31.75
 49
15.875
 74
     0
 49
-3.174999999999999
 74
     0
 49
3.174999999999999
 74
     0
 49
-3.174999999999999
 74
     0
 49
3.174999999999999
 74
     0
 49
-3.174999999999999
 74
     0
  0
LTYPE
  5
4BC
330
16
100
AcDbSymbolTableRecord
100
AcDbLinetypeTableRecord
  2
CENTER
 70
     0
  3
Center ____ _ ____ _ ____ _ ____ _ ____ _ ____
 72
    65
 73
     4
 40
50.8
 49
31.75
 74
     0
 49
-6.349999999999999
 74
     0
 49
6.349999999999999
 74
     0
 49
-6.349999999999999
 74
     0
  0
ENDTAB
  0
TABLE
  2
LAYER
  5
12
330
0
100
AcDbSymbolTable
 70
     5
  0
LAYER
  5
5
330
12
100
AcDbSymbolTableRecord
100
AcDbLayerTableRecord
  2
0
 70
     0
 62
     7
  6
CONTINUOUS
370
    -3
390
6
  0
LAYER
  5
31
330
12
100
AcDbSymbolTableRecord
100
AcDbLayerTableRecord
  2
4
 70
     0
 62
     4
  6
CONTINUOUS
370
    -3
390
6
  0
LAYER
  5
3D
330
12
100
AcDbSymbolTableRecord
100
AcDbLayerTableRecord
  2
Defpoints
 70
     0
 62
     7
  6
CONTINUOUS
290
     0
370
    -3
390
6
  0
LAYER
  5
A9
330
12
100
AcDbSymbolTableRecord
100
AcDbLayerTableRecord
  2
AM_VIS
 70
     2
 62
     7
  6
CONTINUOUS
370
    50
390
6
  0
LAYER
  5
9F
330
12
100
AcDbSymbolTableRecord
100
AcDbLayerTableRecord
  2
AM_HID
 70
     2
 62
     1
  6
AM_ISO02W050
370
    25
390
6
  0
ENDTAB
  0
TABLE
  2
STYLE
  5
13
330
0
100
AcDbSymbolTable
 70
     4
  0
STYLE
  5
14
330
13
100
AcDbSymbolTableRecord
100
AcDbTextStyleTableRecord
  2
STANDARD
 70
     0
 40
0.0
 41
1.0
 50
0.0
 71
     0
 42
3.5
  3
ISOCP.SHX
  4

  0
STYLE
  5
468
330
13
100
AcDbSymbolTableRecord
100
AcDbTextStyleTableRecord
  2
ACISOTS
 70
     0
 40
1.0
 41
1.0
 50
0.0
 71
     0
 42
3.5
  3
isocp.shx
  4

  0
STYLE
  5
46B
330
13
100
AcDbSymbolTableRecord
100
AcDbTextStyleTableRecord
  2
ACISOGDT
 70
     0
 40
0.0
 41
1.0
 50
0.0
 71
     0
 42
3.5
  3
amgdt.shx
  4

  0
STYLE
  5
45C
330
13
100
AcDbSymbolTableRecord
100
AcDbTextStyleTableRecord
  2

 70
     1
 40
0.0
 41
1.0
 50
0.0
 71
     0
 42
3.5
  3
ltypeshp.shx
  4

  0
ENDTAB
  0
TABLE
  2
VIEW
  5
19
330
0
100
AcDbSymbolTable
 70
     1
  0
VIEW
  5
D
330
19
100
AcDbSymbolTableRecord
100
AcDbViewTableRecord
  2
AMDTVIEW1
 70
     0
 40
329.0721649484536
 10
210.0
 20
164.5360824742268
 41
420.0
 11
0.0
 21
0.0
 31
1.0
 12
0.0
 22
0.0
 32
0.0
 42
50.0
 43
0.0
 44
0.0
 50
0.0
 71
     0
281
     0
 72
     0
  0
ENDTAB
  0
TABLE
  2
UCS
  5
1A
330
0
100
AcDbSymbolTable
 70
     0
  0
ENDTAB
  0
TABLE
  2
APPID
  5
1D
330
0
100
AcDbSymbolTable
 70
     1
  0
APPID
  5
1E
330
1D
100
AcDbSymbolTableRecord
100
AcDbRegAppTableRecord
  2
ACAD
 70
     0
  0
ENDTAB
  0
TABLE
  2
DIMSTYLE
  5
1F
330
0
100
AcDbSymbolTable
 70
    11
100
AcDbDimStyleTable
 71
     5
340
20
340
21
340
22
340
29
340
2A
  0
DIMSTYLE
105
22
330
1F
100
AcDbSymbolTableRecord
100
AcDbDimStyleTableRecord
  2
AM_JIS
 70
     0
  4
"
 41
2.5
 42
1.0
 43
10.0
 44
1.0
 47
0.1
 48
0.1
 73
     0
 74
     0
 77
     3
 78
     8
 79
     2
140
3.5
141
0.0
143
0.0393701
146
0.71
147
1.5
172
     1
176
   256
177
   256
178
     2
271
     2
272
     3
274
     4
283
     0
284
     8
340
14
341
23
342
23
343
23
344
23
371
    -1
372
    -1
  0
DIMSTYLE
105
21
330
1F
100
AcDbSymbolTableRecord
100
AcDbDimStyleTableRecord
  2
AM_ANSI
 70
     0
  4
mm
 41
0.1
 42
0.05
 43
0.5
 44
0.1
 47
0.1
 48
0.1
 78
     7
 79
     2
140
0.12
141
0.0
146
0.71
147
0.06
176
   256
177
   256
178
     2
274
     4
284
     7
340
14
371
    -1
372
    -1
  0
DIMSTYLE
105
2A
330
1F
100
AcDbSymbolTableRecord
100
AcDbDimStyleTableRecord
  2
AM_BSI
 70
     0
  4
"
 41
4.0
 42
1.0
 43
10.0
 44
1.0
 47
0.1
 48
0.1
 73
     0
 74
     0
 77
     1
 78
     8
 79
     2
140
3.5
141
0.0
143
0.0393701
146
0.71
147
1.5
172
     1
176
   256
177
   256
178
     2
271
     2
272
     3
274
     4
283
     0
284
     8
340
14
371
    -1
372
    -1
  0
DIMSTYLE
105
29
330
1F
100
AcDbSymbolTableRecord
100
AcDbDimStyleTableRecord
  2
AM_DIN
 70
     0
  4
"
 41
2.5
 42
1.0
 43
10.0
 44
1.0
 47
0.1
 48
0.1
 73
     0
 74
     0
 77
     1
 78
     8
 79
     2
140
3.5
141
0.0
143
0.0393701
146
0.71
147
1.5
172
     1
176
   256
177
   256
178
     2
271
     2
272
     3
274
     4
283
     0
284
     8
340
14
371
    -1
372
    -1
  0
DIMSTYLE
105
20
102
{ACAD_REACTORS
330
91
330
84
330
77
330
68
330
5B
330
4E
330
41
330
33
102
}
330
1F
100
AcDbSymbolTableRecord
100
AcDbDimStyleTableRecord
  2
AM_ISO
 70
     0
  4
"
 41
2.5
 42
1.0
 43
10.0
 44
1.0
 47
0.1
 48
0.1
 73
     0
 74
     0
 77
     1
 78
     8
 79
     2
140
3.5
141
0.0
143
0.0393701
146
0.71
147
0.3
172
     1
176
   256
177
   256
178
   256
179
     2
271
     2
272
     2
283
     0
284
     8
340
14
371
    -1
372
    -1
  0
DIMSTYLE
105
475
330
1F
100
AcDbSymbolTableRecord
100
AcDbDimStyleTableRecord
  2
AM_ISO$3
 70
     0
  4
"
 41
2.5
 42
1.0
 43
10.0
 44
1.0
 47
0.1
 48
0.1
 73
     0
 77
     1
 78
     8
 79
     2
140
3.5
141
0.0
143
0.0393701
146
0.71
147
0.3
176
   256
177
   256
178
   256
179
     2
271
     2
272
     2
283
     0
284
     8
288
     1
289
     0
340
14
371
    -1
372
    -1
  0
DIMSTYLE
105
476
330
1F
100
AcDbSymbolTableRecord
100
AcDbDimStyleTableRecord
  2
AM_ISO$4
 70
     0
  4
"
 41
2.5
 42
1.0
 43
10.0
 44
1.0
 47
0.1
 48
0.1
 73
     0
 77
     1
 78
     8
 79
     2
140
3.5
141
0.0
143
0.0393701
146
0.71
147
0.3
176
   256
177
   256
178
   256
179
     2
271
     2
272
     2
283
     0
284
     8
288
     1
289
     0
340
14
371
    -1
372
    -1
  0
DIMSTYLE
105
477
330
1F
100
AcDbSymbolTableRecord
100
AcDbDimStyleTableRecord
  2
AM_ISO$6
 70
     0
  4
"
 41
2.5
 42
1.0
 43
10.0
 44
1.0
 47
0.1
 48
0.1
 73
     0
 74
     0
 78
     8
 79
     2
140
3.5
141
0.0
143
0.0393701
146
0.71
147
0.3
172
     1
176
   256
177
   256
178
   256
179
     2
271
     2
272
     2
283
     0
284
     8
340
14
371
    -1
372
    -1
  0
DIMSTYLE
105
478
330
1F
100
AcDbSymbolTableRecord
100
AcDbDimStyleTableRecord
  2
AM_ISO$7
 70
     0
  4
"
 41
2.5
 42
1.0
 43
10.0
 44
1.0
 47
0.1
 48
0.1
 73
     0
 74
     0
 77
     1
 78
     8
 79
     2
140
5.0
141
0.0
143
0.0393701
146
0.71
147
0.3
172
     1
176
   256
177
   256
178
   256
179
     2
271
     2
272
     2
283
     0
284
     8
340
14
371
    -1
372
    -1
  0
DIMSTYLE
105
479
330
1F
100
AcDbSymbolTableRecord
100
AcDbDimStyleTableRecord
  2
AM_ISO$SF
 70
     0
  4
"
 41
2.5
 42
1.0
 43
10.0
 44
1.0
 47
0.1
 48
0.1
 73
     0
 74
     0
 75
     1
 76
     1
 77
     1
 78
     8
 79
     2
140
3.5
141
0.0
143
0.0393701
146
0.71
147
1.5
172
     1
176
   256
177
   256
178
     2
271
     2
272
     3
274
     4
283
     0
284
     8
340
14
371
    -1
372
    -1
  0
DIMSTYLE
105
47A
330
1F
100
AcDbSymbolTableRecord
100
AcDbDimStyleTableRecord
  2
AM_ISO$SH
 70
     0
  4
"
 41
2.5
 42
1.0
 43
10.0
 44
1.0
 47
0.1
 48
0.1
 73
     0
 74
     0
 75
     1
 76
     1
 77
     1
 78
     8
 79
     2
140
3.5
141
0.0
143
0.0393701
144
2.0
146
0.71
147
1.5
172
     1
173
     1
176
   256
177
   256
178
     2
271
     2
272
     3
274
     4
283
     0
284
     8
340
14
343
47B
371
    -1
372
    -1
  0
ENDTAB
  0
TABLE
  2
BLOCK_RECORD
  5
1
330
0
100
AcDbSymbolTable
 70
    10
  0
BLOCK_RECORD
  5
2
102
{ACAD_XDICTIONARY
360
3
102
}
330
1
100
AcDbSymbolTableRecord
100
AcDbBlockTableRecord
  2
*MODEL_SPACE
340
B
  0
BLOCK_RECORD
  5
E
330
1
100
AcDbSymbolTableRecord
100
AcDbBlockTableRecord
  2
*PAPER_SPACE
340
11
  0
BLOCK_RECORD
  5
23
330
1
100
AcDbSymbolTableRecord
100
AcDbBlockTableRecord
  2
_Open30
340
0
  0
BLOCK_RECORD
  5
47B
330
1
100
AcDbSymbolTableRecord
100
AcDbBlockTableRecord
  2
GENAXEH
340
0
  0
BLOCK_RECORD
  5
92
330
1
100
AcDbSymbolTableRecord
100
AcDbBlockTableRecord
  2
*D2
340
0
  0
BLOCK_RECORD
  5
85
330
1
100
AcDbSymbolTableRecord
100
AcDbBlockTableRecord
  2
*D3
340
0
  0
BLOCK_RECORD
  5
78
330
1
100
AcDbSymbolTableRecord
100
AcDbBlockTableRecord
  2
*D4
340
0
  0
BLOCK_RECORD
  5
69
330
1
100
AcDbSymbolTableRecord
100
AcDbBlockTableRecord
  2
*D5
340
0
  0
BLOCK_RECORD
  5
5C
330
1
100
AcDbSymbolTableRecord
100
AcDbBlockTableRecord
  2
*D6
340
0
  0
BLOCK_RECORD
  5
4F
330
1
100
AcDbSymbolTableRecord
100
AcDbBlockTableRecord
  2
*D7
340
0
  0
BLOCK_RECORD
  5
42
330
1
100
AcDbSymbolTableRecord
100
AcDbBlockTableRecord
  2
*D8
340
0
  0
BLOCK_RECORD
  5
34
330
1
100
AcDbSymbolTableRecord
100
AcDbBlockTableRecord
  2
*D9
340
0
  0
ENDTAB
  0
ENDSEC
  0
SECTION
  2
BLOCKS
  0
BLOCK
  5
4
330
2
100
AcDbEntity
  8
0
100
AcDbBlockBegin
  2
*MODEL_SPACE
 70
     0
 10
0.0
 20
0.0
 30
0.0
  3
*MODEL_SPACE
  1

  0
ENDBLK
  5
A
330
2
100
AcDbEntity
  8
0
100
AcDbBlockEnd
  0
BLOCK
  5
F
330
E
100
AcDbEntity
 67
     1
  8
0
100
AcDbBlockBegin
  2
*PAPER_SPACE
 70
     0
 10
0.0
 20
0.0
 30
0.0
  3
*PAPER_SPACE
  1

  0
ENDBLK
  5
10
330
E
100
AcDbEntity
 67
     1
  8
0
100
AcDbBlockEnd
  0
BLOCK
  5
24
330
23
100
AcDbEntity
  8
0
100
AcDbBlockBegin
  2
_Open30
 70
     0
 10
0.0
 20
0.0
 30
0.0
  3
_Open30
  1

  0
LINE
  5
25
330
23
100
AcDbEntity
  8
0
  6
ByBlock
 62
     0
370
    -2
100
AcDbLine
 10
-1.0
 20
0.26794919
 30
0.0
 11
0.0
 21
0.0
 31
0.0
  0
LINE
  5
26
330
23
100
AcDbEntity
  8
0
  6
ByBlock
 62
     0
370
    -2
100
AcDbLine
 10
0.0
 20
0.0
 30
0.0
 11
-1.0
 21
-0.26794919
 31
0.0
  0
LINE
  5
27
330
23
100
AcDbEntity
  8
0
  6
ByBlock
 62
     0
370
    -2
100
AcDbLine
 10
0.0
 20
0.0
 30
0.0
 11
-1.0
 21
0.0
 31
0.0
  0
ENDBLK
  5
28
330
23
100
AcDbEntity
  8
0
100
AcDbBlockEnd
  0
BLOCK
  5
47C
330
47B
100
AcDbEntity
  8
0
100
AcDbBlockBegin
  2
GENAXEH
 70
     0
 10
0.0
 20
0.0
 30
0.0
  3
GENAXEH
  1

  0
LINE
  5
47D
330
47B
100
AcDbEntity
  8
0
100
AcDbLine
 10
-1.0
 20
0.0
 30
0.0
 11
1.0
 21
0.0
 31
0.0
  0
ENDBLK
  5
47E
330
47B
100
AcDbEntity
  8
0
100
AcDbBlockEnd
  0
BLOCK
  5
93
330
92
100
AcDbEntity
  8
0
100
AcDbBlockBegin
  2
*D2
 70
     1
 10
0.0
 20
0.0
 30
0.0
  3
*D2
  1

  0
LINE
  5
94
330
92
100
AcDbEntity
  8
4
100
AcDbLine
 10
161.9314626647854
 20
136.3247008586183
 30
0.0
 11
161.9314626647854
 21
153.1900817064609
 31
0.0
  0
LINE
  5
95
330
92
100
AcDbEntity
  8
4
100
AcDbLine
 10
247.6314626647855
 20
136.3247008586183
 30
0.0
 11
247.6314626647855
 21
153.1900817064609
 31
0.0
  0
LINE
  5
96
330
92
100
AcDbEntity
  8
4
100
AcDbLine
 10
164.5314626647854
 20
152.1900817064609
 30
0.0
 11
245.0314626647855
 21
152.1900817064609
 31
0.0
  0
SOLID
  5
97
330
92
100
AcDbEntity
  8
4
100
AcDbTrace
 10
164.5314626647854
 20
152.6234150397943
 30
0.0
 11
164.5314626647854
 21
151.7567483731276
 31
0.0
 12
161.9314626647854
 22
152.1900817064609
 32
0.0
 13
161.9314626647854
 23
152.1900817064609
 33
0.0
  0
SOLID
  5
98
330
92
100
AcDbEntity
  8
4
100
AcDbTrace
 10
245.0314626647855
 20
152.6234150397943
 30
0.0
 11
245.0314626647855
 21
151.7567483731276
 31
0.0
 12
247.6314626647855
 22
152.1900817064609
 32
0.0
 13
247.6314626647855
 23
152.1900817064609
 33
0.0
  0
MTEXT
  5
99
330
92
100
AcDbEntity
  8
4
100
AcDbMText
 10
204.7814626647855
 20
154.0900817064609
 30
0.0
 40
3.2
 41
0.0
 71
     5
 72
     1
  1
85.7
 73
     1
 44
1.0
1001
ACAD
1000
MTEXTBEGIN
1070
    73
1070
     1
1070
    44
1040
1.0
1070
    74
1070
     0
1000
MTEXTEND
  0
POINT
  5
9A
330
92
100
AcDbEntity
  8
Defpoints
 62
     0
100
AcDbPoint
 10
161.9314626647854
 20
135.3247008586183
 30
0.0
  0
POINT
  5
9B
330
92
100
AcDbEntity
  8
Defpoints
 62
     0
100
AcDbPoint
 10
247.6314626647855
 20
135.3247008586183
 30
0.0
  0
POINT
  5
9C
330
92
100
AcDbEntity
  8
Defpoints
 62
     0
100
AcDbPoint
 10
247.6314626647855
 20
152.1900817064609
 30
0.0
  0
ENDBLK
  5
9D
330
92
100
AcDbEntity
  8
0
100
AcDbBlockEnd
  0
BLOCK
  5
86
330
85
100
AcDbEntity
  8
0
100
AcDbBlockBegin
  2
*D3
 70
     1
 10
0.0
 20
0.0
 30
0.0
  3
*D3
  1

  0
LINE
  5
87
330
85
100
AcDbEntity
  8
4
100
AcDbLine
 10
160.9314626647854
 20
130.2247008586183
 30
0.0
 11
138.9295042780993
 21
130.2247008586183
 31
0.0
  0
LINE
  5
88
330
85
100
AcDbEntity
  8
4
100
AcDbLine
 10
143.2814626647854
 20
119.5247008586183
 30
0.0
 11
138.9295042780993
 21
119.5247008586183
 31
0.0
  0
LINE
  5
89
330
85
100
AcDbEntity
  8
4
100
AcDbLine
 10
139.9295042780993
 20
127.6247008586183
 30
0.0
 11
139.9295042780993
 21
122.1247008586183
 31
0.0
  0
SOLID
  5
8A
330
85
100
AcDbEntity
  8
4
100
AcDbTrace
 10
139.496170944766
 20
127.6247008586183
 30
0.0
 11
140.3628376114326
 21
127.6247008586183
 31
0.0
 12
139.9295042780993
 22
130.2247008586183
 32
0.0
 13
139.9295042780993
 23
130.2247008586183
 33
0.0
  0
SOLID
  5
8B
330
85
100
AcDbEntity
  8
4
100
AcDbTrace
 10
139.496170944766
 20
122.1247008586183
 30
0.0
 11
140.3628376114326
 21
122.1247008586183
 31
0.0
 12
139.9295042780993
 22
119.5247008586183
 32
0.0
 13
139.9295042780993
 23
119.5247008586183
 33
0.0
  0
MTEXT
  5
8C
330
85
100
AcDbEntity
  8
4
100
AcDbMText
 10
138.0295042780993
 20
124.8747008586184
 30
0.0
 40
3.2
 41
0.0
 71
     5
 72
     1
  1
10.7
 11
0.0000000000000001
 21
1.0
 31
0.0
 73
     1
 44
1.0
1001
ACAD
1000
MTEXTBEGIN
1070
    73
1070
     1
1070
    44
1040
1.0
1070
    74
1070
     0
1000
MTEXTEND
  0
POINT
  5
8D
330
85
100
AcDbEntity
  8
Defpoints
 62
     0
100
AcDbPoint
 10
161.9314626647854
 20
130.2247008586183
 30
0.0
  0
POINT
  5
8E
330
85
100
AcDbEntity
  8
Defpoints
 62
     0
100
AcDbPoint
 10
144.2814626647854
 20
119.5247008586183
 30
0.0
  0
POINT
  5
8F
330
85
100
AcDbEntity
  8
Defpoints
 62
     0
100
AcDbPoint
 10
139.9295042780993
 20
119.5247008586183
 30
0.0
  0
ENDBLK
  5
90
330
85
100
AcDbEntity
  8
0
100
AcDbBlockEnd
  0
BLOCK
  5
79
330
78
100
AcDbEntity
  8
0
100
AcDbBlockBegin
  2
*D4
 70
     1
 10
0.0
 20
0.0
 30
0.0
  3
*D4
  1

  0
LINE
  5
7A
330
78
100
AcDbEntity
  8
4
100
AcDbLine
 10
143.2814626647854
 20
119.5247008586183
 30
0.0
 11
130.64037899888
 21
119.5247008586183
 31
0.0
  0
LINE
  5
7B
330
78
100
AcDbEntity
  8
4
100
AcDbLine
 10
160.9314626647854
 20
135.3247008586183
 30
0.0
 11
130.64037899888
 21
135.3247008586183
 31
0.0
  0
LINE
  5
7C
330
78
100
AcDbEntity
  8
4
100
AcDbLine
 10
131.64037899888
 20
122.1247008586183
 30
0.0
 11
131.64037899888
 21
132.7247008586183
 31
0.0
  0
SOLID
  5
7D
330
78
100
AcDbEntity
  8
4
100
AcDbTrace
 10
131.2070456655467
 20
122.1247008586183
 30
0.0
 11
132.0737123322133
 21
122.1247008586183
 31
0.0
 12
131.64037899888
 22
119.5247008586183
 32
0.0
 13
131.64037899888
 23
119.5247008586183
 33
0.0
  0
SOLID
  5
7E
330
78
100
AcDbEntity
  8
4
100
AcDbTrace
 10
131.2070456655467
 20
132.7247008586183
 30
0.0
 11
132.0737123322133
 21
132.7247008586183
 31
0.0
 12
131.64037899888
 22
135.3247008586183
 32
0.0
 13
131.64037899888
 23
135.3247008586183
 33
0.0
  0
MTEXT
  5
7F
330
78
100
AcDbEntity
  8
4
100
AcDbMText
 10
129.74037899888
 20
127.4247008586183
 30
0.0
 40
3.2
 41
0.0
 71
     5
 72
     1
  1
15.8
 11
0.0000000000000001
 21
1.0
 31
0.0
 73
     1
 44
1.0
1001
ACAD
1000
MTEXTBEGIN
1070
    73
1070
     1
1070
    44
1040
1.0
1070
    74
1070
     0
1000
MTEXTEND
  0
POINT
  5
80
330
78
100
AcDbEntity
  8
Defpoints
 62
     0
100
AcDbPoint
 10
144.2814626647854
 20
119.5247008586183
 30
0.0
  0
POINT
  5
81
330
78
100
AcDbEntity
  8
Defpoints
 62
     0
100
AcDbPoint
 10
161.9314626647854
 20
135.3247008586183
 30
0.0
  0
POINT
  5
82
330
78
100
AcDbEntity
  8
Defpoints
 62
     0
100
AcDbPoint
 10
131.64037899888
 20
135.3247008586183
 30
0.0
  0
ENDBLK
  5
83
330
78
100
AcDbEntity
  8
0
100
AcDbBlockEnd
  0
BLOCK
  5
6A
330
69
100
AcDbEntity
  8
0
100
AcDbBlockBegin
  2
*D5
 70
     1
 10
0.0
 20
0.0
 30
0.0
  3
*D5
  1

  0
LINE
  5
6B
330
69
100
AcDbEntity
  8
4
100
AcDbLine
 10
161.9814626647854
 20
131.2747008586183
 30
0.0
 11
153.6074412719797
 21
131.2747008586183
 31
0.0
  0
LINE
  5
6C
330
69
100
AcDbEntity
  8
4
100
AcDbLine
 10
161.9814626647855
 20
129.1747008586183
 30
0.0
 11
153.6074412719797
 21
129.1747008586183
 31
0.0
  0
LINE
  5
6D
330
69
100
AcDbEntity
  8
4
100
AcDbLine
 10
154.6074412719797
 20
133.8747008586183
 30
0.0
 11
154.6074412719797
 21
136.4747008586183
 31
0.0
  0
LINE
  5
6E
330
69
100
AcDbEntity
  8
4
100
AcDbLine
 10
154.6074412719797
 20
126.5747008586183
 30
0.0
 11
154.6074412719797
 21
112.980948284486
 31
0.0
  0
LINE
  5
6F
330
69
100
AcDbEntity
  8
4
100
AcDbLine
 10
154.6074412719797
 20
131.2747008586183
 30
0.0
 11
154.6074412719797
 21
129.1747008586183
 31
0.0
  0
SOLID
  5
70
330
69
100
AcDbEntity
  8
4
100
AcDbTrace
 10
154.1741079386463
 20
133.8747008586183
 30
0.0
 11
155.040774605313
 21
133.8747008586183
 31
0.0
 12
154.6074412719797
 22
131.2747008586183
 32
0.0
 13
154.6074412719797
 23
131.2747008586183
 33
0.0
  0
SOLID
  5
71
330
69
100
AcDbEntity
  8
4
100
AcDbTrace
 10
154.1741079386463
 20
126.5747008586183
 30
0.0
 11
155.040774605313
 21
126.5747008586183
 31
0.0
 12
154.6074412719797
 22
129.1747008586183
 32
0.0
 13
154.6074412719797
 23
129.1747008586183
 33
0.0
  0
MTEXT
  5
72
330
69
100
AcDbEntity
  8
4
100
AcDbMText
 10
152.7071263113497
 20
115.2415782057458
 30
0.0
 40
3.2
 41
0.0
 71
     5
 72
     1
  1
2.1
 11
0.0000000000000001
 21
1.0
 31
0.0
 73
     1
 44
1.0
1001
ACAD
1000
MTEXTBEGIN
1070
    73
1070
     1
1070
    44
1040
1.0
1070
    74
1070
     0
1000
MTEXTEND
  0
POINT
  5
73
330
69
100
AcDbEntity
  8
Defpoints
 62
     0
100
AcDbPoint
 10
162.9814626647854
 20
131.2747008586183
 30
0.0
  0
POINT
  5
74
330
69
100
AcDbEntity
  8
Defpoints
 62
     0
100
AcDbPoint
 10
162.9814626647855
 20
129.1747008586183
 30
0.0
  0
POINT
  5
75
330
69
100
AcDbEntity
  8
Defpoints
 62
     0
100
AcDbPoint
 10
154.6074412719797
 20
129.1747008586183
 30
0.0
  0
ENDBLK
  5
76
330
69
100
AcDbEntity
  8
0
100
AcDbBlockEnd
  0
BLOCK
  5
5D
330
5C
100
AcDbEntity
  8
0
100
AcDbBlockBegin
  2
*D6
 70
     1
 10
0.0
 20
0.0
 30
0.0
  3
*D6
  1

  0
LINE
  5
5E
330
5C
100
AcDbEntity
  8
4
100
AcDbLine
 10
199.7814626647855
 20
137.3747008586183
 30
0.0
 11
199.7814626647855
 21
148.774330673829
 31
0.0
  0
LINE
  5
5F
330
5C
100
AcDbEntity
  8
4
100
AcDbLine
 10
209.7814626647855
 20
137.3747008586183
 30
0.0
 11
209.7814626647855
 21
148.774330673829
 31
0.0
  0
LINE
  5
60
330
5C
100
AcDbEntity
  8
4
100
AcDbLine
 10
202.3814626647855
 20
147.7743306738291
 30
0.0
 11
207.1814626647855
 21
147.7743306738291
 31
0.0
  0
SOLID
  5
61
330
5C
100
AcDbEntity
  8
4
100
AcDbTrace
 10
202.3814626647855
 20
148.2076640071624
 30
0.0
 11
202.3814626647855
 21
147.3409973404957
 31
0.0
 12
199.7814626647855
 22
147.7743306738291
 32
0.0
 13
199.7814626647855
 23
147.7743306738291
 33
0.0
  0
SOLID
  5
62
330
5C
100
AcDbEntity
  8
4
100
AcDbTrace
 10
207.1814626647855
 20
148.2076640071624
 30
0.0
 11
207.1814626647855
 21
147.3409973404957
 31
0.0
 12
209.7814626647855
 22
147.7743306738291
 32
0.0
 13
209.7814626647855
 23
147.7743306738291
 33
0.0
  0
MTEXT
  5
63
330
5C
100
AcDbEntity
  8
4
100
AcDbMText
 10
204.7814626647855
 20
149.674330673829
 30
0.0
 40
3.2
 41
0.0
 71
     5
 72
     1
  1
10
 73
     1
 44
1.0
1001
ACAD
1000
MTEXTBEGIN
1070
    73
1070
     1
1070
    44
1040
1.0
1070
    74
1070
     0
1000
MTEXTEND
  0
POINT
  5
64
330
5C
100
AcDbEntity
  8
Defpoints
 62
     0
100
AcDbPoint
 10
199.7814626647855
 20
136.3747008586183
 30
0.0
  0
POINT
  5
65
330
5C
100
AcDbEntity
  8
Defpoints
 62
     0
100
AcDbPoint
 10
209.7814626647855
 20
136.3747008586183
 30
0.0
  0
POINT
  5
66
330
5C
100
AcDbEntity
  8
Defpoints
 62
     0
100
AcDbPoint
 10
209.7814626647855
 20
147.7743306738291
 30
0.0
  0
ENDBLK
  5
67
330
5C
100
AcDbEntity
  8
0
100
AcDbBlockEnd
  0
BLOCK
  5
50
330
4F
100
AcDbEntity
  8
0
100
AcDbBlockBegin
  2
*D7
 70
     1
 10
0.0
 20
0.0
 30
0.0
  3
*D7
  1

  0
LINE
  5
51
330
4F
100
AcDbEntity
  8
4
100
AcDbLine
 10
264.8362061810721
 20
146.0247008586183
 30
0.0
 11
272.8781753146734
 21
146.0247008586183
 31
0.0
  0
LINE
  5
52
330
4F
100
AcDbEntity
  8
4
100
AcDbLine
 10
266.2814626647854
 20
119.5247008586183
 30
0.0
 11
272.8781753146733
 21
119.5247008586183
 31
0.0
  0
LINE
  5
53
330
4F
100
AcDbEntity
  8
4
100
AcDbLine
 10
271.8781753146734
 20
143.4247008586183
 30
0.0
 11
271.8781753146733
 21
122.1247008586183
 31
0.0
  0
SOLID
  5
54
330
4F
100
AcDbEntity
  8
4
100
AcDbTrace
 10
271.44484198134
 20
143.4247008586183
 30
0.0
 11
272.3115086480067
 21
143.4247008586183
 31
0.0
 12
271.8781753146734
 22
146.0247008586183
 32
0.0
 13
271.8781753146734
 23
146.0247008586183
 33
0.0
  0
SOLID
  5
55
330
4F
100
AcDbEntity
  8
4
100
AcDbTrace
 10
271.44484198134
 20
122.1247008586183
 30
0.0
 11
272.3115086480067
 21
122.1247008586183
 31
0.0
 12
271.8781753146733
 22
119.5247008586183
 32
0.0
 13
271.8781753146733
 23
119.5247008586183
 33
0.0
  0
MTEXT
  5
56
330
4F
100
AcDbEntity
  8
4
100
AcDbMText
 10
269.9778603540434
 20
132.7747008586184
 30
0.0
 40
3.2
 41
0.0
 71
     5
 72
     1
  1
26.5
 11
0.0000000000000001
 21
1.0
 31
0.0
 73
     1
 44
1.0
1001
ACAD
1000
MTEXTBEGIN
1070
    73
1070
     1
1070
    44
1040
1.0
1070
    74
1070
     0
1000
MTEXTEND
  0
POINT
  5
57
330
4F
100
AcDbEntity
  8
Defpoints
 62
     0
100
AcDbPoint
 10
263.836206181072
 20
146.0247008586183
 30
0.0
  0
POINT
  5
58
330
4F
100
AcDbEntity
  8
Defpoints
 62
     0
100
AcDbPoint
 10
265.2814626647855
 20
119.5247008586183
 30
0.0
  0
POINT
  5
59
330
4F
100
AcDbEntity
  8
Defpoints
 62
     0
100
AcDbPoint
 10
271.8781753146733
 20
119.5247008586183
 30
0.0
  0
ENDBLK
  5
5A
330
4F
100
AcDbEntity
  8
0
100
AcDbBlockEnd
  0
BLOCK
  5
43
330
42
100
AcDbEntity
  8
0
100
AcDbBlockBegin
  2
*D8
 70
     1
 10
0.0
 20
0.0
 30
0.0
  3
*D8
  1

  0
LINE
  5
44
330
42
100
AcDbEntity
  8
4
100
AcDbLine
 10
144.2814626647854
 20
118.5247008586183
 30
0.0
 11
144.2814626647854
 21
108.7310598486986
 31
0.0
  0
LINE
  5
45
330
42
100
AcDbEntity
  8
4
100
AcDbLine
 10
265.2814626647855
 20
118.5247008586183
 30
0.0
 11
265.2814626647855
 21
108.7310598486986
 31
0.0
  0
LINE
  5
46
330
42
100
AcDbEntity
  8
4
100
AcDbLine
 10
146.8814626647854
 20
109.7310598486986
 30
0.0
 11
262.6814626647854
 21
109.7310598486986
 31
0.0
  0
SOLID
  5
47
330
42
100
AcDbEntity
  8
4
100
AcDbTrace
 10
146.8814626647854
 20
110.1643931820319
 30
0.0
 11
146.8814626647854
 21
109.2977265153653
 31
0.0
 12
144.2814626647854
 22
109.7310598486986
 32
0.0
 13
144.2814626647854
 23
109.7310598486986
 33
0.0
  0
SOLID
  5
48
330
42
100
AcDbEntity
  8
4
100
AcDbTrace
 10
262.6814626647854
 20
110.1643931820319
 30
0.0
 11
262.6814626647854
 21
109.2977265153653
 31
0.0
 12
265.2814626647855
 22
109.7310598486986
 32
0.0
 13
265.2814626647855
 23
109.7310598486986
 33
0.0
  0
MTEXT
  5
49
330
42
100
AcDbEntity
  8
4
100
AcDbMText
 10
204.7814626647855
 20
111.6313748093285
 30
0.0
 40
3.2
 41
0.0
 71
     5
 72
     1
  1
121
 73
     1
 44
1.0
1001
ACAD
1000
MTEXTBEGIN
1070
    73
1070
     1
1070
    44
1040
1.0
1070
    74
1070
     0
1000
MTEXTEND
  0
POINT
  5
4A
330
42
100
AcDbEntity
  8
Defpoints
 62
     0
100
AcDbPoint
 10
144.2814626647854
 20
119.5247008586183
 30
0.0
  0
POINT
  5
4B
330
42
100
AcDbEntity
  8
Defpoints
 62
     0
100
AcDbPoint
 10
265.2814626647855
 20
119.5247008586183
 30
0.0
  0
POINT
  5
4C
330
42
100
AcDbEntity
  8
Defpoints
 62
     0
100
AcDbPoint
 10
265.2814626647855
 20
109.7310598486986
 30
0.0
  0
ENDBLK
  5
4D
330
42
100
AcDbEntity
  8
0
100
AcDbBlockEnd
  0
BLOCK
  5
35
330
34
100
AcDbEntity
  8
0
100
AcDbBlockBegin
  2
*D9
 70
     1
 10
0.0
 20
0.0
 30
0.0
  3
*D9
  1

  0
LINE
  5
36
330
34
100
AcDbEntity
  8
4
100
AcDbLine
 10
354.9023960699222
 20
118.5247008586183
 30
0.0
 11
354.9023960699222
 21
111.3956861625547
 31
0.0
  0
LINE
  5
37
330
34
100
AcDbEntity
  8
4
100
AcDbLine
 10
284.9023960699223
 20
118.5247008586183
 30
0.0
 11
284.9023960699223
 21
111.3956861625547
 31
0.0
  0
LINE
  5
38
330
34
100
AcDbEntity
  8
4
100
AcDbLine
 10
352.3023960699222
 20
112.3956861625547
 30
0.0
 11
287.5023960699223
 21
112.3956861625547
 31
0.0
  0
SOLID
  5
39
330
34
100
AcDbEntity
  8
4
100
AcDbTrace
 10
352.3023960699222
 20
112.829019495888
 30
0.0
 11
352.3023960699222
 21
111.9623528292213
 31
0.0
 12
354.9023960699222
 22
112.3956861625547
 32
0.0
 13
354.9023960699222
 23
112.3956861625547
 33
0.0
  0
SOLID
  5
3A
330
34
100
AcDbEntity
  8
4
100
AcDbTrace
 10
287.5023960699223
 20
112.829019495888
 30
0.0
 11
287.5023960699223
 21
111.9623528292213
 31
0.0
 12
284.9023960699223
 22
112.3956861625547
 32
0.0
 13
284.9023960699223
 23
112.3956861625547
 33
0.0
  0
MTEXT
  5
3B
330
34
100
AcDbEntity
  8
4
100
AcDbMText
 10
319.9023960699222
 20
114.2956861625547
 30
0.0
 40
3.2
 41
0.0
 71
     5
 72
     1
  1
70
 73
     1
 44
1.0
1001
ACAD
1000
MTEXTBEGIN
1070
    73
1070
     1
1070
    44
1040
1.0
1070
    74
1070
     0
1000
MTEXTEND
  0
POINT
  5
3C
330
34
100
AcDbEntity
  8
Defpoints
 62
     0
100
AcDbPoint
 10
354.9023960699222
 20
119.5247008586183
 30
0.0
  0
POINT
  5
3E
330
34
100
AcDbEntity
  8
Defpoints
 62
     0
100
AcDbPoint
 10
284.9023960699223
 20
119.5247008586183
 30
0.0
  0
POINT
  5
3F
330
34
100
AcDbEntity
  8
Defpoints
 62
     0
100
AcDbPoint
 10
284.9023960699223
 20
112.3956861625547
 30
0.0
  0
ENDBLK
  5
40
330
34
100
AcDbEntity
  8
0
100
AcDbBlockEnd
  0
ENDSEC
  0
SECTION
  2
ENTITIES
  0
DIMENSION
  5
33
330
2
100
AcDbEntity
  8
4
100
AcDbDimension
  2
*D9
 10
284.9023960699223
 20
112.3956861625547
 30
0.0
 11
319.9023960699222
 21
114.2956861625547
 31
0.0
 71
     5
 42
70.0
  3
AM_ISO
100
AcDbAlignedDimension
 13
354.9023960699222
 23
119.5247008586183
 33
0.0
 14
284.9023960699223
 24
119.5247008586183
 34
0.0
100
AcDbRotatedDimension
1001
ACAD
1000
DSTYLE
1002
{
1070
    41
1040
2.6
1070
   140
1040
3.2
1002
}
  0
DIMENSION
  5
41
330
2
100
AcDbEntity
  8
4
100
AcDbDimension
  2
*D8
 10
265.2814626647855
 20
109.7310598486986
 30
0.0
 11
204.7814626647855
 21
111.6313748093285
 31
0.0
 71
     5
 42
121.0
  3
AM_ISO
100
AcDbAlignedDimension
 13
144.2814626647854
 23
119.5247008586183
 33
0.0
 14
265.2814626647855
 24
119.5247008586183
 34
0.0
100
AcDbRotatedDimension
1001
ACAD
1000
DSTYLE
1002
{
1070
    41
1040
2.6
1070
   140
1040
3.2
1002
}
  0
DIMENSION
  5
4E
330
2
100
AcDbEntity
  8
4
100
AcDbDimension
  2
*D7
 10
271.8781753146733
 20
119.5247008586183
 30
0.0
 11
269.9778603540434
 21
132.7747008586184
 31
0.0
 71
     5
 42
26.50000000000002
  3
AM_ISO
100
AcDbAlignedDimension
 13
263.836206181072
 23
146.0247008586183
 33
0.0
 14
265.2814626647855
 24
119.5247008586183
 34
0.0
 50
90.0
100
AcDbRotatedDimension
1001
ACAD
1000
DSTYLE
1002
{
1070
    41
1040
2.6
1070
   140
1040
3.2
1002
}
  0
DIMENSION
  5
5B
330
2
100
AcDbEntity
  8
4
100
AcDbDimension
  2
*D6
 10
209.7814626647855
 20
147.7743306738291
 30
0.0
 11
204.7814626647855
 21
149.674330673829
 31
0.0
 71
     5
 42
10.0
  3
AM_ISO
100
AcDbAlignedDimension
 13
199.7814626647855
 23
136.3747008586183
 33
0.0
 14
209.7814626647855
 24
136.3747008586183
 34
0.0
100
AcDbRotatedDimension
1001
ACAD
1000
DSTYLE
1002
{
1070
    41
1040
2.6
1070
   140
1040
3.2
1002
}
  0
DIMENSION
  5
68
330
2
100
AcDbEntity
  8
4
100
AcDbDimension
  2
*D5
 10
154.6074412719797
 20
129.1747008586183
 30
0.0
 11
154.6074412719796
 21
115.2415782057458
 31
0.0
 70
   128
 71
     5
 42
2.100000000000022
  3
AM_ISO
100
AcDbAlignedDimension
 13
162.9814626647854
 23
131.2747008586183
 33
0.0
 14
162.9814626647855
 24
129.1747008586183
 34
0.0
 50
90.0
100
AcDbRotatedDimension
1001
ACAD
1000
DSTYLE
1002
{
1070
    41
1040
2.6
1070
   140
1040
3.2
1002
}
  0
DIMENSION
  5
77
330
2
100
AcDbEntity
  8
4
100
AcDbDimension
  2
*D4
 10
131.64037899888
 20
135.3247008586183
 30
0.0
 11
129.74037899888
 21
127.4247008586183
 31
0.0
 71
     5
 42
15.8
  3
AM_ISO
100
AcDbAlignedDimension
 13
144.2814626647854
 23
119.5247008586183
 33
0.0
 14
161.9314626647854
 24
135.3247008586183
 34
0.0
 50
90.0
100
AcDbRotatedDimension
1001
ACAD
1000
DSTYLE
1002
{
1070
    41
1040
2.6
1070
   140
1040
3.2
1002
}
  0
DIMENSION
  5
84
330
2
100
AcDbEntity
  8
4
100
AcDbDimension
  2
*D3
 10
139.9295042780993
 20
119.5247008586183
 30
0.0
 11
138.0295042780993
 21
124.8747008586184
 31
0.0
 71
     5
 42
10.7
  3
AM_ISO
100
AcDbAlignedDimension
 13
161.9314626647854
 23
130.2247008586183
 33
0.0
 14
144.2814626647854
 24
119.5247008586183
 34
0.0
 50
90.0
100
AcDbRotatedDimension
1001
ACAD
1000
DSTYLE
1002
{
1070
    41
1040
2.6
1070
   140
1040
3.2
1002
}
  0
DIMENSION
  5
91
330
2
100
AcDbEntity
  8
4
100
AcDbDimension
  2
*D2
 10
247.6314626647855
 20
152.1900817064609
 30
0.0
 11
204.7814626647855
 21
152.1900817064609
 31
0.0
 70
   128
 71
     5
 42
85.70000000000005
  3
AM_ISO
100
AcDbAlignedDimension
 13
161.9314626647854
 23
135.3247008586183
 33
0.0
 14
247.6314626647855
 24
135.3247008586183
 34
0.0
100
AcDbRotatedDimension
1001
ACAD
1000
DSTYLE
1002
{
1070
    41
1040
2.6
1070
   140
1040
3.2
1002
}
  0
LINE
  5
9E
330
2
100
AcDbEntity
  8
AM_HID
100
AcDbLine
 10
164.3814626647854
 20
163.2753649750787
 30
0.0
 11
164.3814626647854
 21
161.2750603189909
 31
0.0
  0
LINE
  5
A1
330
2
100
AcDbEntity
  8
AM_HID
100
AcDbLine
 10
167.3814626647854
 20
163.2753649750787
 30
0.0
 11
167.3814626647854
 21
161.2750603189909
 31
0.0
  0
LINE
  5
A2
330
2
100
AcDbEntity
  8
AM_HID
100
AcDbLine
 10
242.1814626647855
 20
163.2753649750787
 30
0.0
 11
242.1814626647855
 21
161.2750603189909
 31
0.0
  0
LINE
  5
A3
330
2
100
AcDbEntity
  8
AM_HID
100
AcDbLine
 10
245.1814626647855
 20
163.2753649750787
 30
0.0
 11
245.1814626647855
 21
161.2750603189909
 31
0.0
  0
LINE
  5
A4
330
2
100
AcDbEntity
  8
AM_HID
100
AcDbLine
 10
245.1814626647855
 20
161.3152069683258
 30
0.0
 11
242.1814626647855
 21
161.3152069683258
 31
0.0
  0
LINE
  5
A5
330
2
100
AcDbEntity
  8
AM_HID
100
AcDbLine
 10
242.1814626647855
 20
161.2750603189909
 30
0.0
 11
245.1814626647855
 21
161.2750603189909
 31
0.0
  0
LINE
  5
A6
330
2
100
AcDbEntity
  8
AM_HID
100
AcDbLine
 10
164.3814626647854
 20
161.2750603189909
 30
0.0
 11
167.3814626647854
 21
161.2750603189909
 31
0.0
  0
LINE
  5
A7
330
2
100
AcDbEntity
  8
AM_HID
100
AcDbLine
 10
167.3814626647854
 20
161.3152069683258
 30
0.0
 11
164.3814626647854
 21
161.3152069683258
 31
0.0
  0
LINE
  5
A8
330
2
100
AcDbEntity
  8
AM_VIS
100
AcDbLine
 10
241.6338278595701
 20
161.2576052540627
 30
0.0
 11
241.6338278595701
 21
163.1531795205812
 31
0.0
  0
LINE
  5
AA
330
2
100
AcDbEntity
  8
AM_VIS
100
AcDbLine
 10
244.8314626647855
 20
227.2052400592781
 30
0.0
 11
242.5314626647855
 21
227.2052400592781
 31
0.0
  0
LINE
  5
AB
330
2
100
AcDbEntity
  8
AM_VIS
100
AcDbLine
 10
242.5314626647855
 20
227.2052400592781
 30
0.0
 11
242.5314626647855
 21
229.1665342603482
 31
0.0
  0
LINE
  5
AC
330
2
100
AcDbEntity
  8
AM_VIS
100
AcDbLine
 10
244.8314626647855
 20
229.1665342603482
 30
0.0
 11
244.8314626647855
 21
227.2052400592781
 31
0.0
  0
LINE
  5
AD
330
2
100
AcDbEntity
  8
AM_VIS
100
AcDbLine
 10
164.7314626647854
 20
227.2052400592781
 30
0.0
 11
164.7314626647854
 21
229.1665342603482
 31
0.0
  0
LINE
  5
AE
330
2
100
AcDbEntity
  8
AM_VIS
100
AcDbLine
 10
167.0314626647854
 20
229.1665342603482
 30
0.0
 11
167.0314626647854
 21
227.2052400592781
 31
0.0
  0
LINE
  5
AF
330
2
100
AcDbEntity
  8
AM_VIS
100
AcDbLine
 10
167.0314626647854
 20
227.2052400592781
 30
0.0
 11
164.7314626647854
 21
227.2052400592781
 31
0.0
  0
ELLIPSE
  5
B0
330
2
100
AcDbEntity
  8
AM_HID
100
AcDbEllipse
 10
246.5814626647855
 20
161.39200925401
 30
0.0
 11
-1.05
 21
0.0
 31
0.0
210
0.0
220
0.0
230
1.0
 40
0.0174550649282177
 41
1.570796326794896
 42
4.712388980384689
  0
ELLIPSE
  5
B1
330
2
100
AcDbEntity
  8
AM_HID
100
AcDbEllipse
 10
162.9814626647854
 20
161.39200925401
 30
0.0
 11
-1.05
 21
0.0
 31
0.0
210
0.0
220
0.0
230
1.0
 40
0.0174550649282177
 41
4.712388980384689
 42
7.853981633974482
  0
LINE
  5
B2
330
2
100
AcDbEntity
  8
AM_HID
100
AcDbLine
 10
162.9814626647854
 20
229.0364940266329
 30
0.0
 11
162.9814626647854
 21
231.0367986827208
 31
0.0
  0
LINE
  5
B3
330
2
100
AcDbEntity
  8
AM_HID
100
AcDbLine
 10
246.5814626647855
 20
229.0364940266329
 30
0.0
 11
246.5814626647855
 21
231.0367986827208
 31
0.0
  0
LINE
  5
B4
330
2
100
AcDbEntity
  8
AM_HID
100
AcDbLine
 10
209.7814626647855
 20
161.3736814358353
 30
0.0
 11
246.5814626647855
 21
161.3736814358353
 31
0.0
  0
LINE
  5
B5
330
2
100
AcDbEntity
  8
AM_HID
100
AcDbLine
 10
246.5814626647855
 20
161.3736814358353
 30
0.0
 11
246.5814626647855
 21
163.3739860919232
 31
0.0
  0
LINE
  5
B6
330
2
100
AcDbEntity
  8
AM_HID
100
AcDbLine
 10
162.9814626647854
 20
161.3736814358353
 30
0.0
 11
162.9814626647854
 21
163.3739860919232
 31
0.0
  0
LINE
  5
B7
330
2
100
AcDbEntity
  8
AM_HID
100
AcDbLine
 10
162.9814626647854
 20
161.3736814358353
 30
0.0
 11
199.7814626647855
 21
161.3736814358353
 31
0.0
  0
LINE
  5
B8
330
2
100
AcDbEntity
  8
AM_HID
100
AcDbLine
 10
246.5814626647855
 20
228.9998383902837
 30
0.0
 11
246.5814626647855
 21
228.9474731954991
 31
0.0
  0
ELLIPSE
  5
B9
330
2
100
AcDbEntity
  8
AM_HID
100
AcDbEllipse
 10
246.5814626647855
 20
161.4810300851439
 30
0.0
 11
-1.050000000000001
 21
0.0
 31
0.0
210
0.0
220
0.0
230
1.0
 40
0.0174550649282177
 41
1.570796326794896
 42
4.712388980384689
  0
LINE
  5
BA
330
2
100
AcDbEntity
  8
AM_HID
100
AcDbLine
 10
209.7814626647855
 20
161.4627022669693
 30
0.0
 11
246.5814626647855
 21
161.4627022669693
 31
0.0
  0
LINE
  5
BB
330
2
100
AcDbEntity
  8
AM_HID
100
AcDbLine
 10
246.5814626647855
 20
163.4630069230571
 30
0.0
 11
246.5814626647855
 21
163.4106417282724
 31
0.0
  0
LINE
  5
BC
330
2
100
AcDbEntity
  8
AM_HID
100
AcDbLine
 10
162.9814626647854
 20
161.4627022669693
 30
0.0
 11
199.7814626647855
 21
161.4627022669693
 31
0.0
  0
LINE
  5
BD
330
2
100
AcDbEntity
  8
AM_HID
100
AcDbLine
 10
162.9814626647854
 20
228.9998383902837
 30
0.0
 11
162.9814626647854
 21
228.9474731954991
 31
0.0
  0
ELLIPSE
  5
BE
330
2
100
AcDbEntity
  8
AM_HID
100
AcDbEllipse
 10
162.9814626647854
 20
161.4810300851439
 30
0.0
 11
-1.050000000000001
 21
0.0
 31
0.0
210
0.0
220
0.0
230
1.0
 40
0.0174550649282177
 41
4.712388980384689
 42
7.853981633974482
  0
LINE
  5
BF
330
2
100
AcDbEntity
  8
AM_HID
100
AcDbLine
 10
162.9814626647854
 20
163.4630069230571
 30
0.0
 11
162.9814626647854
 21
163.4106417282724
 31
0.0
  0
LINE
  5
C0
330
2
100
AcDbEntity
  8
AM_HID
100
AcDbLine
 10
199.7814626647855
 20
161.4103370721846
 30
0.0
 11
162.9814626647854
 21
161.4103370721846
 31
0.0
  0
LINE
  5
C1
330
2
100
AcDbEntity
  8
AM_VIS
100
AcDbLine
 10
162.9814626647854
 20
163.4106417282724
 30
0.0
 11
162.9814626647854
 21
163.3739860919232
 31
0.0
  0
LINE
  5
C2
330
2
100
AcDbEntity
  8
AM_VIS
100
AcDbLine
 10
246.5814626647855
 20
163.3739860919232
 30
0.0
 11
246.5814626647855
 21
163.4106417282724
 31
0.0
  0
LINE
  5
C3
330
2
100
AcDbEntity
  8
AM_HID
100
AcDbLine
 10
246.5814626647854
 20
161.4103370721846
 30
0.0
 11
209.7814626647855
 21
161.4103370721846
 31
0.0
  0
LINE
  5
C4
330
2
100
AcDbEntity
  8
AM_HID
100
AcDbLine
 10
199.7814626647855
 20
161.4993579033185
 30
0.0
 11
162.9814626647854
 21
161.4993579033185
 31
0.0
  0
LINE
  5
C5
330
2
100
AcDbEntity
  8
AM_VIS
100
AcDbLine
 10
162.9814626647854
 20
163.4630069230571
 30
0.0
 11
162.9814626647854
 21
163.4996625594063
 31
0.0
  0
LINE
  5
C6
330
2
100
AcDbEntity
  8
AM_VIS
100
AcDbLine
 10
246.5814626647855
 20
163.4996625594063
 30
0.0
 11
246.5814626647855
 21
163.4630069230571
 31
0.0
  0
LINE
  5
C7
330
2
100
AcDbEntity
  8
AM_HID
100
AcDbLine
 10
246.5814626647854
 20
161.4993579033185
 30
0.0
 11
209.7814626647855
 21
161.4993579033185
 31
0.0
  0
LINE
  5
C8
330
2
100
AcDbEntity
  8
AM_HID
100
AcDbLine
 10
209.7814626647855
 20
162.4628545950132
 30
0.0
 11
199.7814626647855
 21
162.4628545950132
 31
0.0
  0
LINE
  5
C9
330
2
100
AcDbEntity
  8
AM_HID
100
AcDbLine
 10
199.7814626647855
 20
162.4995102313624
 30
0.0
 11
209.7814626647855
 21
162.4995102313624
 31
0.0
  0
LINE
  5
CA
330
2
100
AcDbEntity
  8
AM_HID
100
AcDbLine
 10
199.7814626647855
 20
162.4628545950132
 30
0.0
 11
199.7814626647855
 21
162.4995102313624
 31
0.0
  0
LINE
  5
CB
330
2
100
AcDbEntity
  8
AM_HID
100
AcDbLine
 10
199.7814626647855
 20
162.4628545950132
 30
0.0
 11
199.7814626647855
 21
162.4104894002285
 31
0.0
  0
LINE
  5
CC
330
2
100
AcDbEntity
  8
AM_HID
100
AcDbLine
 10
209.7814626647855
 20
162.4104894002285
 30
0.0
 11
209.7814626647855
 21
162.4628545950132
 31
0.0
  0
LINE
  5
CD
330
2
100
AcDbEntity
  8
AM_HID
100
AcDbLine
 10
209.7814626647855
 20
162.4995102313624
 30
0.0
 11
209.7814626647855
 21
162.4628545950132
 31
0.0
  0
LINE
  5
CE
330
2
100
AcDbEntity
  8
AM_HID
100
AcDbLine
 10
209.7814626647855
 20
161.3736814358353
 30
0.0
 11
209.7814626647855
 21
162.3738337638793
 31
0.0
  0
LINE
  5
CF
330
2
100
AcDbEntity
  8
AM_HID
100
AcDbLine
 10
199.7814626647855
 20
162.4104894002285
 30
0.0
 11
209.7814626647855
 21
162.4104894002285
 31
0.0
  0
LINE
  5
D0
330
2
100
AcDbEntity
  8
AM_HID
100
AcDbLine
 10
209.7814626647855
 20
162.4104894002285
 30
0.0
 11
209.7814626647855
 21
162.3738337638793
 31
0.0
  0
LINE
  5
D1
330
2
100
AcDbEntity
  8
AM_HID
100
AcDbLine
 10
209.7814626647855
 20
162.3738337638792
 30
0.0
 11
199.7814626647855
 21
162.3738337638792
 31
0.0
  0
LINE
  5
D2
330
2
100
AcDbEntity
  8
AM_HID
100
AcDbLine
 10
199.7814626647855
 20
162.3738337638793
 30
0.0
 11
199.7814626647855
 21
162.4104894002285
 31
0.0
  0
LINE
  5
D3
330
2
100
AcDbEntity
  8
AM_HID
100
AcDbLine
 10
199.7814626647855
 20
162.3738337638793
 30
0.0
 11
199.7814626647855
 21
161.3736814358353
 31
0.0
  0
LINE
  5
D4
330
2
100
AcDbEntity
  8
AM_VIS
100
AcDbLine
 10
246.5814626647855
 20
228.9998383902837
 30
0.0
 11
246.5814626647855
 21
229.0364940266329
 31
0.0
  0
LINE
  5
D5
330
2
100
AcDbEntity
  8
AM_VIS
100
AcDbLine
 10
162.9814626647854
 20
229.0364940266329
 30
0.0
 11
162.9814626647854
 21
228.9998383902837
 31
0.0
  0
LINE
  5
D6
330
2
100
AcDbEntity
  8
AM_VIS
100
AcDbLine
 10
246.5814626647855
 20
228.9474731954991
 30
0.0
 11
246.5814626647855
 21
228.9108175591498
 31
0.0
  0
LINE
  5
D7
330
2
100
AcDbEntity
  8
AM_VIS
100
AcDbLine
 10
162.9814626647854
 20
228.9108175591498
 30
0.0
 11
162.9814626647854
 21
228.947473195499
 31
0.0
  0
LINE
  5
D8
330
2
100
AcDbEntity
  8
AM_HID
100
AcDbLine
 10
199.7814626647855
 20
229.9476255235429
 30
0.0
 11
209.7814626647855
 21
229.9476255235429
 31
0.0
  0
LINE
  5
D9
330
2
100
AcDbEntity
  8
AM_HID
100
AcDbLine
 10
209.7814626647855
 20
229.9109698871937
 30
0.0
 11
199.7814626647855
 21
229.9109698871937
 31
0.0
  0
LINE
  5
DA
330
2
100
AcDbEntity
  8
AM_HID
100
AcDbLine
 10
209.7814626647855
 20
229.9476255235429
 30
0.0
 11
209.7814626647855
 21
229.9109698871937
 31
0.0
  0
LINE
  5
DB
330
2
100
AcDbEntity
  8
AM_HID
100
AcDbLine
 10
209.7814626647855
 20
229.9476255235429
 30
0.0
 11
209.7814626647855
 21
229.9999907183276
 31
0.0
  0
LINE
  5
DC
330
2
100
AcDbEntity
  8
AM_HID
100
AcDbLine
 10
199.7814626647855
 20
229.9999907183276
 30
0.0
 11
199.7814626647855
 21
229.9476255235429
 31
0.0
  0
LINE
  5
DD
330
2
100
AcDbEntity
  8
AM_HID
100
AcDbLine
 10
199.7814626647855
 20
229.9109698871937
 30
0.0
 11
199.7814626647855
 21
229.9476255235429
 31
0.0
  0
LINE
  5
DE
330
2
100
AcDbEntity
  8
AM_HID
100
AcDbLine
 10
199.7814626647855
 20
231.0367986827208
 30
0.0
 11
199.7814626647855
 21
230.0366463546769
 31
0.0
  0
LINE
  5
DF
330
2
100
AcDbEntity
  8
AM_HID
100
AcDbLine
 10
209.7814626647855
 20
229.9999907183277
 30
0.0
 11
199.7814626647855
 21
229.9999907183277
 31
0.0
  0
LINE
  5
E0
330
2
100
AcDbEntity
  8
AM_HID
100
AcDbLine
 10
199.7814626647855
 20
229.9999907183276
 30
0.0
 11
199.7814626647855
 21
230.0366463546769
 31
0.0
  0
LINE
  5
E1
330
2
100
AcDbEntity
  8
AM_HID
100
AcDbLine
 10
199.7814626647855
 20
230.0366463546769
 30
0.0
 11
209.7814626647855
 21
230.0366463546769
 31
0.0
  0
LINE
  5
E2
330
2
100
AcDbEntity
  8
AM_HID
100
AcDbLine
 10
209.7814626647855
 20
230.0366463546769
 30
0.0
 11
209.7814626647855
 21
229.9999907183276
 31
0.0
  0
LINE
  5
E3
330
2
100
AcDbEntity
  8
AM_HID
100
AcDbLine
 10
209.7814626647855
 20
230.0366463546769
 30
0.0
 11
209.7814626647855
 21
231.0367986827208
 31
0.0
  0
LINE
  5
E4
330
2
100
AcDbEntity
  8
AM_HID
100
AcDbLine
 10
246.5814626647855
 20
230.9477778515869
 30
0.0
 11
209.7814626647855
 21
230.9477778515869
 31
0.0
  0
ELLIPSE
  5
E5
330
2
100
AcDbEntity
  8
AM_HID
100
AcDbEllipse
 10
246.5814626647855
 20
230.9294500334122
 30
0.0
 11
1.050000000000001
 21
0.0
 31
0.0
210
0.0
220
0.0
230
1.0
 40
0.0174550649282177
 41
4.712388980384689
 42
7.853981633974482
  0
LINE
  5
E6
330
2
100
AcDbEntity
  8
AM_HID
100
AcDbLine
 10
209.7814626647855
 20
230.9111222152376
 30
0.0
 11
246.5814626647855
 21
230.9111222152376
 31
0.0
  0
LINE
  5
E7
330
2
100
AcDbEntity
  8
AM_HID
100
AcDbLine
 10
162.9814626647854
 20
231.0001430463715
 30
0.0
 11
199.7814626647855
 21
231.0001430463715
 31
0.0
  0
ELLIPSE
  5
E8
330
2
100
AcDbEntity
  8
AM_HID
100
AcDbEllipse
 10
162.9814626647854
 20
231.0184708645461
 30
0.0
 11
1.05
 21
0.0
 31
0.0
210
0.0
220
0.0
230
1.0
 40
0.0174550649282177
 41
1.570796326794896
 42
4.712388980384689
  0
LINE
  5
E9
330
2
100
AcDbEntity
  8
AM_HID
100
AcDbLine
 10
199.7814626647855
 20
231.0367986827208
 30
0.0
 11
162.9814626647855
 21
231.0367986827208
 31
0.0
  0
LINE
  5
EA
330
2
100
AcDbEntity
  8
AM_HID
100
AcDbLine
 10
162.9814626647854
 20
230.9111222152376
 30
0.0
 11
199.7814626647855
 21
230.9111222152376
 31
0.0
  0
ELLIPSE
  5
EB
330
2
100
AcDbEntity
  8
AM_HID
100
AcDbEllipse
 10
162.9814626647854
 20
230.9294500334122
 30
0.0
 11
1.050000000000001
 21
0.0
 31
0.0
210
0.0
220
0.0
230
1.0
 40
0.0174550649282177
 41
1.570796326794896
 42
4.712388980384689
  0
LINE
  5
EC
330
2
100
AcDbEntity
  8
AM_HID
100
AcDbLine
 10
199.7814626647855
 20
230.9477778515869
 30
0.0
 11
162.9814626647855
 21
230.9477778515869
 31
0.0
  0
LINE
  5
ED
330
2
100
AcDbEntity
  8
AM_HID
100
AcDbLine
 10
246.5814626647855
 20
231.0367986827208
 30
0.0
 11
209.7814626647855
 21
231.0367986827208
 31
0.0
  0
ELLIPSE
  5
EE
330
2
100
AcDbEntity
  8
AM_HID
100
AcDbEllipse
 10
246.5814626647855
 20
231.0184708645461
 30
0.0
 11
1.05
 21
0.0
 31
0.0
210
0.0
220
0.0
230
1.0
 40
0.0174550649282177
 41
4.712388980384689
 42
7.853981633974482
  0
LINE
  5
EF
330
2
100
AcDbEntity
  8
AM_HID
100
AcDbLine
 10
209.7814626647855
 20
231.0001430463715
 30
0.0
 11
246.5814626647855
 21
231.0001430463715
 31
0.0
  0
LINE
  5
F0
330
2
100
AcDbEntity
  8
AM_HID
100
AcDbLine
 10
145.7267191484989
 20
161.6506488478351
 30
0.0
 11
145.2813103599418
 21
161.205240059278
 31
0.0
  0
LINE
  5
F1
330
2
100
AcDbEntity
  8
AM_HID
100
AcDbLine
 10
144.2814626647854
 20
162.2050877544344
 30
0.0
 11
144.7268714533425
 21
162.6504965429915
 31
0.0
  0
LINE
  5
F2
330
2
100
AcDbEntity
  8
AM_HID
100
AcDbLine
 10
145.7267191484989
 20
229.7599835755646
 30
0.0
 11
145.7267191484989
 21
162.6504965429915
 31
0.0
  0
LINE
  5
F3
330
2
100
AcDbEntity
  8
AM_HID
100
AcDbLine
 10
144.7268714533425
 20
162.6504965429915
 30
0.0
 11
144.7268714533425
 21
229.7599835755646
 31
0.0
  0
LINE
  5
F4
330
2
100
AcDbEntity
  8
AM_HID
100
AcDbLine
 10
144.7268714533425
 20
229.7599835755646
 30
0.0
 11
144.2814626647854
 21
230.2053923641217
 31
0.0
  0
LINE
  5
F5
330
2
100
AcDbEntity
  8
AM_HID
100
AcDbLine
 10
145.2813103599418
 20
231.2052400592781
 30
0.0
 11
145.7267191484989
 21
230.759831270721
 31
0.0
  0
LINE
  5
F6
330
2
100
AcDbEntity
  8
AM_HID
100
AcDbLine
 10
145.7267191484989
 20
162.6504965429915
 30
0.0
 11
263.836206181072
 21
162.6504965429915
 31
0.0
  0
LINE
  5
F7
330
2
100
AcDbEntity
  8
AM_HID
100
AcDbLine
 10
263.836206181072
 20
161.6506488478351
 30
0.0
 11
145.7267191484989
 21
161.6506488478351
 31
0.0
  0
LINE
  5
F8
330
2
100
AcDbEntity
  8
AM_HID
100
AcDbLine
 10
264.8360538762284
 20
162.6504965429915
 30
0.0
 11
265.2814626647855
 21
162.2050877544344
 31
0.0
  0
LINE
  5
F9
330
2
100
AcDbEntity
  8
AM_HID
100
AcDbLine
 10
264.2816149696291
 20
161.205240059278
 30
0.0
 11
263.836206181072
 21
161.6506488478351
 31
0.0
  0
LINE
  5
FA
330
2
100
AcDbEntity
  8
AM_HID
100
AcDbLine
 10
263.836206181072
 20
229.7599835755646
 30
0.0
 11
145.7267191484989
 21
229.7599835755646
 31
0.0
  0
LINE
  5
FB
330
2
100
AcDbEntity
  8
AM_HID
100
AcDbLine
 10
145.7267191484989
 20
230.759831270721
 30
0.0
 11
263.836206181072
 21
230.759831270721
 31
0.0
  0
LINE
  5
FC
330
2
100
AcDbEntity
  8
AM_HID
100
AcDbLine
 10
263.836206181072
 20
162.6504965429915
 30
0.0
 11
263.836206181072
 21
229.7599835755646
 31
0.0
  0
LINE
  5
FD
330
2
100
AcDbEntity
  8
AM_HID
100
AcDbLine
 10
264.8360538762284
 20
229.7599835755646
 30
0.0
 11
264.8360538762284
 21
162.6504965429915
 31
0.0
  0
LINE
  5
FE
330
2
100
AcDbEntity
  8
AM_HID
100
AcDbLine
 10
263.836206181072
 20
230.759831270721
 30
0.0
 11
264.2816149696291
 21
231.2052400592781
 31
0.0
  0
LINE
  5
FF
330
2
100
AcDbEntity
  8
AM_HID
100
AcDbLine
 10
265.2814626647855
 20
230.2053923641217
 30
0.0
 11
264.8360538762284
 21
229.7599835755646
 31
0.0
  0
LINE
  5
100
330
2
100
AcDbEntity
  8
AM_HID
100
AcDbLine
 10
264.8360538762284
 20
229.7599835755646
 30
0.0
 11
263.836206181072
 21
229.7599835755646
 31
0.0
  0
ELLIPSE
  5
101
330
2
100
AcDbEntity
  8
AM_HID
100
AcDbEllipse
 10
263.836206181072
 20
229.7599835755646
 30
0.0
 11
-0.7071067811865469
 21
0.7071067811865469
 31
0.0
210
0.0
220
0.0
230
1.0
 40
0.9996954598818875
 41
3.927143110234822
 42
5.497634850534557
  0
LINE
  5
102
330
2
100
AcDbEntity
  8
AM_HID
100
AcDbLine
 10
263.836206181072
 20
229.7599835755646
 30
0.0
 11
263.836206181072
 21
230.759831270721
 31
0.0
  0
ELLIPSE
  5
103
330
2
100
AcDbEntity
  8
AM_HID
100
AcDbEllipse
 10
263.836206181072
 20
162.6504965429915
 30
0.0
 11
0.7071067811865451
 21
0.7071067811865499
 31
0.0
210
0.0
220
0.0
230
1.0
 40
0.9996954598818874
 41
3.92714311023482
 42
5.497634850534555
  0
LINE
  5
104
330
2
100
AcDbEntity
  8
AM_HID
100
AcDbLine
 10
263.836206181072
 20
162.6504965429915
 30
0.0
 11
264.8360538762284
 21
162.6504965429915
 31
0.0
  0
LINE
  5
105
330
2
100
AcDbEntity
  8
AM_HID
100
AcDbLine
 10
263.836206181072
 20
161.6506488478351
 30
0.0
 11
263.836206181072
 21
162.6504965429915
 31
0.0
  0
LINE
  5
106
330
2
100
AcDbEntity
  8
AM_HID
100
AcDbLine
 10
145.7267191484989
 20
229.7599835755646
 30
0.0
 11
144.7268714533425
 21
229.7599835755646
 31
0.0
  0
LINE
  5
107
330
2
100
AcDbEntity
  8
AM_HID
100
AcDbLine
 10
145.7267191484989
 20
230.759831270721
 30
0.0
 11
145.7267191484989
 21
229.7599835755646
 31
0.0
  0
ELLIPSE
  5
108
330
2
100
AcDbEntity
  8
AM_HID
100
AcDbEllipse
 10
145.7267191484989
 20
229.7599835755646
 30
0.0
 11
-0.7071067811865451
 21
-0.7071067811865499
 31
0.0
210
0.0
220
0.0
230
1.0
 40
0.9996954598818874
 41
3.92714311023482
 42
5.497634850534555
  0
LINE
  5
109
330
2
100
AcDbEntity
  8
AM_HID
100
AcDbLine
 10
145.7267191484989
 20
162.6504965429915
 30
0.0
 11
145.7267191484989
 21
161.6506488478351
 31
0.0
  0
LINE
  5
10A
330
2
100
AcDbEntity
  8
AM_HID
100
AcDbLine
 10
144.7268714533425
 20
162.6504965429915
 30
0.0
 11
145.7267191484989
 21
162.6504965429915
 31
0.0
  0
ELLIPSE
  5
10B
330
2
100
AcDbEntity
  8
AM_HID
100
AcDbEllipse
 10
145.7267191484989
 20
162.6504965429915
 30
0.0
 11
0.7071067811865809
 21
-0.707106781186514
 31
0.0
210
0.0
220
0.0
230
1.0
 40
0.9996954598818877
 41
3.927143110234777
 42
5.497634850534505
  0
LINE
  5
10C
330
2
100
AcDbEntity
  8
AM_VIS
100
AcDbLine
 10
163.8338278595701
 20
161.2576052540627
 30
0.0
 11
163.8338278595701
 21
163.1531795205812
 31
0.0
  0
LINE
  5
10D
330
2
100
AcDbEntity
  8
AM_VIS
100
AcDbLine
 10
167.9290974700008
 20
163.1531795205812
 30
0.0
 11
167.9290974700008
 21
161.2576052540627
 31
0.0
  0
LINE
  5
10E
330
2
100
AcDbEntity
  8
AM_VIS
100
AcDbLine
 10
245.7290974700008
 20
163.1531795205812
 30
0.0
 11
245.7290974700008
 21
161.2576052540627
 31
0.0
  0
LINE
  5
10F
330
2
100
AcDbEntity
  8
AM_VIS
100
AcDbLine
 10
163.8338278595701
 20
161.2576052540627
 30
0.0
 11
167.9290974700008
 21
161.2576052540627
 31
0.0
  0
LINE
  5
110
330
2
100
AcDbEntity
  8
AM_VIS
100
AcDbLine
 10
167.9290974700008
 20
161.2576052540627
 30
0.0
 11
167.9814626647854
 21
161.205240059278
 31
0.0
  0
LINE
  5
111
330
2
100
AcDbEntity
  8
AM_VIS
100
AcDbLine
 10
167.9814626647854
 20
161.205240059278
 30
0.0
 11
163.7814626647854
 21
161.205240059278
 31
0.0
  0
LINE
  5
112
330
2
100
AcDbEntity
  8
AM_VIS
100
AcDbLine
 10
163.7814626647854
 20
161.205240059278
 30
0.0
 11
163.8338278595701
 21
161.2576052540627
 31
0.0
  0
LINE
  5
113
330
2
100
AcDbEntity
  8
AM_VIS
100
AcDbLine
 10
245.7814626647855
 20
161.205240059278
 30
0.0
 11
241.5814626647855
 21
161.205240059278
 31
0.0
  0
LINE
  5
114
330
2
100
AcDbEntity
  8
AM_VIS
100
AcDbLine
 10
241.5814626647855
 20
161.205240059278
 30
0.0
 11
241.6338278595701
 21
161.2576052540627
 31
0.0
  0
LINE
  5
115
330
2
100
AcDbEntity
  8
AM_VIS
100
AcDbLine
 10
241.6338278595701
 20
161.2576052540627
 30
0.0
 11
245.7290974700008
 21
161.2576052540627
 31
0.0
  0
LINE
  5
116
330
2
100
AcDbEntity
  8
AM_VIS
100
AcDbLine
 10
245.7290974700008
 20
161.2576052540627
 30
0.0
 11
245.7814626647855
 21
161.205240059278
 31
0.0
  0
LINE
  5
117
330
2
100
AcDbEntity
  8
AM_VIS
100
AcDbLine
 10
235.7814626647855
 20
229.3914774811568
 30
0.0
 11
173.7814626647854
 21
229.3914774811568
 31
0.0
  0
LINE
  5
118
330
2
100
AcDbEntity
  8
AM_VIS
100
AcDbLine
 10
146.3952252429067
 20
228.5915536335787
 30
0.0
 11
146.3952252429067
 21
163.8189264849775
 31
0.0
  0
LINE
  5
119
330
2
100
AcDbEntity
  8
AM_VIS
100
AcDbLine
 10
161.7814626647854
 20
229.3914774811568
 30
0.0
 11
147.095072938063
 21
229.3914774811568
 31
0.0
  0
LINE
  5
11A
330
2
100
AcDbEntity
  8
AM_VIS
100
AcDbLine
 10
161.7814626647854
 20
163.2055447153659
 30
0.0
 11
161.7814626647854
 21
162.9055447153658
 31
0.0
  0
LINE
  5
11B
330
2
100
AcDbEntity
  8
AM_VIS
100
AcDbLine
 10
163.7814626647854
 20
161.205240059278
 30
0.0
 11
163.7814626647854
 21
163.2055447153659
 31
0.0
  0
LINE
  5
11C
330
2
100
AcDbEntity
  8
AM_VIS
100
AcDbLine
 10
145.2813103599418
 20
161.205240059278
 30
0.0
 11
163.7814626647854
 21
161.205240059278
 31
0.0
  0
ELLIPSE
  5
11D
330
2
100
AcDbEntity
  8
AM_VIS
100
AcDbEllipse
 10
145.2816149928293
 20
162.205392387322
 30
0.0
 11
-0.7073221891695809
 21
-0.7073221891695809
 31
0.0
210
0.0
220
0.0
230
1.0
 40
0.9996954598818874
 41
5.497939437029723
 42
7.068431177329451
  0
LINE
  5
11E
330
2
100
AcDbEntity
  8
AM_VIS
100
AcDbLine
 10
144.2814626647854
 20
230.2053923641217
 30
0.0
 11
144.2814626647854
 21
162.2050877544344
 31
0.0
  0
ELLIPSE
  5
11F
330
2
100
AcDbEntity
  8
AM_VIS
100
AcDbEllipse
 10
145.2816149928293
 20
230.2050877312342
 30
0.0
 11
-0.7073221891695758
 21
0.7073221891695859
 31
0.0
210
0.0
220
0.0
230
1.0
 40
0.9996954598818874
 41
5.497939437029727
 42
7.068431177329462
  0
LINE
  5
120
330
2
100
AcDbEntity
  8
AM_VIS
100
AcDbLine
 10
264.2816149696291
 20
231.2052400592781
 30
0.0
 11
145.2813103599418
 21
231.2052400592781
 31
0.0
  0
ELLIPSE
  5
121
330
2
100
AcDbEntity
  8
AM_VIS
100
AcDbEllipse
 10
264.2813103367416
 20
230.2050877312342
 30
0.0
 11
0.7073221891695809
 21
0.7073221891695809
 31
0.0
210
0.0
220
0.0
230
1.0
 40
0.9996954598818874
 41
5.497939437029723
 42
7.068431177329451
  0
LINE
  5
122
330
2
100
AcDbEntity
  8
AM_VIS
100
AcDbLine
 10
265.2814626647855
 20
162.2050877544345
 30
0.0
 11
265.2814626647855
 21
230.2053923641217
 31
0.0
  0
ELLIPSE
  5
123
330
2
100
AcDbEntity
  8
AM_VIS
100
AcDbEllipse
 10
264.2813103367416
 20
162.205392387322
 30
0.0
 11
0.7073221891695758
 21
-0.7073221891695859
 31
0.0
210
0.0
220
0.0
230
1.0
 40
0.9996954598818874
 41
5.497939437029727
 42
7.068431177329462
  0
LINE
  5
124
330
2
100
AcDbEntity
  8
AM_VIS
100
AcDbLine
 10
245.7814626647855
 20
161.205240059278
 30
0.0
 11
264.2816149696291
 21
161.205240059278
 31
0.0
  0
LINE
  5
125
330
2
100
AcDbEntity
  8
AM_VIS
100
AcDbLine
 10
245.7814626647855
 20
163.2055447153659
 30
0.0
 11
245.7814626647855
 21
161.205240059278
 31
0.0
  0
LINE
  5
126
330
2
100
AcDbEntity
  8
AM_VIS
100
AcDbLine
 10
247.7814626647855
 20
162.9055447153658
 30
0.0
 11
247.7814626647855
 21
163.2055447153659
 31
0.0
  0
LINE
  5
127
330
2
100
AcDbEntity
  8
AM_VIS
100
AcDbLine
 10
247.7814626647855
 20
229.2049354031903
 30
0.0
 11
247.7814626647855
 21
229.5049354031903
 31
0.0
  0
LINE
  5
128
330
2
100
AcDbEntity
  8
AM_VIS
100
AcDbLine
 10
235.7814626647855
 20
229.5049354031903
 30
0.0
 11
235.7814626647855
 21
229.2049354031902
 31
0.0
  0
LINE
  5
129
330
2
100
AcDbEntity
  8
AM_VIS
100
AcDbLine
 10
173.7814626647854
 20
229.5049354031903
 30
0.0
 11
235.7814626647855
 21
229.5049354031903
 31
0.0
  0
LINE
  5
12A
330
2
100
AcDbEntity
  8
AM_VIS
100
AcDbLine
 10
173.7814626647854
 20
229.2049354031902
 30
0.0
 11
173.7814626647854
 21
229.5049354031903
 31
0.0
  0
LINE
  5
12B
330
2
100
AcDbEntity
  8
AM_VIS
100
AcDbLine
 10
161.7814626647854
 20
229.5049354031903
 30
0.0
 11
161.7814626647854
 21
229.2049354031902
 31
0.0
  0
LINE
  5
12C
330
2
100
AcDbEntity
  8
AM_VIS
100
AcDbLine
 10
146.9816150160297
 20
229.5049354031903
 30
0.0
 11
161.7814626647854
 21
229.5049354031903
 31
0.0
  0
LINE
  5
12D
330
2
100
AcDbEntity
  8
AM_VIS
100
AcDbLine
 10
262.5813103135413
 20
162.9055447153658
 30
0.0
 11
247.7814626647855
 21
162.9055447153658
 31
0.0
  0
LINE
  5
12E
330
2
100
AcDbEntity
  8
AM_VIS
100
AcDbLine
 10
247.7814626647855
 20
163.0190026373993
 30
0.0
 11
262.4678523915079
 21
163.0190026373993
 31
0.0
  0
LINE
  5
12F
330
2
100
AcDbEntity
  8
AM_VIS
100
AcDbLine
 10
245.1814626647855
 20
163.3155116244136
 30
0.0
 11
245.1814626647855
 21
163.2753649750787
 31
0.0
  0
LINE
  5
130
330
2
100
AcDbEntity
  8
AM_VIS
100
AcDbLine
 10
242.1814626647855
 20
163.3155116244136
 30
0.0
 11
245.1814626647855
 21
163.3155116244136
 31
0.0
  0
LINE
  5
131
330
2
100
AcDbEntity
  8
AM_VIS
100
AcDbLine
 10
242.1814626647855
 20
163.2753649750787
 30
0.0
 11
242.1814626647855
 21
163.3155116244136
 31
0.0
  0
LINE
  5
132
330
2
100
AcDbEntity
  8
AM_VIS
100
AcDbLine
 10
245.1814626647855
 20
163.2753649750787
 30
0.0
 11
242.1814626647855
 21
163.2753649750787
 31
0.0
  0
LINE
  5
133
330
2
100
AcDbEntity
  8
AM_VIS
100
AcDbLine
 10
164.3814626647854
 20
163.3155116244136
 30
0.0
 11
167.3814626647854
 21
163.3155116244136
 31
0.0
  0
LINE
  5
134
330
2
100
AcDbEntity
  8
AM_VIS
100
AcDbLine
 10
164.3814626647854
 20
163.2753649750787
 30
0.0
 11
164.3814626647854
 21
163.3155116244136
 31
0.0
  0
LINE
  5
135
330
2
100
AcDbEntity
  8
AM_VIS
100
AcDbLine
 10
167.3814626647854
 20
163.2753649750787
 30
0.0
 11
164.3814626647854
 21
163.2753649750787
 31
0.0
  0
LINE
  5
136
330
2
100
AcDbEntity
  8
AM_VIS
100
AcDbLine
 10
167.3814626647854
 20
163.3155116244136
 30
0.0
 11
167.3814626647854
 21
163.2753649750787
 31
0.0
  0
ELLIPSE
  5
137
330
2
100
AcDbEntity
  8
AM_VIS
100
AcDbEllipse
 10
162.9814626647854
 20
163.3923139100978
 30
0.0
 11
1.05
 21
0.0
 31
0.0
210
0.0
220
0.0
230
1.0
 40
0.0174550649282177
 41
1.570796326794896
 42
4.712388980384689
  0
LINE
  5
138
330
2
100
AcDbEntity
  8
AM_VIS
100
AcDbLine
 10
246.5814626647855
 20
163.3739860919232
 30
0.0
 11
162.9814626647854
 21
163.3739860919232
 31
0.0
  0
ELLIPSE
  5
139
330
2
100
AcDbEntity
  8
AM_VIS
100
AcDbEllipse
 10
246.5814626647855
 20
163.3923139100978
 30
0.0
 11
1.05
 21
0.0
 31
0.0
210
0.0
220
0.0
230
1.0
 40
0.0174550649282177
 41
4.712388980384689
 42
7.853981633974482
  0
LINE
  5
13A
330
2
100
AcDbEntity
  8
AM_VIS
100
AcDbLine
 10
162.9814626647854
 20
163.4106417282724
 30
0.0
 11
246.5814626647855
 21
163.4106417282724
 31
0.0
  0
LINE
  5
13B
330
2
100
AcDbEntity
  8
AM_VIS
100
AcDbLine
 10
162.9814626647854
 20
163.4996625594063
 30
0.0
 11
246.5814626647855
 21
163.4996625594063
 31
0.0
  0
ELLIPSE
  5
13C
330
2
100
AcDbEntity
  8
AM_VIS
100
AcDbEllipse
 10
162.9814626647854
 20
163.4813347412317
 30
0.0
 11
1.050000000000001
 21
0.0
 31
0.0
210
0.0
220
0.0
230
1.0
 40
0.0174550649282177
 41
1.570796326794896
 42
4.712388980384689
  0
LINE
  5
13D
330
2
100
AcDbEntity
  8
AM_VIS
100
AcDbLine
 10
246.5814626647855
 20
163.4630069230571
 30
0.0
 11
162.9814626647854
 21
163.4630069230571
 31
0.0
  0
ELLIPSE
  5
13E
330
2
100
AcDbEntity
  8
AM_VIS
100
AcDbEllipse
 10
246.5814626647855
 20
163.4813347412317
 30
0.0
 11
1.050000000000001
 21
0.0
 31
0.0
210
0.0
220
0.0
230
1.0
 40
0.0174550649282177
 41
4.712388980384689
 42
7.853981633974482
  0
LINE
  5
13F
330
2
100
AcDbEntity
  8
AM_VIS
100
AcDbLine
 10
247.7814626647855
 20
163.3190026373993
 30
0.0
 11
262.6677762390861
 21
163.3190026373993
 31
0.0
  0
LINE
  5
140
330
2
100
AcDbEntity
  8
AM_VIS
100
AcDbLine
 10
247.7814626647855
 20
163.2055447153659
 30
0.0
 11
247.7814626647855
 21
163.3190026373993
 31
0.0
  0
LINE
  5
141
330
2
100
AcDbEntity
  8
AM_VIS
100
AcDbLine
 10
247.7814626647855
 20
163.2055447153659
 30
0.0
 11
245.7814626647855
 21
163.2055447153659
 31
0.0
  0
LINE
  5
142
330
2
100
AcDbEntity
  8
AM_VIS
100
AcDbLine
 10
245.7814626647855
 20
163.2055447153659
 30
0.0
 11
245.7290974700008
 21
163.1531795205812
 31
0.0
  0
LINE
  5
143
330
2
100
AcDbEntity
  8
AM_VIS
100
AcDbLine
 10
245.7290974700008
 20
163.1531795205812
 30
0.0
 11
241.6338278595701
 21
163.1531795205812
 31
0.0
  0
LINE
  5
144
330
2
100
AcDbEntity
  8
AM_VIS
100
AcDbLine
 10
241.6338278595701
 20
163.1531795205812
 30
0.0
 11
241.5814626647855
 21
163.2055447153659
 31
0.0
  0
LINE
  5
145
330
2
100
AcDbEntity
  8
AM_VIS
100
AcDbLine
 10
235.7814626647855
 20
163.3190026373993
 30
0.0
 11
235.7814626647855
 21
163.2055447153659
 31
0.0
  0
LINE
  5
146
330
2
100
AcDbEntity
  8
AM_VIS
100
AcDbLine
 10
167.9814626647855
 20
163.2055447153659
 30
0.0
 11
167.9290974700008
 21
163.1531795205812
 31
0.0
  0
LINE
  5
147
330
2
100
AcDbEntity
  8
AM_VIS
100
AcDbLine
 10
167.9290974700008
 20
163.1531795205812
 30
0.0
 11
163.8338278595701
 21
163.1531795205812
 31
0.0
  0
LINE
  5
148
330
2
100
AcDbEntity
  8
AM_VIS
100
AcDbLine
 10
163.8338278595701
 20
163.1531795205812
 30
0.0
 11
163.7814626647854
 21
163.2055447153659
 31
0.0
  0
LINE
  5
149
330
2
100
AcDbEntity
  8
AM_VIS
100
AcDbLine
 10
163.7814626647854
 20
163.2055447153659
 30
0.0
 11
161.7814626647854
 21
163.2055447153659
 31
0.0
  0
LINE
  5
14A
330
2
100
AcDbEntity
  8
AM_VIS
100
AcDbLine
 10
161.7814626647854
 20
163.3190026373993
 30
0.0
 11
161.7814626647854
 21
163.2055447153659
 31
0.0
  0
LINE
  5
14B
330
2
100
AcDbEntity
  8
AM_VIS
100
AcDbLine
 10
146.8951490904849
 20
163.3190026373993
 30
0.0
 11
161.7814626647854
 21
163.3190026373993
 31
0.0
  0
LINE
  5
14C
330
2
100
AcDbEntity
  8
AM_VIS
100
AcDbLine
 10
172.2814626647855
 20
163.3190026373993
 30
0.0
 11
235.7814626647855
 21
163.3190026373993
 31
0.0
  0
LINE
  5
14D
330
2
100
AcDbEntity
  8
AM_VIS
100
AcDbLine
 10
172.2814626647855
 20
163.0190026373993
 30
0.0
 11
235.7814626647855
 21
163.0190026373993
 31
0.0
  0
LINE
  5
14E
330
2
100
AcDbEntity
  8
AM_VIS
100
AcDbLine
 10
172.2814626647855
 20
163.2055447153659
 30
0.0
 11
172.2814626647855
 21
163.3190026373993
 31
0.0
  0
LINE
  5
14F
330
2
100
AcDbEntity
  8
AM_VIS
100
AcDbLine
 10
235.7814626647855
 20
163.2055447153659
 30
0.0
 11
235.7814626647855
 21
162.9055447153658
 31
0.0
  0
LINE
  5
150
330
2
100
AcDbEntity
  8
AM_VIS
100
AcDbLine
 10
241.5814626647855
 20
163.2055447153659
 30
0.0
 11
235.7814626647855
 21
163.2055447153659
 31
0.0
  0
LINE
  5
151
330
2
100
AcDbEntity
  8
AM_VIS
100
AcDbLine
 10
241.5814626647855
 20
161.205240059278
 30
0.0
 11
241.5814626647855
 21
163.2055447153659
 31
0.0
  0
LINE
  5
152
330
2
100
AcDbEntity
  8
AM_VIS
100
AcDbLine
 10
167.9814626647854
 20
161.205240059278
 30
0.0
 11
241.5814626647855
 21
161.205240059278
 31
0.0
  0
LINE
  5
153
330
2
100
AcDbEntity
  8
AM_VIS
100
AcDbLine
 10
167.9814626647854
 20
163.2055447153659
 30
0.0
 11
167.9814626647854
 21
161.205240059278
 31
0.0
  0
LINE
  5
154
330
2
100
AcDbEntity
  8
AM_VIS
100
AcDbLine
 10
172.2814626647855
 20
163.2055447153659
 30
0.0
 11
167.9814626647854
 21
163.2055447153659
 31
0.0
  0
LINE
  5
155
330
2
100
AcDbEntity
  8
AM_VIS
100
AcDbLine
 10
172.2814626647855
 20
162.9055447153658
 30
0.0
 11
172.2814626647855
 21
163.2055447153659
 31
0.0
  0
LINE
  5
156
330
2
100
AcDbEntity
  8
AM_VIS
100
AcDbLine
 10
235.7814626647855
 20
162.9055447153658
 30
0.0
 11
172.2814626647855
 21
162.9055447153658
 31
0.0
  0
LINE
  5
157
330
2
100
AcDbEntity
  8
AM_VIS
100
AcDbLine
 10
263.1677000866643
 20
163.8189264849775
 30
0.0
 11
263.1677000866643
 21
228.5915536335787
 31
0.0
  0
LINE
  5
158
330
2
100
AcDbEntity
  8
AM_VIS
100
AcDbLine
 10
162.9814626647855
 20
228.9474731954991
 30
0.0
 11
164.7314626647854
 21
228.9474731954991
 31
0.0
  0
LINE
  5
159
330
2
100
AcDbEntity
  8
AM_HID
100
AcDbLine
 10
164.7314626647854
 20
228.9474731954991
 30
0.0
 11
167.0314626647854
 21
228.9474731954991
 31
0.0
  0
LINE
  5
15A
330
2
100
AcDbEntity
  8
AM_VIS
100
AcDbLine
 10
167.0314626647854
 20
228.9474731954991
 30
0.0
 11
242.5314626647854
 21
228.9474731954991
 31
0.0
  0
LINE
  5
15B
330
2
100
AcDbEntity
  8
AM_HID
100
AcDbLine
 10
242.5314626647855
 20
228.9474731954991
 30
0.0
 11
244.8314626647855
 21
228.9474731954991
 31
0.0
  0
LINE
  5
15C
330
2
100
AcDbEntity
  8
AM_VIS
100
AcDbLine
 10
244.8314626647855
 20
228.9474731954991
 30
0.0
 11
246.5814626647855
 21
228.9474731954991
 31
0.0
  0
ELLIPSE
  5
15D
330
2
100
AcDbEntity
  8
AM_VIS
100
AcDbEllipse
 10
162.9814626647854
 20
228.9291453773244
 30
0.0
 11
-1.050000000000001
 21
0.0
 31
0.0
210
0.0
220
0.0
230
1.0
 40
0.0174550649282177
 41
4.712388980384689
 42
7.853981633974482
  0
LINE
  5
15E
330
2
100
AcDbEntity
  8
AM_VIS
100
AcDbLine
 10
246.5814626647855
 20
228.9108175591498
 30
0.0
 11
244.8314626647855
 21
228.9108175591498
 31
0.0
  0
LINE
  5
15F
330
2
100
AcDbEntity
  8
AM_HID
100
AcDbLine
 10
244.8314626647855
 20
228.9108175591498
 30
0.0
 11
242.5314626647855
 21
228.9108175591498
 31
0.0
  0
LINE
  5
160
330
2
100
AcDbEntity
  8
AM_VIS
100
AcDbLine
 10
242.5314626647855
 20
228.9108175591498
 30
0.0
 11
167.0314626647854
 21
228.9108175591498
 31
0.0
  0
LINE
  5
161
330
2
100
AcDbEntity
  8
AM_HID
100
AcDbLine
 10
167.0314626647854
 20
228.9108175591498
 30
0.0
 11
164.7314626647854
 21
228.9108175591498
 31
0.0
  0
LINE
  5
162
330
2
100
AcDbEntity
  8
AM_VIS
100
AcDbLine
 10
164.7314626647854
 20
228.9108175591498
 30
0.0
 11
162.9814626647854
 21
228.9108175591498
 31
0.0
  0
ELLIPSE
  5
163
330
2
100
AcDbEntity
  8
AM_VIS
100
AcDbEllipse
 10
246.5814626647855
 20
228.9291453773244
 30
0.0
 11
-1.050000000000001
 21
0.0
 31
0.0
210
0.0
220
0.0
230
1.0
 40
0.0174550649282177
 41
1.570796326794896
 42
4.712388980384689
  0
ELLIPSE
  5
164
330
2
100
AcDbEntity
  8
AM_VIS
100
AcDbEllipse
 10
246.5814626647855
 20
229.0181662084584
 30
0.0
 11
-1.05
 21
0.0
 31
0.0
210
0.0
220
0.0
230
1.0
 40
0.0174550649282177
 41
1.570796326794896
 42
4.712388980384689
  0
LINE
  5
165
330
2
100
AcDbEntity
  8
AM_VIS
100
AcDbLine
 10
162.9814626647855
 20
229.0364940266329
 30
0.0
 11
164.7314626647854
 21
229.0364940266329
 31
0.0
  0
LINE
  5
166
330
2
100
AcDbEntity
  8
AM_HID
100
AcDbLine
 10
164.7314626647854
 20
229.0364940266329
 30
0.0
 11
167.0314626647854
 21
229.0364940266329
 31
0.0
  0
LINE
  5
167
330
2
100
AcDbEntity
  8
AM_VIS
100
AcDbLine
 10
167.0314626647854
 20
229.0364940266329
 30
0.0
 11
242.5314626647855
 21
229.0364940266329
 31
0.0
  0
LINE
  5
168
330
2
100
AcDbEntity
  8
AM_HID
100
AcDbLine
 10
242.5314626647855
 20
229.0364940266329
 30
0.0
 11
244.8314626647855
 21
229.0364940266329
 31
0.0
  0
LINE
  5
169
330
2
100
AcDbEntity
  8
AM_VIS
100
AcDbLine
 10
244.8314626647855
 20
229.0364940266329
 30
0.0
 11
246.5814626647855
 21
229.0364940266329
 31
0.0
  0
ELLIPSE
  5
16A
330
2
100
AcDbEntity
  8
AM_VIS
100
AcDbEllipse
 10
162.9814626647854
 20
229.0181662084584
 30
0.0
 11
-1.05
 21
0.0
 31
0.0
210
0.0
220
0.0
230
1.0
 40
0.0174550649282177
 41
4.712388980384689
 42
7.853981633974482
  0
LINE
  5
16B
330
2
100
AcDbEntity
  8
AM_VIS
100
AcDbLine
 10
246.5814626647855
 20
228.9998383902837
 30
0.0
 11
244.8314626647855
 21
228.9998383902837
 31
0.0
  0
LINE
  5
16C
330
2
100
AcDbEntity
  8
AM_HID
100
AcDbLine
 10
244.8314626647855
 20
228.9998383902837
 30
0.0
 11
242.5314626647855
 21
228.9998383902837
 31
0.0
  0
LINE
  5
16D
330
2
100
AcDbEntity
  8
AM_VIS
100
AcDbLine
 10
242.5314626647855
 20
228.9998383902837
 30
0.0
 11
167.0314626647855
 21
228.9998383902837
 31
0.0
  0
LINE
  5
16E
330
2
100
AcDbEntity
  8
AM_HID
100
AcDbLine
 10
167.0314626647854
 20
228.9998383902837
 30
0.0
 11
164.7314626647854
 21
228.9998383902837
 31
0.0
  0
LINE
  5
16F
330
2
100
AcDbEntity
  8
AM_VIS
100
AcDbLine
 10
164.7314626647854
 20
228.9998383902837
 30
0.0
 11
162.9814626647854
 21
228.9998383902837
 31
0.0
  0
LINE
  5
170
330
2
100
AcDbEntity
  8
AM_HID
100
AcDbLine
 10
244.8314626647855
 20
229.1298786239989
 30
0.0
 11
242.5314626647855
 21
229.1298786239989
 31
0.0
  0
LINE
  5
171
330
2
100
AcDbEntity
  8
AM_VIS
100
AcDbLine
 10
242.5314626647855
 20
229.1665342603482
 30
0.0
 11
244.8314626647855
 21
229.1665342603482
 31
0.0
  0
LINE
  5
172
330
2
100
AcDbEntity
  8
AM_VIS
100
AcDbLine
 10
164.7314626647854
 20
229.1665342603482
 30
0.0
 11
167.0314626647854
 21
229.1665342603482
 31
0.0
  0
LINE
  5
173
330
2
100
AcDbEntity
  8
AM_HID
100
AcDbLine
 10
167.0314626647854
 20
229.1298786239989
 30
0.0
 11
164.7314626647854
 21
229.1298786239989
 31
0.0
  0
LINE
  5
174
330
2
100
AcDbEntity
  8
AM_VIS
100
AcDbLine
 10
161.7814626647854
 20
229.0914774811569
 30
0.0
 11
146.8951490904849
 21
229.0914774811569
 31
0.0
  0
LINE
  5
175
330
2
100
AcDbEntity
  8
AM_VIS
100
AcDbLine
 10
161.7814626647854
 20
229.2049354031902
 30
0.0
 11
161.7814626647854
 21
229.0914774811569
 31
0.0
  0
LINE
  5
176
330
2
100
AcDbEntity
  8
AM_VIS
100
AcDbLine
 10
161.7814626647854
 20
229.2049354031903
 30
0.0
 11
173.7814626647854
 21
229.2049354031903
 31
0.0
  0
LINE
  5
177
330
2
100
AcDbEntity
  8
AM_VIS
100
AcDbLine
 10
173.7814626647854
 20
229.0914774811569
 30
0.0
 11
173.7814626647854
 21
229.2049354031903
 31
0.0
  0
LINE
  5
178
330
2
100
AcDbEntity
  8
AM_VIS
100
AcDbLine
 10
235.7814626647855
 20
229.0914774811569
 30
0.0
 11
173.7814626647854
 21
229.0914774811569
 31
0.0
  0
LINE
  5
179
330
2
100
AcDbEntity
  8
AM_VIS
100
AcDbLine
 10
235.7814626647855
 20
229.2049354031902
 30
0.0
 11
235.7814626647855
 21
229.0914774811569
 31
0.0
  0
LINE
  5
17A
330
2
100
AcDbEntity
  8
AM_VIS
100
AcDbLine
 10
235.7814626647855
 20
229.2049354031903
 30
0.0
 11
247.7814626647855
 21
229.2049354031903
 31
0.0
  0
LINE
  5
17B
330
2
100
AcDbEntity
  8
AM_VIS
100
AcDbLine
 10
247.7814626647855
 20
229.0914774811569
 30
0.0
 11
247.7814626647855
 21
229.2049354031903
 31
0.0
  0
LINE
  5
17C
330
2
100
AcDbEntity
  8
AM_VIS
100
AcDbLine
 10
262.6677762390861
 20
229.0914774811569
 30
0.0
 11
247.7814626647855
 21
229.0914774811569
 31
0.0
  0
LINE
  5
17D
330
2
100
AcDbEntity
  8
AM_VIS
100
AcDbLine
 10
147.2007650431724
 20
228.7858615284693
 30
0.0
 11
146.8951490904849
 21
229.0914774811569
 31
0.0
  0
LINE
  5
17E
330
2
100
AcDbEntity
  8
AM_VIS
100
AcDbLine
 10
146.3952252429067
 20
228.5915536335787
 30
0.0
 11
146.7008411955942
 21
228.2859376808911
 31
0.0
  0
ELLIPSE
  5
17F
330
2
100
AcDbEntity
  8
AM_VIS
100
AcDbEllipse
 10
146.8953014069286
 20
228.5914013171349
 30
0.0
 11
-0.3536610945847904
 21
0.3536610945847904
 31
0.0
210
0.0
220
0.0
230
1.0
 40
0.9996954598818875
 41
5.497939437029721
 42
7.068431177329449
  0
LINE
  5
180
330
2
100
AcDbEntity
  8
AM_VIS
100
AcDbLine
 10
146.7008411955942
 20
228.2859376808911
 30
0.0
 11
146.7008411955942
 21
164.124542437665
 31
0.0
  0
LINE
  5
181
330
2
100
AcDbEntity
  8
AM_VIS
100
AcDbLine
 10
147.2007650431724
 20
164.124542437665
 30
0.0
 11
147.2007650431724
 21
228.2859376808911
 31
0.0
  0
LINE
  5
182
330
2
100
AcDbEntity
  8
AM_VIS
100
AcDbLine
 10
146.7008411955942
 20
164.124542437665
 30
0.0
 11
146.3952252429067
 21
163.8189264849775
 31
0.0
  0
LINE
  5
183
330
2
100
AcDbEntity
  8
AM_VIS
100
AcDbLine
 10
146.8951490904849
 20
163.3190026373993
 30
0.0
 11
147.2007650431724
 21
163.6246185900868
 31
0.0
  0
ELLIPSE
  5
184
330
2
100
AcDbEntity
  8
AM_VIS
100
AcDbEllipse
 10
146.8953014069286
 20
163.8190788014212
 30
0.0
 11
-0.3536610945847904
 21
-0.3536610945847904
 31
0.0
210
0.0
220
0.0
230
1.0
 40
0.9996954598818875
 41
5.497939437029735
 42
7.068431177329449
  0
LINE
  5
185
330
2
100
AcDbEntity
  8
AM_VIS
100
AcDbLine
 10
262.3621602863985
 20
228.7858615284693
 30
0.0
 11
244.8314626647855
 21
228.7858615284693
 31
0.0
  0
LINE
  5
186
330
2
100
AcDbEntity
  8
AM_HID
100
AcDbLine
 10
244.8314626647855
 20
228.7858615284693
 30
0.0
 11
242.5314626647855
 21
228.7858615284693
 31
0.0
  0
LINE
  5
187
330
2
100
AcDbEntity
  8
AM_VIS
100
AcDbLine
 10
242.5314626647855
 20
228.7858615284693
 30
0.0
 11
167.0314626647854
 21
228.7858615284693
 31
0.0
  0
LINE
  5
188
330
2
100
AcDbEntity
  8
AM_HID
100
AcDbLine
 10
167.0314626647854
 20
228.7858615284693
 30
0.0
 11
164.7314626647854
 21
228.7858615284693
 31
0.0
  0
LINE
  5
189
330
2
100
AcDbEntity
  8
AM_VIS
100
AcDbLine
 10
164.7314626647854
 20
228.7858615284693
 30
0.0
 11
147.2007650431724
 21
228.7858615284693
 31
0.0
  0
LINE
  5
18A
330
2
100
AcDbEntity
  8
AM_VIS
100
AcDbLine
 10
147.2007650431724
 20
228.2859376808911
 30
0.0
 11
164.7314626647854
 21
228.2859376808911
 31
0.0
  0
LINE
  5
18B
330
2
100
AcDbEntity
  8
AM_HID
100
AcDbLine
 10
164.7314626647854
 20
228.2859376808911
 30
0.0
 11
167.0314626647854
 21
228.2859376808911
 31
0.0
  0
LINE
  5
18C
330
2
100
AcDbEntity
  8
AM_VIS
100
AcDbLine
 10
167.0314626647854
 20
228.2859376808911
 30
0.0
 11
242.5314626647855
 21
228.2859376808911
 31
0.0
  0
LINE
  5
18D
330
2
100
AcDbEntity
  8
AM_HID
100
AcDbLine
 10
242.5314626647855
 20
228.2859376808911
 30
0.0
 11
244.8314626647855
 21
228.2859376808911
 31
0.0
  0
LINE
  5
18E
330
2
100
AcDbEntity
  8
AM_VIS
100
AcDbLine
 10
244.8314626647855
 20
228.2859376808911
 30
0.0
 11
262.3621602863985
 21
228.2859376808911
 31
0.0
  0
LINE
  5
18F
330
2
100
AcDbEntity
  8
AM_VIS
100
AcDbLine
 10
262.8620841339767
 20
228.2859376808911
 30
0.0
 11
263.1677000866643
 21
228.5915536335787
 31
0.0
  0
LINE
  5
190
330
2
100
AcDbEntity
  8
AM_VIS
100
AcDbLine
 10
262.6677762390861
 20
229.0914774811569
 30
0.0
 11
262.3621602863985
 21
228.7858615284693
 31
0.0
  0
ELLIPSE
  5
191
330
2
100
AcDbEntity
  8
AM_VIS
100
AcDbEllipse
 10
262.6676239226423
 20
228.5914013171349
 30
0.0
 11
0.3536610945847904
 21
0.3536610945847904
 31
0.0
210
0.0
220
0.0
230
1.0
 40
0.9996954598818875
 41
5.497939437029707
 42
7.068431177329449
  0
LINE
  5
192
330
2
100
AcDbEntity
  8
AM_VIS
100
AcDbLine
 10
147.2007650431724
 20
163.6246185900868
 30
0.0
 11
262.3621602863985
 21
163.6246185900868
 31
0.0
  0
LINE
  5
193
330
2
100
AcDbEntity
  8
AM_VIS
100
AcDbLine
 10
262.3621602863985
 20
164.124542437665
 30
0.0
 11
147.2007650431724
 21
164.124542437665
 31
0.0
  0
LINE
  5
194
330
2
100
AcDbEntity
  8
AM_VIS
100
AcDbLine
 10
262.8620841339767
 20
164.124542437665
 30
0.0
 11
262.8620841339767
 21
228.2859376808911
 31
0.0
  0
LINE
  5
195
330
2
100
AcDbEntity
  8
AM_VIS
100
AcDbLine
 10
262.3621602863985
 20
228.2859376808911
 30
0.0
 11
262.3621602863985
 21
164.124542437665
 31
0.0
  0
LINE
  5
196
330
2
100
AcDbEntity
  8
AM_VIS
100
AcDbLine
 10
262.3621602863985
 20
163.6246185900868
 30
0.0
 11
262.6677762390861
 21
163.3190026373993
 31
0.0
  0
LINE
  5
197
330
2
100
AcDbEntity
  8
AM_VIS
100
AcDbLine
 10
263.1677000866643
 20
163.8189264849775
 30
0.0
 11
262.8620841339767
 21
164.124542437665
 31
0.0
  0
ELLIPSE
  5
198
330
2
100
AcDbEntity
  8
AM_VIS
100
AcDbEllipse
 10
262.6676239226423
 20
163.8190788014212
 30
0.0
 11
0.3536610945847904
 21
-0.3536610945847904
 31
0.0
210
0.0
220
0.0
230
1.0
 40
0.9996954598818875
 41
5.497939437029721
 42
7.068431177329449
  0
LINE
  5
199
330
2
100
AcDbEntity
  8
AM_VIS
100
AcDbLine
 10
262.8620841339767
 20
164.124542437665
 30
0.0
 11
262.3621602863985
 21
164.124542437665
 31
0.0
  0
ELLIPSE
  5
19A
330
2
100
AcDbEntity
  8
AM_VIS
100
AcDbEllipse
 10
262.3621602863985
 20
164.124542437665
 30
0.0
 11
-0.3535533905932709
 21
-0.3535533905932759
 31
0.0
210
0.0
220
0.0
230
1.0
 40
0.9996954598818875
 41
0.7855504566450248
 42
2.356042196944759
  0
LINE
  5
19B
330
2
100
AcDbEntity
  8
AM_VIS
100
AcDbLine
 10
262.3621602863985
 20
164.124542437665
 30
0.0
 11
262.3621602863985
 21
163.6246185900868
 31
0.0
  0
ELLIPSE
  5
19C
330
2
100
AcDbEntity
  8
AM_VIS
100
AcDbEllipse
 10
262.3621602863985
 20
228.2859376808911
 30
0.0
 11
0.3535533905933097
 21
-0.3535533905932377
 31
0.0
210
0.0
220
0.0
230
1.0
 40
0.999695459881887
 41
0.7855504566449169
 42
2.356042196944665
  0
LINE
  5
19D
330
2
100
AcDbEntity
  8
AM_VIS
100
AcDbLine
 10
262.3621602863985
 20
228.2859376808911
 30
0.0
 11
262.8620841339767
 21
228.2859376808911
 31
0.0
  0
LINE
  5
19E
330
2
100
AcDbEntity
  8
AM_VIS
100
AcDbLine
 10
262.3621602863985
 20
228.7858615284693
 30
0.0
 11
262.3621602863985
 21
228.2859376808911
 31
0.0
  0
LINE
  5
19F
330
2
100
AcDbEntity
  8
AM_VIS
100
AcDbLine
 10
147.2007650431724
 20
164.124542437665
 30
0.0
 11
146.7008411955942
 21
164.124542437665
 31
0.0
  0
LINE
  5
1A0
330
2
100
AcDbEntity
  8
AM_VIS
100
AcDbLine
 10
147.2007650431724
 20
163.6246185900868
 30
0.0
 11
147.2007650431724
 21
164.124542437665
 31
0.0
  0
ELLIPSE
  5
1A1
330
2
100
AcDbEntity
  8
AM_VIS
100
AcDbEllipse
 10
147.2007650431724
 20
164.124542437665
 30
0.0
 11
-0.3535533905933097
 21
0.3535533905932377
 31
0.0
210
0.0
220
0.0
230
1.0
 40
0.999695459881887
 41
0.7855504566449169
 42
2.356042196944665
  0
LINE
  5
1A2
330
2
100
AcDbEntity
  8
AM_VIS
100
AcDbLine
 10
147.2007650431724
 20
228.2859376808911
 30
0.0
 11
147.2007650431724
 21
228.7858615284693
 31
0.0
  0
LINE
  5
1A3
330
2
100
AcDbEntity
  8
AM_VIS
100
AcDbLine
 10
146.7008411955942
 20
228.2859376808911
 30
0.0
 11
147.2007650431724
 21
228.2859376808911
 31
0.0
  0
ELLIPSE
  5
1A4
330
2
100
AcDbEntity
  8
AM_VIS
100
AcDbEllipse
 10
147.2007650431724
 20
228.2859376808911
 30
0.0
 11
0.3535533905932712
 21
0.3535533905932762
 31
0.0
210
0.0
220
0.0
230
1.0
 40
0.9996954598818874
 41
0.7855504566450248
 42
2.356042196944759
  0
LINE
  5
1A5
330
2
100
AcDbEntity
  8
AM_VIS
100
AcDbLine
 10
263.5811580086977
 20
228.5050877080339
 30
0.0
 11
263.5811580086977
 21
163.9053924105222
 31
0.0
  0
LINE
  5
1A6
330
2
100
AcDbEntity
  8
AM_VIS
100
AcDbLine
 10
263.4677000866643
 20
164.0188503325557
 30
0.0
 11
263.4677000866643
 21
228.3916297860005
 31
0.0
  0
LINE
  5
1A7
330
2
100
AcDbEntity
  8
AM_VIS
100
AcDbLine
 10
263.5811580086977
 20
163.9053924105222
 30
0.0
 11
263.4677000866643
 21
164.0188503325557
 31
0.0
  0
ELLIPSE
  5
1A8
330
2
100
AcDbEntity
  8
AM_VIS
100
AcDbEllipse
 10
262.5810056806537
 20
163.9056970434097
 30
0.0
 11
0.7073221891695809
 21
-0.7073221891695809
 31
0.0
210
0.0
220
0.0
230
1.0
 40
0.9996954598818874
 41
5.497939437029714
 42
7.068431177329456
  0
LINE
  5
1A9
330
2
100
AcDbEntity
  8
AM_VIS
100
AcDbLine
 10
262.4678523915079
 20
163.0190026373993
 30
0.0
 11
262.5813103135413
 21
162.9055447153658
 31
0.0
  0
ELLIPSE
  5
1AA
330
2
100
AcDbEntity
  8
AM_VIS
100
AcDbEllipse
 10
262.4675477586203
 20
164.0191549654432
 30
0.0
 11
0.7073221891695809
 21
-0.7073221891695809
 31
0.0
210
0.0
220
0.0
230
1.0
 40
0.9996954598818874
 41
5.497939437029721
 42
7.068431177329456
  0
LINE
  5
1AB
330
2
100
AcDbEntity
  8
AM_VIS
100
AcDbLine
 10
262.4678523915079
 20
229.3914774811568
 30
0.0
 11
247.7814626647855
 21
229.3914774811568
 31
0.0
  0
LINE
  5
1AC
330
2
100
AcDbEntity
  8
AM_VIS
100
AcDbLine
 10
247.7814626647855
 20
229.5049354031903
 30
0.0
 11
262.5813103135413
 21
229.5049354031903
 31
0.0
  0
LINE
  5
1AD
330
2
100
AcDbEntity
  8
AM_VIS
100
AcDbLine
 10
262.5813103135413
 20
229.5049354031903
 30
0.0
 11
262.4678523915079
 21
229.3914774811568
 31
0.0
  0
ELLIPSE
  5
1AE
330
2
100
AcDbEntity
  8
AM_VIS
100
AcDbEllipse
 10
262.5810056806537
 20
228.5047830751464
 30
0.0
 11
0.7073221891695809
 21
0.7073221891695809
 31
0.0
210
0.0
220
0.0
230
1.0
 40
0.9996954598818874
 41
5.497939437029721
 42
7.068431177329442
  0
LINE
  5
1AF
330
2
100
AcDbEntity
  8
AM_VIS
100
AcDbLine
 10
263.4677000866643
 20
228.3916297860005
 30
0.0
 11
263.5811580086977
 21
228.5050877080339
 31
0.0
  0
ELLIPSE
  5
1B0
330
2
100
AcDbEntity
  8
AM_VIS
100
AcDbEllipse
 10
262.4675477586203
 20
228.3913251531129
 30
0.0
 11
0.7073221891695809
 21
0.7073221891695809
 31
0.0
210
0.0
220
0.0
230
1.0
 40
0.9996954598818874
 41
5.497939437029721
 42
7.068431177329449
  0
LINE
  5
1B1
330
2
100
AcDbEntity
  8
AM_VIS
100
AcDbLine
 10
145.9817673208733
 20
163.9053924105222
 30
0.0
 11
145.9817673208733
 21
228.5050877080339
 31
0.0
  0
LINE
  5
1B2
330
2
100
AcDbEntity
  8
AM_VIS
100
AcDbLine
 10
146.0952252429067
 20
228.3916297860005
 30
0.0
 11
146.0952252429067
 21
164.0188503325557
 31
0.0
  0
LINE
  5
1B3
330
2
100
AcDbEntity
  8
AM_VIS
100
AcDbLine
 10
145.9817673208733
 20
228.5050877080339
 30
0.0
 11
146.0952252429067
 21
228.3916297860005
 31
0.0
  0
ELLIPSE
  5
1B4
330
2
100
AcDbEntity
  8
AM_VIS
100
AcDbEllipse
 10
146.9819196489172
 20
228.5047830751464
 30
0.0
 11
-0.7073221891695809
 21
0.7073221891695809
 31
0.0
210
0.0
220
0.0
230
1.0
 40
0.9996954598818874
 41
5.497939437029707
 42
7.068431177329456
  0
LINE
  5
1B5
330
2
100
AcDbEntity
  8
AM_VIS
100
AcDbLine
 10
147.095072938063
 20
229.3914774811568
 30
0.0
 11
146.9816150160297
 21
229.5049354031903
 31
0.0
  0
ELLIPSE
  5
1B6
330
2
100
AcDbEntity
  8
AM_VIS
100
AcDbEllipse
 10
147.0953775709506
 20
228.3913251531129
 30
0.0
 11
-0.7073221891695809
 21
0.7073221891695809
 31
0.0
210
0.0
220
0.0
230
1.0
 40
0.9996954598818874
 41
5.497939437029721
 42
7.068431177329456
  0
LINE
  5
1B7
330
2
100
AcDbEntity
  8
AM_VIS
100
AcDbLine
 10
147.095072938063
 20
163.0190026373993
 30
0.0
 11
161.7814626647854
 21
163.0190026373993
 31
0.0
  0
LINE
  5
1B8
330
2
100
AcDbEntity
  8
AM_VIS
100
AcDbLine
 10
161.7814626647854
 20
162.9055447153658
 30
0.0
 11
146.9816150160297
 21
162.9055447153658
 31
0.0
  0
LINE
  5
1B9
330
2
100
AcDbEntity
  8
AM_VIS
100
AcDbLine
 10
146.9816150160297
 20
162.9055447153658
 30
0.0
 11
147.095072938063
 21
163.0190026373993
 31
0.0
  0
ELLIPSE
  5
1BA
330
2
100
AcDbEntity
  8
AM_VIS
100
AcDbEllipse
 10
146.9819196489172
 20
163.9056970434098
 30
0.0
 11
-0.7073221891695809
 21
-0.7073221891695809
 31
0.0
210
0.0
220
0.0
230
1.0
 40
0.9996954598818874
 41
5.497939437029721
 42
7.068431177329442
  0
LINE
  5
1BB
330
2
100
AcDbEntity
  8
AM_VIS
100
AcDbLine
 10
146.0952252429067
 20
164.0188503325557
 30
0.0
 11
145.9817673208733
 21
163.9053924105222
 31
0.0
  0
ELLIPSE
  5
1BC
330
2
100
AcDbEntity
  8
AM_VIS
100
AcDbEllipse
 10
147.0953775709506
 20
164.0191549654432
 30
0.0
 11
-0.7073221891695809
 21
-0.7073221891695809
 31
0.0
210
0.0
220
0.0
230
1.0
 40
0.9996954598818874
 41
5.497939437029721
 42
7.068431177329449
  0
LINE
  5
1BD
330
2
100
AcDbEntity
  8
AM_HID
100
AcDbLine
 10
247.6314626647855
 20
229.0181662084584
 30
0.0
 11
247.6314626647855
 21
231.0184708645461
 31
0.0
  0
LINE
  5
1BE
330
2
100
AcDbEntity
  8
AM_HID
100
AcDbLine
 10
247.6314626647855
 20
161.39200925401
 30
0.0
 11
247.6314626647855
 21
163.3923139100978
 31
0.0
  0
LINE
  5
1BF
330
2
100
AcDbEntity
  8
AM_HID
100
AcDbLine
 10
161.9314626647854
 20
229.0181662084584
 30
0.0
 11
161.9314626647854
 21
231.0184708645461
 31
0.0
  0
LINE
  5
1C0
330
2
100
AcDbEntity
  8
AM_HID
100
AcDbLine
 10
161.9314626647854
 20
161.39200925401
 30
0.0
 11
161.9314626647854
 21
163.3923139100978
 31
0.0
  0
LINE
  5
1C1
330
2
100
AcDbEntity
  8
AM_HID
100
AcDbLine
 10
247.6314626647855
 20
228.9291453773244
 30
0.0
 11
247.6314626647855
 21
229.0181662084584
 31
0.0
  0
LINE
  5
1C2
330
2
100
AcDbEntity
  8
AM_HID
100
AcDbLine
 10
247.6314626647855
 20
163.3923139100978
 30
0.0
 11
247.6314626647855
 21
163.4813347412317
 31
0.0
  0
LINE
  5
1C3
330
2
100
AcDbEntity
  8
AM_HID
100
AcDbLine
 10
161.9314626647854
 20
228.9291453773244
 30
0.0
 11
161.9314626647854
 21
229.0181662084584
 31
0.0
  0
LINE
  5
1C4
330
2
100
AcDbEntity
  8
AM_HID
100
AcDbLine
 10
161.9314626647854
 20
163.3923139100978
 30
0.0
 11
161.9314626647854
 21
163.4813347412317
 31
0.0
  0
LINE
  5
1C5
330
2
100
AcDbEntity
  8
AM_HID
100
AcDbLine
 10
244.8314626647855
 20
122.7747008586183
 30
0.0
 11
242.5314626647855
 21
122.7747008586183
 31
0.0
  0
LINE
  5
1C6
330
2
100
AcDbEntity
  8
AM_HID
100
AcDbLine
 10
167.0314626647854
 20
122.7747008586183
 30
0.0
 11
164.7314626647854
 21
122.7747008586183
 31
0.0
  0
LINE
  5
1C7
330
2
100
AcDbEntity
  8
AM_HID
100
AcDbLine
 10
199.7814626647855
 20
134.2747008586183
 30
0.0
 11
209.7814626647855
 21
134.2747008586183
 31
0.0
  0
LINE
  5
1C8
330
2
100
AcDbEntity
  8
AM_HID
100
AcDbLine
 10
209.7814626647855
 20
136.3747008586183
 30
0.0
 11
199.7814626647855
 21
136.3747008586183
 31
0.0
  0
LINE
  5
1C9
330
2
100
AcDbEntity
  8
AM_HID
100
AcDbLine
 10
209.7814626647855
 20
131.2747008586183
 30
0.0
 11
199.7814626647855
 21
131.2747008586183
 31
0.0
  0
LINE
  5
1CA
330
2
100
AcDbEntity
  8
AM_HID
100
AcDbLine
 10
199.7814626647855
 20
129.1747008586183
 30
0.0
 11
209.7814626647855
 21
129.1747008586183
 31
0.0
  0
LINE
  5
1CB
330
2
100
AcDbEntity
  8
AM_VIS
100
AcDbLine
 10
209.7814626647855
 20
136.3747008586183
 30
0.0
 11
209.7814626647855
 21
134.2747008586183
 31
0.0
  0
LINE
  5
1CC
330
2
100
AcDbEntity
  8
AM_VIS
100
AcDbLine
 10
246.5814626647855
 20
134.2747008586183
 30
0.0
 11
209.7814626647855
 21
134.2747008586183
 31
0.0
  0
ARC
  5
1CD
330
2
100
AcDbEntity
  8
AM_VIS
100
AcDbCircle
 10
246.5814626647855
 20
135.3247008586183
 30
0.0
 40
1.050000000000001
100
AcDbArc
 50
270.0
 51
90.0
  0
LINE
  5
1CE
330
2
100
AcDbEntity
  8
AM_VIS
100
AcDbLine
 10
209.7814626647855
 20
136.3747008586183
 30
0.0
 11
246.5814626647855
 21
136.3747008586183
 31
0.0
  0
LINE
  5
1CF
330
2
100
AcDbEntity
  8
AM_VIS
100
AcDbLine
 10
199.7814626647855
 20
129.1747008586183
 30
0.0
 11
199.7814626647855
 21
131.2747008586183
 31
0.0
  0
LINE
  5
1D0
330
2
100
AcDbEntity
  8
AM_VIS
100
AcDbLine
 10
162.9814626647854
 20
131.2747008586183
 30
0.0
 11
199.7814626647855
 21
131.2747008586183
 31
0.0
  0
ARC
  5
1D1
330
2
100
AcDbEntity
  8
AM_VIS
100
AcDbCircle
 10
162.9814626647854
 20
130.2247008586183
 30
0.0
 40
1.05
100
AcDbArc
 50
90.0
 51
270.0
  0
LINE
  5
1D2
330
2
100
AcDbEntity
  8
AM_VIS
100
AcDbLine
 10
199.7814626647855
 20
129.1747008586183
 30
0.0
 11
162.9814626647855
 21
129.1747008586183
 31
0.0
  0
LINE
  5
1D3
330
2
100
AcDbEntity
  8
AM_VIS
100
AcDbLine
 10
162.9814626647854
 20
136.3747008586183
 30
0.0
 11
199.7814626647855
 21
136.3747008586183
 31
0.0
  0
ARC
  5
1D4
330
2
100
AcDbEntity
  8
AM_VIS
100
AcDbCircle
 10
162.9814626647854
 20
135.3247008586183
 30
0.0
 40
1.050000000000001
100
AcDbArc
 50
90.0
 51
270.0
  0
LINE
  5
1D5
330
2
100
AcDbEntity
  8
AM_VIS
100
AcDbLine
 10
199.7814626647855
 20
134.2747008586183
 30
0.0
 11
162.9814626647855
 21
134.2747008586183
 31
0.0
  0
LINE
  5
1D6
330
2
100
AcDbEntity
  8
AM_VIS
100
AcDbLine
 10
199.7814626647855
 20
134.2747008586183
 30
0.0
 11
199.7814626647855
 21
136.3747008586183
 31
0.0
  0
LINE
  5
1D7
330
2
100
AcDbEntity
  8
AM_VIS
100
AcDbLine
 10
246.5814626647855
 20
129.1747008586183
 30
0.0
 11
209.7814626647855
 21
129.1747008586183
 31
0.0
  0
ARC
  5
1D8
330
2
100
AcDbEntity
  8
AM_VIS
100
AcDbCircle
 10
246.5814626647855
 20
130.2247008586183
 30
0.0
 40
1.05
100
AcDbArc
 50
270.0
 51
90.0
  0
LINE
  5
1D9
330
2
100
AcDbEntity
  8
AM_VIS
100
AcDbLine
 10
209.7814626647855
 20
131.2747008586183
 30
0.0
 11
246.5814626647855
 21
131.2747008586183
 31
0.0
  0
LINE
  5
1DA
330
2
100
AcDbEntity
  8
AM_VIS
100
AcDbLine
 10
209.7814626647855
 20
131.2747008586183
 30
0.0
 11
209.7814626647855
 21
129.1747008586183
 31
0.0
  0
LINE
  5
1DB
330
2
100
AcDbEntity
  8
AM_VIS
100
AcDbLine
 10
144.7268714533425
 20
145.0421532650556
 30
0.0
 11
144.2814626647854
 21
119.5247008586183
 31
0.0
  0
LINE
  5
1DC
330
2
100
AcDbEntity
  8
AM_VIS
100
AcDbLine
 10
145.2813103599418
 20
119.5247008586183
 30
0.0
 11
145.7267191484989
 21
145.0421532650556
 31
0.0
  0
LINE
  5
1DD
330
2
100
AcDbEntity
  8
AM_VIS
100
AcDbLine
 10
263.836206181072
 20
146.0247008586183
 30
0.0
 11
145.7267191484989
 21
146.0247008586183
 31
0.0
  0
LINE
  5
1DE
330
2
100
AcDbEntity
  8
AM_VIS
100
AcDbLine
 10
145.7267191484989
 20
145.0421532650556
 30
0.0
 11
263.836206181072
 21
145.0421532650556
 31
0.0
  0
LINE
  5
1DF
330
2
100
AcDbEntity
  8
AM_VIS
100
AcDbLine
 10
263.836206181072
 20
145.0421532650556
 30
0.0
 11
264.2816149696291
 21
119.5247008586183
 31
0.0
  0
LINE
  5
1E0
330
2
100
AcDbEntity
  8
AM_VIS
100
AcDbLine
 10
265.2814626647855
 20
119.5247008586183
 30
0.0
 11
264.8360538762284
 21
145.0421532650556
 31
0.0
  0
ARC
  5
1E1
330
2
100
AcDbEntity
  8
AM_VIS
100
AcDbCircle
 10
263.836206181072
 20
145.0247008586183
 30
0.0
 40
0.9999999999999998
100
AcDbArc
 50
1.00000000000054
 51
90.0
  0
ELLIPSE
  5
1E2
330
2
100
AcDbEntity
  8
AM_VIS
100
AcDbEllipse
 10
263.836206181072
 20
145.0247008586183
 30
0.0
 11
0.9998476951563901
 21
0.0174524064372825
 31
0.0
210
0.0
220
0.0
230
1.0
 40
0.0174497491606835
 41
0.0000000000000515
 42
1.570491740299786
  0
LINE
  5
1E3
330
2
100
AcDbEntity
  8
AM_VIS
100
AcDbLine
 10
263.836206181072
 20
145.0421532650556
 30
0.0
 11
263.836206181072
 21
146.0247008586183
 31
0.0
  0
ARC
  5
1E4
330
2
100
AcDbEntity
  8
AM_VIS
100
AcDbCircle
 10
145.7267191484989
 20
145.0247008586183
 30
0.0
 40
0.9999999999999998
100
AcDbArc
 50
90.0
 51
178.9999999999998
  0
LINE
  5
1E5
330
2
100
AcDbEntity
  8
AM_VIS
100
AcDbLine
 10
145.7267191484989
 20
146.0247008586183
 30
0.0
 11
145.7267191484989
 21
145.0421532650556
 31
0.0
  0
ELLIPSE
  5
1E6
330
2
100
AcDbEntity
  8
AM_VIS
100
AcDbEllipse
 10
145.7267191484989
 20
145.0247008586183
 30
0.0
 11
-0.9998476951563912
 21
0.017452406437288
 31
0.0
210
0.0
220
0.0
230
1.0
 40
0.0174497491606871
 41
4.712693566879753
 42
6.283185307179488
  0
LINE
  5
1E7
330
2
100
AcDbEntity
  8
AM_HID
100
AcDbLine
 10
235.7814626647855
 20
126.0247008586183
 30
0.0
 11
173.7814626647854
 21
126.0247008586183
 31
0.0
  0
LINE
  5
1E8
330
2
100
AcDbEntity
  8
AM_HID
100
AcDbLine
 10
235.7814626647855
 20
119.5247008586183
 30
0.0
 11
235.7814626647855
 21
126.0247008586183
 31
0.0
  0
LINE
  5
1E9
330
2
100
AcDbEntity
  8
AM_HID
100
AcDbLine
 10
173.7814626647854
 20
126.0247008586183
 30
0.0
 11
173.7814626647854
 21
119.5247008586183
 31
0.0
  0
LINE
  5
1EA
330
2
100
AcDbEntity
  8
AM_HID
100
AcDbLine
 10
161.7814626647854
 20
119.5247008586183
 30
0.0
 11
161.7814626647854
 21
126.0247008586183
 31
0.0
  0
LINE
  5
1EB
330
2
100
AcDbEntity
  8
AM_HID
100
AcDbLine
 10
161.7814626647854
 20
126.0247008586183
 30
0.0
 11
147.095072938063
 21
126.0247008586183
 31
0.0
  0
LINE
  5
1EC
330
2
100
AcDbEntity
  8
AM_VIS
100
AcDbLine
 10
145.2813103599418
 20
119.5247008586183
 30
0.0
 11
144.2814626647854
 21
119.5247008586183
 31
0.0
  0
LINE
  5
1ED
330
2
100
AcDbEntity
  8
AM_VIS
100
AcDbLine
 10
264.2816149696291
 20
119.5247008586183
 30
0.0
 11
145.2813103599418
 21
119.5247008586183
 31
0.0
  0
LINE
  5
1EE
330
2
100
AcDbEntity
  8
AM_VIS
100
AcDbLine
 10
265.2814626647855
 20
119.5247008586183
 30
0.0
 11
264.2816149696291
 21
119.5247008586183
 31
0.0
  0
LINE
  5
1EF
330
2
100
AcDbEntity
  8
AM_HID
100
AcDbLine
 10
245.1814626647855
 20
125.8247008586183
 30
0.0
 11
245.1814626647855
 21
123.5247008586183
 31
0.0
  0
LINE
  5
1F0
330
2
100
AcDbEntity
  8
AM_HID
100
AcDbLine
 10
242.1814626647855
 20
125.8247008586183
 30
0.0
 11
245.1814626647855
 21
125.8247008586183
 31
0.0
  0
LINE
  5
1F1
330
2
100
AcDbEntity
  8
AM_HID
100
AcDbLine
 10
242.1814626647855
 20
123.5247008586183
 30
0.0
 11
242.1814626647855
 21
125.8247008586183
 31
0.0
  0
LINE
  5
1F2
330
2
100
AcDbEntity
  8
AM_HID
100
AcDbLine
 10
245.1814626647855
 20
123.5247008586183
 30
0.0
 11
242.1814626647855
 21
123.5247008586183
 31
0.0
  0
LINE
  5
1F3
330
2
100
AcDbEntity
  8
AM_HID
100
AcDbLine
 10
164.3814626647854
 20
125.8247008586183
 30
0.0
 11
167.3814626647854
 21
125.8247008586183
 31
0.0
  0
LINE
  5
1F4
330
2
100
AcDbEntity
  8
AM_HID
100
AcDbLine
 10
164.3814626647854
 20
123.5247008586183
 30
0.0
 11
164.3814626647854
 21
125.8247008586183
 31
0.0
  0
LINE
  5
1F5
330
2
100
AcDbEntity
  8
AM_HID
100
AcDbLine
 10
167.3814626647854
 20
123.5247008586183
 30
0.0
 11
164.3814626647854
 21
123.5247008586183
 31
0.0
  0
LINE
  5
1F6
330
2
100
AcDbEntity
  8
AM_HID
100
AcDbLine
 10
167.3814626647854
 20
125.8247008586183
 30
0.0
 11
167.3814626647854
 21
123.5247008586183
 31
0.0
  0
LINE
  5
1F7
330
2
100
AcDbEntity
  8
AM_VIS
100
AcDbLine
 10
245.7814626647855
 20
119.5247008586183
 30
0.0
 11
245.7290974700008
 21
116.5247008586183
 31
0.0
  0
LINE
  5
1F8
330
2
100
AcDbEntity
  8
AM_VIS
100
AcDbLine
 10
245.7290974700008
 20
116.5247008586183
 30
0.0
 11
241.6338278595701
 21
116.5247008586183
 31
0.0
  0
LINE
  5
1F9
330
2
100
AcDbEntity
  8
AM_VIS
100
AcDbLine
 10
241.6338278595701
 20
116.5247008586183
 30
0.0
 11
241.5814626647855
 21
119.5247008586183
 31
0.0
  0
LINE
  5
1FA
330
2
100
AcDbEntity
  8
AM_VIS
100
AcDbLine
 10
167.9814626647855
 20
119.5247008586183
 30
0.0
 11
167.9290974700008
 21
116.5247008586183
 31
0.0
  0
LINE
  5
1FB
330
2
100
AcDbEntity
  8
AM_VIS
100
AcDbLine
 10
167.9290974700008
 20
116.5247008586183
 30
0.0
 11
163.8338278595701
 21
116.5247008586183
 31
0.0
  0
LINE
  5
1FC
330
2
100
AcDbEntity
  8
AM_VIS
100
AcDbLine
 10
163.8338278595701
 20
116.5247008586183
 30
0.0
 11
163.7814626647854
 21
119.5247008586183
 31
0.0
  0
LINE
  5
1FD
330
2
100
AcDbEntity
  8
AM_HID
100
AcDbLine
 10
172.2814626647855
 20
126.0247008586183
 30
0.0
 11
173.7814626647854
 21
126.0247008586183
 31
0.0
  0
LINE
  5
1FE
330
2
100
AcDbEntity
  8
AM_HID
100
AcDbLine
 10
172.2814626647855
 20
119.5247008586183
 30
0.0
 11
172.2814626647855
 21
126.0247008586183
 31
0.0
  0
LINE
  5
1FF
330
2
100
AcDbEntity
  8
AM_HID
100
AcDbLine
 10
242.5314626647855
 20
123.8247008586183
 30
0.0
 11
242.5314626647855
 21
121.7247008586183
 31
0.0
  0
LINE
  5
200
330
2
100
AcDbEntity
  8
AM_HID
100
AcDbLine
 10
244.8314626647855
 20
123.8247008586183
 30
0.0
 11
242.5314626647855
 21
123.8247008586183
 31
0.0
  0
LINE
  5
201
330
2
100
AcDbEntity
  8
AM_HID
100
AcDbLine
 10
244.8314626647855
 20
121.7247008586183
 30
0.0
 11
244.8314626647855
 21
123.8247008586183
 31
0.0
  0
LINE
  5
202
330
2
100
AcDbEntity
  8
AM_HID
100
AcDbLine
 10
242.5314626647855
 20
121.7247008586183
 30
0.0
 11
244.8314626647855
 21
121.7247008586183
 31
0.0
  0
LINE
  5
203
330
2
100
AcDbEntity
  8
AM_HID
100
AcDbLine
 10
164.7314626647854
 20
121.7247008586183
 30
0.0
 11
167.0314626647854
 21
121.7247008586183
 31
0.0
  0
LINE
  5
204
330
2
100
AcDbEntity
  8
AM_HID
100
AcDbLine
 10
164.7314626647854
 20
123.8247008586183
 30
0.0
 11
164.7314626647854
 21
121.7247008586183
 31
0.0
  0
LINE
  5
205
330
2
100
AcDbEntity
  8
AM_HID
100
AcDbLine
 10
167.0314626647854
 20
123.8247008586183
 30
0.0
 11
164.7314626647854
 21
123.8247008586183
 31
0.0
  0
LINE
  5
206
330
2
100
AcDbEntity
  8
AM_HID
100
AcDbLine
 10
167.0314626647854
 20
121.7247008586183
 30
0.0
 11
167.0314626647854
 21
123.8247008586183
 31
0.0
  0
LINE
  5
207
330
2
100
AcDbEntity
  8
AM_HID
100
AcDbLine
 10
147.2007650431724
 20
143.533427061837
 30
0.0
 11
146.8951490904849
 21
126.0247008586183
 31
0.0
  0
LINE
  5
208
330
2
100
AcDbEntity
  8
AM_HID
100
AcDbLine
 10
146.3952252429067
 20
126.0247008586183
 30
0.0
 11
146.7008411955942
 21
143.533427061837
 31
0.0
  0
LINE
  5
209
330
2
100
AcDbEntity
  8
AM_HID
100
AcDbLine
 10
262.3621602863985
 20
143.533427061837
 30
0.0
 11
147.2007650431724
 21
143.533427061837
 31
0.0
  0
LINE
  5
20A
330
2
100
AcDbEntity
  8
AM_HID
100
AcDbLine
 10
147.2007650431724
 20
144.0247008586183
 30
0.0
 11
262.3621602863985
 21
144.0247008586183
 31
0.0
  0
LINE
  5
20B
330
2
100
AcDbEntity
  8
AM_HID
100
AcDbLine
 10
262.8620841339767
 20
143.533427061837
 30
0.0
 11
263.1677000866643
 21
126.0247008586183
 31
0.0
  0
LINE
  5
20C
330
2
100
AcDbEntity
  8
AM_HID
100
AcDbLine
 10
262.6677762390861
 20
126.0247008586183
 30
0.0
 11
262.3621602863985
 21
143.533427061837
 31
0.0
  0
ELLIPSE
  5
20D
330
2
100
AcDbEntity
  8
AM_HID
100
AcDbEllipse
 10
262.3621602863985
 20
143.5247008586183
 30
0.0
 11
0.4999238475781956
 21
0.0087262032186466
 31
0.0
210
0.0
220
0.0
230
1.0
 40
0.0174497491606959
 41
0.0000000000000308
 42
1.570491740299779
  0
ARC
  5
20E
330
2
100
AcDbEntity
  8
AM_HID
100
AcDbCircle
 10
262.3621602863985
 20
143.5247008586183
 30
0.0
 40
0.5000000000000066
100
AcDbArc
 50
0.9999999999997262
 51
90.0
  0
LINE
  5
20F
330
2
100
AcDbEntity
  8
AM_HID
100
AcDbLine
 10
262.3621602863985
 20
144.0247008586183
 30
0.0
 11
262.3621602863985
 21
143.533427061837
 31
0.0
  0
LINE
  5
210
330
2
100
AcDbEntity
  8
AM_HID
100
AcDbLine
 10
147.2007650431724
 20
143.533427061837
 30
0.0
 11
147.2007650431724
 21
144.0247008586183
 31
0.0
  0
ARC
  5
211
330
2
100
AcDbEntity
  8
AM_HID
100
AcDbCircle
 10
147.2007650431724
 20
143.5247008586183
 30
0.0
 40
0.5
100
AcDbArc
 50
90.0
 51
178.9999999999998
  0
ELLIPSE
  5
212
330
2
100
AcDbEntity
  8
AM_HID
100
AcDbEllipse
 10
147.2007650431724
 20
143.5247008586183
 30
0.0
 11
-0.4999238475781957
 21
0.0087262032186439
 31
0.0
210
0.0
220
0.0
230
1.0
 40
0.0174497491606886
 41
4.712693566879799
 42
6.283185307179534
  0
LINE
  5
213
330
2
100
AcDbEntity
  8
AM_HID
100
AcDbLine
 10
262.4678523915079
 20
126.0247008586183
 30
0.0
 11
247.7814626647855
 21
126.0247008586183
 31
0.0
  0
LINE
  5
214
330
2
100
AcDbEntity
  8
AM_HID
100
AcDbLine
 10
247.7814626647855
 20
126.0247008586183
 30
0.0
 11
247.7814626647855
 21
119.5247008586183
 31
0.0
  0
LINE
  5
215
330
2
100
AcDbEntity
  8
AM_HID
100
AcDbLine
 10
262.5813103135413
 20
119.5247008586183
 30
0.0
 11
262.4678523915079
 21
126.0247008586183
 31
0.0
  0
LINE
  5
216
330
2
100
AcDbEntity
  8
AM_HID
100
AcDbLine
 10
263.4677000866643
 20
126.0247008586183
 30
0.0
 11
263.5811580086977
 21
119.5247008586183
 31
0.0
  0
LINE
  5
217
330
2
100
AcDbEntity
  8
AM_HID
100
AcDbLine
 10
262.4678523915079
 20
126.0247008586183
 30
0.0
 11
263.4677000866643
 21
126.0247008586183
 31
0.0
  0
LINE
  5
218
330
2
100
AcDbEntity
  8
AM_HID
100
AcDbLine
 10
145.9817673208733
 20
119.5247008586183
 30
0.0
 11
146.0952252429067
 21
126.0247008586183
 31
0.0
  0
LINE
  5
219
330
2
100
AcDbEntity
  8
AM_HID
100
AcDbLine
 10
147.095072938063
 20
126.0247008586183
 30
0.0
 11
146.9816150160297
 21
119.5247008586183
 31
0.0
  0
LINE
  5
21A
330
2
100
AcDbEntity
  8
AM_HID
100
AcDbLine
 10
146.0952252429067
 20
126.0247008586183
 30
0.0
 11
147.095072938063
 21
126.0247008586183
 31
0.0
  0
LINE
  5
21B
330
2
100
AcDbEntity
  8
AM_HID
100
AcDbLine
 10
286.9725209857229
 20
123.5247008586183
 30
0.0
 11
284.9722163296351
 21
123.5247008586183
 31
0.0
  0
LINE
  5
21C
330
2
100
AcDbEntity
  8
AM_HID
100
AcDbLine
 10
287.0126676350578
 20
125.8247008586183
 30
0.0
 11
285.01236297897
 21
125.8247008586183
 31
0.0
  0
LINE
  5
21D
330
2
100
AcDbEntity
  8
AM_HID
100
AcDbLine
 10
350.9023960699222
 20
123.8247008586183
 30
0.0
 11
352.8270346346431
 21
123.8247008586183
 31
0.0
  0
LINE
  5
21E
330
2
100
AcDbEntity
  8
AM_HID
100
AcDbLine
 10
350.9023960699222
 20
123.8247008586183
 30
0.0
 11
350.9023960699222
 21
122.7747008586183
 31
0.0
  0
LINE
  5
21F
330
2
100
AcDbEntity
  8
AM_HID
100
AcDbLine
 10
350.9023960699222
 20
122.7747008586183
 30
0.0
 11
352.8636902709924
 21
121.7247008586183
 31
0.0
  0
LINE
  5
220
330
2
100
AcDbEntity
  8
AM_HID
100
AcDbLine
 10
352.7336500372771
 20
129.1747008586183
 30
0.0
 11
354.7339546933649
 21
129.1747008586183
 31
0.0
  0
LINE
  5
221
330
2
100
AcDbEntity
  8
AM_HID
100
AcDbLine
 10
285.0708374464796
 20
129.1747008586183
 30
0.0
 11
287.0711421025674
 21
129.1747008586183
 31
0.0
  0
LINE
  5
222
330
2
100
AcDbEntity
  8
AM_HID
100
AcDbLine
 10
354.644933862231
 20
134.2747008586183
 30
0.0
 11
352.6446292061432
 21
134.2747008586183
 31
0.0
  0
LINE
  5
223
330
2
100
AcDbEntity
  8
AM_HID
100
AcDbLine
 10
287.1601629337013
 20
134.2747008586183
 30
0.0
 11
285.1598582776134
 21
134.2747008586183
 31
0.0
  0
LINE
  5
224
330
2
100
AcDbEntity
  8
AM_HID
100
AcDbLine
 10
287.1077977389166
 20
131.2747008586183
 30
0.0
 11
285.1074930828288
 21
131.2747008586183
 31
0.0
  0
LINE
  5
225
330
2
100
AcDbEntity
  8
AM_HID
100
AcDbLine
 10
285.1965139139627
 20
136.3747008586183
 30
0.0
 11
287.1968185700506
 21
136.3747008586183
 31
0.0
  0
LINE
  5
226
330
2
100
AcDbEntity
  8
AM_HID
100
AcDbLine
 10
286.1600106056574
 20
134.2747008586183
 30
0.0
 11
286.1966662420066
 21
136.3747008586183
 31
0.0
  0
LINE
  5
227
330
2
100
AcDbEntity
  8
AM_HID
100
AcDbLine
 10
286.0709897745234
 20
129.1747008586183
 30
0.0
 11
286.1076454108727
 21
131.2747008586183
 31
0.0
  0
LINE
  5
228
330
2
100
AcDbEntity
  8
AM_HID
100
AcDbLine
 10
354.6972990570157
 20
131.2747008586183
 30
0.0
 11
352.6969944009279
 21
131.2747008586183
 31
0.0
  0
LINE
  5
229
330
2
100
AcDbEntity
  8
AM_HID
100
AcDbLine
 10
352.607973569794
 20
136.3747008586183
 30
0.0
 11
354.6082782258818
 21
136.3747008586183
 31
0.0
  0
LINE
  5
22A
330
2
100
AcDbEntity
  8
AM_HID
100
AcDbLine
 10
353.6081258978379
 20
136.3747008586183
 30
0.0
 11
353.6447815341871
 21
134.2747008586183
 31
0.0
  0
LINE
  5
22B
330
2
100
AcDbEntity
  8
AM_HID
100
AcDbLine
 10
353.6971467289718
 20
131.2747008586183
 30
0.0
 11
353.733802365321
 21
129.1747008586183
 31
0.0
  0
LINE
  5
22C
330
2
100
AcDbEntity
  8
AM_VIS
100
AcDbLine
 10
285.3478048584793
 20
145.0421532650556
 30
0.0
 11
284.9023960699223
 21
119.5247008586183
 31
0.0
  0
LINE
  5
22D
330
2
100
AcDbEntity
  8
AM_VIS
100
AcDbLine
 10
285.9022437650787
 20
119.5247008586183
 30
0.0
 11
286.3476525536357
 21
145.0421532650556
 31
0.0
  0
LINE
  5
22E
330
2
100
AcDbEntity
  8
AM_VIS
100
AcDbLine
 10
353.4571395862088
 20
146.0247008586183
 30
0.0
 11
286.3476525536357
 21
146.0247008586183
 31
0.0
  0
LINE
  5
22F
330
2
100
AcDbEntity
  8
AM_VIS
100
AcDbLine
 10
286.3476525536357
 20
145.0421532650556
 30
0.0
 11
353.4571395862088
 21
145.0421532650556
 31
0.0
  0
LINE
  5
230
330
2
100
AcDbEntity
  8
AM_VIS
100
AcDbLine
 10
353.4571395862088
 20
145.0421532650556
 30
0.0
 11
353.9025483747658
 21
119.5247008586183
 31
0.0
  0
LINE
  5
231
330
2
100
AcDbEntity
  8
AM_VIS
100
AcDbLine
 10
354.9023960699222
 20
119.5247008586183
 30
0.0
 11
354.4569872813652
 21
145.0421532650556
 31
0.0
  0
LINE
  5
232
330
2
100
AcDbEntity
  8
AM_VIS
100
AcDbLine
 10
353.4571395862088
 20
145.0421532650556
 30
0.0
 11
353.4571395862088
 21
146.0247008586183
 31
0.0
  0
ARC
  5
233
330
2
100
AcDbEntity
  8
AM_VIS
100
AcDbCircle
 10
353.4571395862088
 20
145.0247008586183
 30
0.0
 40
1.0
100
AcDbArc
 50
1.000000000000133
 51
90.0
  0
ELLIPSE
  5
234
330
2
100
AcDbEntity
  8
AM_VIS
100
AcDbEllipse
 10
353.4571395862088
 20
145.0247008586183
 30
0.0
 11
0.9998476951563912
 21
0.0174524064372861
 31
0.0
210
0.0
220
0.0
230
1.0
 40
0.0174497491606872
 41
0.0000000000000515
 42
1.570491740299786
  0
ARC
  5
235
330
2
100
AcDbEntity
  8
AM_VIS
100
AcDbCircle
 10
286.3476525536357
 20
145.0247008586183
 30
0.0
 40
0.9999999999999989
100
AcDbArc
 50
90.0
 51
178.9999999999998
  0
LINE
  5
236
330
2
100
AcDbEntity
  8
AM_VIS
100
AcDbLine
 10
286.3476525536357
 20
146.0247008586183
 30
0.0
 11
286.3476525536357
 21
145.0421532650556
 31
0.0
  0
ELLIPSE
  5
237
330
2
100
AcDbEntity
  8
AM_VIS
100
AcDbEllipse
 10
286.3476525536357
 20
145.0247008586183
 30
0.0
 11
-0.999847695156391
 21
0.0174524064372824
 31
0.0
210
0.0
220
0.0
230
1.0
 40
0.01744974916068
 41
4.712693566879842
 42
6.283185307179571
  0
LINE
  5
238
330
2
100
AcDbEntity
  8
AM_VIS
100
AcDbLine
 10
284.9547612647069
 20
116.5247008586183
 30
0.0
 11
286.8503355312254
 21
116.5247008586183
 31
0.0
  0
LINE
  5
239
330
2
100
AcDbEntity
  8
AM_VIS
100
AcDbLine
 10
284.9023960699223
 20
119.5247008586183
 30
0.0
 11
284.9547612647069
 21
116.5247008586183
 31
0.0
  0
LINE
  5
23A
330
2
100
AcDbEntity
  8
AM_VIS
100
AcDbLine
 10
285.9022437650787
 20
119.5247008586183
 30
0.0
 11
284.9023960699223
 21
119.5247008586183
 31
0.0
  0
LINE
  5
23B
330
2
100
AcDbEntity
  8
AM_VIS
100
AcDbLine
 10
353.9025483747658
 20
119.5247008586183
 30
0.0
 11
285.9022437650787
 21
119.5247008586183
 31
0.0
  0
LINE
  5
23C
330
2
100
AcDbEntity
  8
AM_VIS
100
AcDbLine
 10
354.9023960699222
 20
119.5247008586183
 30
0.0
 11
353.9025483747658
 21
119.5247008586183
 31
0.0
  0
LINE
  5
23D
330
2
100
AcDbEntity
  8
AM_VIS
100
AcDbLine
 10
286.8503355312254
 20
116.5247008586183
 30
0.0
 11
286.90270072601
 21
119.5247008586183
 31
0.0
  0
LINE
  5
23E
330
2
100
AcDbEntity
  8
AM_HID
100
AcDbLine
 10
287.0161586480435
 20
126.0247008586183
 30
0.0
 11
286.90270072601
 21
119.5247008586183
 31
0.0
  0
LINE
  5
23F
330
2
100
AcDbEntity
  8
AM_HID
100
AcDbLine
 10
352.9020914138345
 20
119.5247008586183
 30
0.0
 11
352.788633491801
 21
126.0247008586183
 31
0.0
  0
LINE
  5
240
330
2
100
AcDbEntity
  8
AM_HID
100
AcDbLine
 10
352.4830175391135
 20
143.533427061837
 30
0.0
 11
352.788633491801
 21
126.0247008586183
 31
0.0
  0
LINE
  5
241
330
2
100
AcDbEntity
  8
AM_HID
100
AcDbLine
 10
352.2887096442228
 20
126.0247008586183
 30
0.0
 11
351.9830936915353
 21
143.533427061837
 31
0.0
  0
LINE
  5
242
330
2
100
AcDbEntity
  8
AM_HID
100
AcDbLine
 10
351.9830936915353
 20
143.533427061837
 30
0.0
 11
287.8216984483092
 21
143.533427061837
 31
0.0
  0
LINE
  5
243
330
2
100
AcDbEntity
  8
AM_HID
100
AcDbLine
 10
287.8216984483092
 20
144.0247008586183
 30
0.0
 11
351.9830936915353
 21
144.0247008586183
 31
0.0
  0
LINE
  5
244
330
2
100
AcDbEntity
  8
AM_HID
100
AcDbLine
 10
287.8216984483092
 20
143.533427061837
 30
0.0
 11
287.5160824956217
 21
126.0247008586183
 31
0.0
  0
LINE
  5
245
330
2
100
AcDbEntity
  8
AM_HID
100
AcDbLine
 10
287.0161586480435
 20
126.0247008586183
 30
0.0
 11
287.3217746007311
 21
143.533427061837
 31
0.0
  0
LINE
  5
246
330
2
100
AcDbEntity
  8
AM_HID
100
AcDbLine
 10
287.8216984483092
 20
143.533427061837
 30
0.0
 11
287.8216984483092
 21
144.0247008586183
 31
0.0
  0
ARC
  5
247
330
2
100
AcDbEntity
  8
AM_HID
100
AcDbCircle
 10
287.8216984483092
 20
143.5247008586183
 30
0.0
 40
0.5
100
AcDbArc
 50
90.0
 51
178.9999999999998
  0
ELLIPSE
  5
248
330
2
100
AcDbEntity
  8
AM_HID
100
AcDbEllipse
 10
287.8216984483092
 20
143.5247008586183
 30
0.0
 11
-0.4999238475781956
 21
0.0087262032186475
 31
0.0
210
0.0
220
0.0
230
1.0
 40
0.0174497491606924
 41
4.712693566879785
 42
6.283185307179534
  0
ARC
  5
249
330
2
100
AcDbEntity
  8
AM_HID
100
AcDbCircle
 10
351.9830936915353
 20
143.5247008586183
 30
0.0
 40
0.4999999999999995
100
AcDbArc
 50
0.9999999999997262
 51
90.0
  0
LINE
  5
24A
330
2
100
AcDbEntity
  8
AM_HID
100
AcDbLine
 10
351.9830936915353
 20
144.0247008586183
 30
0.0
 11
351.9830936915353
 21
143.533427061837
 31
0.0
  0
ELLIPSE
  5
24B
330
2
100
AcDbEntity
  8
AM_HID
100
AcDbEllipse
 10
351.9830936915353
 20
143.5247008586183
 30
0.0
 11
0.4999238475781957
 21
0.0087262032186447
 31
0.0
210
0.0
220
0.0
230
1.0
 40
0.0174497491606888
 41
0.0000000000000063
 42
1.570491740299741
  0
LINE
  5
24C
330
2
100
AcDbEntity
  8
AM_HID
100
AcDbLine
 10
352.0887857966446
 20
126.0247008586183
 30
0.0
 11
287.7160063431999
 21
126.0247008586183
 31
0.0
  0
LINE
  5
24D
330
2
100
AcDbEntity
  8
AM_HID
100
AcDbLine
 10
352.202243718678
 20
119.5247008586183
 30
0.0
 11
352.0887857966446
 21
126.0247008586183
 31
0.0
  0
LINE
  5
24E
330
2
100
AcDbEntity
  8
AM_HID
100
AcDbLine
 10
353.088633491801
 20
126.0247008586183
 30
0.0
 11
353.2020914138344
 21
119.5247008586183
 31
0.0
  0
LINE
  5
24F
330
2
100
AcDbEntity
  8
AM_HID
100
AcDbLine
 10
352.0887857966446
 20
126.0247008586183
 30
0.0
 11
353.088633491801
 21
126.0247008586183
 31
0.0
  0
LINE
  5
250
330
2
100
AcDbEntity
  8
AM_HID
100
AcDbLine
 10
286.6027007260101
 20
119.5247008586183
 30
0.0
 11
286.7161586480435
 21
126.0247008586183
 31
0.0
  0
LINE
  5
251
330
2
100
AcDbEntity
  8
AM_HID
100
AcDbLine
 10
287.7160063431999
 20
126.0247008586183
 30
0.0
 11
287.6025484211665
 21
119.5247008586183
 31
0.0
  0
LINE
  5
252
330
2
100
AcDbEntity
  8
AM_HID
100
AcDbLine
 10
286.7161586480435
 20
126.0247008586183
 30
0.0
 11
287.7160063431999
 21
126.0247008586183
 31
0.0
  0
LINE
  5
253
330
2
100
AcDbEntity
  8
AM_HID
100
AcDbLine
 10
244.8314626647855
 20
37.98379836079987
 30
0.0
 11
244.8314626647855
 21
36.05915979607902
 31
0.0
  0
LINE
  5
254
330
2
100
AcDbEntity
  8
AM_HID
100
AcDbLine
 10
167.0314626647854
 20
37.98379836079987
 30
0.0
 11
167.0314626647854
 21
36.05915979607902
 31
0.0
  0
LINE
  5
255
330
2
100
AcDbEntity
  8
AM_HID
100
AcDbLine
 10
164.3814626647854
 20
101.8735267956643
 30
0.0
 11
164.3814626647854
 21
103.8738314517521
 31
0.0
  0
LINE
  5
256
330
2
100
AcDbEntity
  8
AM_HID
100
AcDbLine
 10
167.3814626647854
 20
101.8735267956643
 30
0.0
 11
167.3814626647854
 21
103.8738314517521
 31
0.0
  0
LINE
  5
257
330
2
100
AcDbEntity
  8
AM_HID
100
AcDbLine
 10
242.1814626647855
 20
101.8735267956643
 30
0.0
 11
242.1814626647855
 21
103.8738314517521
 31
0.0
  0
LINE
  5
258
330
2
100
AcDbEntity
  8
AM_HID
100
AcDbLine
 10
245.1814626647855
 20
101.8735267956643
 30
0.0
 11
245.1814626647855
 21
103.8738314517521
 31
0.0
  0
LINE
  5
259
330
2
100
AcDbEntity
  8
AM_VIS
100
AcDbLine
 10
242.1814626647855
 20
103.8738314517521
 30
0.0
 11
242.1814626647855
 21
103.913978101087
 31
0.0
  0
LINE
  5
25A
330
2
100
AcDbEntity
  8
AM_VIS
100
AcDbLine
 10
245.1814626647855
 20
103.8738314517521
 30
0.0
 11
242.1814626647855
 21
103.8738314517521
 31
0.0
  0
LINE
  5
25B
330
2
100
AcDbEntity
  8
AM_VIS
100
AcDbLine
 10
245.1814626647855
 20
103.913978101087
 30
0.0
 11
245.1814626647855
 21
103.8738314517521
 31
0.0
  0
LINE
  5
25C
330
2
100
AcDbEntity
  8
AM_VIS
100
AcDbLine
 10
242.1814626647855
 20
103.913978101087
 30
0.0
 11
245.1814626647855
 21
103.913978101087
 31
0.0
  0
LINE
  5
25D
330
2
100
AcDbEntity
  8
AM_VIS
100
AcDbLine
 10
164.3814626647854
 20
103.913978101087
 30
0.0
 11
167.3814626647854
 21
103.913978101087
 31
0.0
  0
LINE
  5
25E
330
2
100
AcDbEntity
  8
AM_VIS
100
AcDbLine
 10
164.3814626647854
 20
103.8738314517521
 30
0.0
 11
164.3814626647854
 21
103.913978101087
 31
0.0
  0
LINE
  5
25F
330
2
100
AcDbEntity
  8
AM_VIS
100
AcDbLine
 10
167.3814626647854
 20
103.8738314517521
 30
0.0
 11
164.3814626647854
 21
103.8738314517521
 31
0.0
  0
LINE
  5
260
330
2
100
AcDbEntity
  8
AM_VIS
100
AcDbLine
 10
167.3814626647854
 20
103.913978101087
 30
0.0
 11
167.3814626647854
 21
103.8738314517521
 31
0.0
  0
LINE
  5
261
330
2
100
AcDbEntity
  8
AM_HID
100
AcDbLine
 10
241.6338278595701
 20
103.9314331660152
 30
0.0
 11
241.6338278595701
 21
102.0358588994967
 31
0.0
  0
LINE
  5
262
330
2
100
AcDbEntity
  8
AM_HID
100
AcDbLine
 10
164.7314626647854
 20
37.98379836079987
 30
0.0
 11
164.7314626647854
 21
36.05915979607902
 31
0.0
  0
LINE
  5
263
330
2
100
AcDbEntity
  8
AM_HID
100
AcDbLine
 10
167.0314626647854
 20
37.98379836079987
 30
0.0
 11
164.7314626647854
 21
37.98379836079987
 31
0.0
  0
LINE
  5
264
330
2
100
AcDbEntity
  8
AM_HID
100
AcDbLine
 10
242.5314626647855
 20
37.98379836079987
 30
0.0
 11
242.5314626647855
 21
36.05915979607902
 31
0.0
  0
LINE
  5
265
330
2
100
AcDbEntity
  8
AM_HID
100
AcDbLine
 10
244.8314626647855
 20
37.98379836079987
 30
0.0
 11
242.5314626647855
 21
37.98379836079987
 31
0.0
  0
ELLIPSE
  5
266
330
2
100
AcDbEntity
  8
AM_VIS
100
AcDbEllipse
 10
246.5814626647855
 20
103.7970291660679
 30
0.0
 11
-1.05
 21
0.0
 31
0.0
210
0.0
220
0.0
230
1.0
 40
0.0174550649282177
 41
1.570796326794896
 42
4.712388980384689
  0
ELLIPSE
  5
267
330
2
100
AcDbEntity
  8
AM_VIS
100
AcDbEllipse
 10
162.9814626647854
 20
103.7970291660679
 30
0.0
 11
-1.05
 21
0.0
 31
0.0
210
0.0
220
0.0
230
1.0
 40
0.0174550649282177
 41
4.712388980384689
 42
7.853981633974482
  0
LINE
  5
268
330
2
100
AcDbEntity
  8
AM_VIS
100
AcDbLine
 10
162.9814626647854
 20
34.18889537370643
 30
0.0
 11
162.9814626647854
 21
34.15223973735717
 31
0.0
  0
LINE
  5
269
330
2
100
AcDbEntity
  8
AM_VIS
100
AcDbLine
 10
246.5814626647855
 20
34.18889537370643
 30
0.0
 11
246.5814626647855
 21
34.15223973735717
 31
0.0
  0
LINE
  5
26A
330
2
100
AcDbEntity
  8
AM_VIS
100
AcDbLine
 10
209.7814626647855
 20
103.8153569842426
 30
0.0
 11
246.5814626647855
 21
103.8153569842426
 31
0.0
  0
LINE
  5
26B
330
2
100
AcDbEntity
  8
AM_VIS
100
AcDbLine
 10
246.5814626647855
 20
103.8153569842426
 30
0.0
 11
246.5814626647855
 21
103.7787013478933
 31
0.0
  0
LINE
  5
26C
330
2
100
AcDbEntity
  8
AM_VIS
100
AcDbLine
 10
162.9814626647854
 20
103.8153569842426
 30
0.0
 11
162.9814626647854
 21
103.7787013478933
 31
0.0
  0
LINE
  5
26D
330
2
100
AcDbEntity
  8
AM_VIS
100
AcDbLine
 10
162.9814626647854
 20
103.8153569842426
 30
0.0
 11
199.7814626647855
 21
103.8153569842426
 31
0.0
  0
LINE
  5
26E
330
2
100
AcDbEntity
  8
AM_VIS
100
AcDbLine
 10
246.5814626647855
 20
34.24126056849108
 30
0.0
 11
246.5814626647855
 21
34.27791620484034
 31
0.0
  0
ELLIPSE
  5
26F
330
2
100
AcDbEntity
  8
AM_VIS
100
AcDbEllipse
 10
246.5814626647855
 20
103.708008334934
 30
0.0
 11
-1.050000000000001
 21
0.0
 31
0.0
210
0.0
220
0.0
230
1.0
 40
0.0174550649282177
 41
1.570796326794896
 42
4.712388980384689
  0
LINE
  5
270
330
2
100
AcDbEntity
  8
AM_VIS
100
AcDbLine
 10
209.7814626647855
 20
103.7263361531086
 30
0.0
 11
246.5814626647855
 21
103.7263361531086
 31
0.0
  0
LINE
  5
271
330
2
100
AcDbEntity
  8
AM_VIS
100
AcDbLine
 10
246.5814626647855
 20
103.6896805167594
 30
0.0
 11
246.5814626647855
 21
103.7263361531086
 31
0.0
  0
LINE
  5
272
330
2
100
AcDbEntity
  8
AM_VIS
100
AcDbLine
 10
162.9814626647854
 20
103.7263361531086
 30
0.0
 11
199.7814626647855
 21
103.7263361531086
 31
0.0
  0
LINE
  5
273
330
2
100
AcDbEntity
  8
AM_VIS
100
AcDbLine
 10
162.9814626647854
 20
34.24126056849108
 30
0.0
 11
162.9814626647854
 21
34.27791620484034
 31
0.0
  0
ELLIPSE
  5
274
330
2
100
AcDbEntity
  8
AM_VIS
100
AcDbEllipse
 10
162.9814626647854
 20
103.708008334934
 30
0.0
 11
-1.050000000000001
 21
0.0
 31
0.0
210
0.0
220
0.0
230
1.0
 40
0.0174550649282177
 41
4.712388980384689
 42
7.853981633974482
  0
LINE
  5
275
330
2
100
AcDbEntity
  8
AM_VIS
100
AcDbLine
 10
162.9814626647854
 20
103.6896805167594
 30
0.0
 11
162.9814626647854
 21
103.7263361531086
 31
0.0
  0
LINE
  5
276
330
2
100
AcDbEntity
  8
AM_VIS
100
AcDbLine
 10
199.7814626647855
 20
103.7787013478933
 30
0.0
 11
162.9814626647854
 21
103.7787013478933
 31
0.0
  0
LINE
  5
277
330
2
100
AcDbEntity
  8
AM_HID
100
AcDbLine
 10
162.9814626647854
 20
103.7263361531086
 30
0.0
 11
162.9814626647854
 21
103.7787013478933
 31
0.0
  0
LINE
  5
278
330
2
100
AcDbEntity
  8
AM_HID
100
AcDbLine
 10
246.5814626647855
 20
103.7787013478933
 30
0.0
 11
246.5814626647855
 21
103.7263361531086
 31
0.0
  0
LINE
  5
279
330
2
100
AcDbEntity
  8
AM_VIS
100
AcDbLine
 10
246.5814626647854
 20
103.7787013478933
 30
0.0
 11
209.7814626647855
 21
103.7787013478933
 31
0.0
  0
LINE
  5
27A
330
2
100
AcDbEntity
  8
AM_VIS
100
AcDbLine
 10
199.7814626647855
 20
103.6896805167594
 30
0.0
 11
162.9814626647854
 21
103.6896805167594
 31
0.0
  0
LINE
  5
27B
330
2
100
AcDbEntity
  8
AM_HID
100
AcDbLine
 10
162.9814626647854
 20
103.6896805167594
 30
0.0
 11
162.9814626647854
 21
101.6893758606715
 31
0.0
  0
LINE
  5
27C
330
2
100
AcDbEntity
  8
AM_HID
100
AcDbLine
 10
246.5814626647855
 20
101.6893758606715
 30
0.0
 11
246.5814626647855
 21
103.6896805167594
 31
0.0
  0
LINE
  5
27D
330
2
100
AcDbEntity
  8
AM_VIS
100
AcDbLine
 10
246.5814626647854
 20
103.6896805167594
 30
0.0
 11
209.7814626647855
 21
103.6896805167594
 31
0.0
  0
LINE
  5
27E
330
2
100
AcDbEntity
  8
AM_HID
100
AcDbLine
 10
209.7814626647855
 20
102.7261838250647
 30
0.0
 11
199.7814626647855
 21
102.7261838250647
 31
0.0
  0
LINE
  5
27F
330
2
100
AcDbEntity
  8
AM_HID
100
AcDbLine
 10
199.7814626647855
 20
102.6895281887155
 30
0.0
 11
209.7814626647855
 21
102.6895281887155
 31
0.0
  0
LINE
  5
280
330
2
100
AcDbEntity
  8
AM_VIS
100
AcDbLine
 10
199.7814626647855
 20
103.6896805167594
 30
0.0
 11
199.7814626647855
 21
103.7263361531086
 31
0.0
  0
LINE
  5
281
330
2
100
AcDbEntity
  8
AM_HID
100
AcDbLine
 10
199.7814626647855
 20
103.6896805167594
 30
0.0
 11
199.7814626647855
 21
102.6895281887155
 31
0.0
  0
LINE
  5
282
330
2
100
AcDbEntity
  8
AM_VIS
100
AcDbLine
 10
209.7814626647855
 20
103.7263361531086
 30
0.0
 11
209.7814626647855
 21
103.6896805167594
 31
0.0
  0
LINE
  5
283
330
2
100
AcDbEntity
  8
AM_HID
100
AcDbLine
 10
209.7814626647855
 20
102.6895281887155
 30
0.0
 11
209.7814626647855
 21
103.6896805167594
 31
0.0
  0
LINE
  5
284
330
2
100
AcDbEntity
  8
AM_HID
100
AcDbLine
 10
209.7814626647855
 20
103.7263361531086
 30
0.0
 11
209.7814626647855
 21
103.7787013478933
 31
0.0
  0
LINE
  5
285
330
2
100
AcDbEntity
  8
AM_VIS
100
AcDbLine
 10
209.7814626647855
 20
103.8153569842426
 30
0.0
 11
209.7814626647855
 21
103.7787013478933
 31
0.0
  0
LINE
  5
286
330
2
100
AcDbEntity
  8
AM_HID
100
AcDbLine
 10
199.7814626647855
 20
102.7785490198494
 30
0.0
 11
209.7814626647855
 21
102.7785490198494
 31
0.0
  0
LINE
  5
287
330
2
100
AcDbEntity
  8
AM_HID
100
AcDbLine
 10
209.7814626647855
 20
102.8152046561986
 30
0.0
 11
199.7814626647855
 21
102.8152046561986
 31
0.0
  0
LINE
  5
288
330
2
100
AcDbEntity
  8
AM_VIS
100
AcDbLine
 10
199.7814626647855
 20
103.7787013478933
 30
0.0
 11
199.7814626647855
 21
103.8153569842426
 31
0.0
  0
LINE
  5
289
330
2
100
AcDbEntity
  8
AM_HID
100
AcDbLine
 10
199.7814626647855
 20
103.7787013478933
 30
0.0
 11
199.7814626647855
 21
103.7263361531086
 31
0.0
  0
LINE
  5
28A
330
2
100
AcDbEntity
  8
AM_HID
100
AcDbLine
 10
246.5814626647855
 20
34.24126056849108
 30
0.0
 11
246.5814626647855
 21
34.18889537370643
 31
0.0
  0
LINE
  5
28B
330
2
100
AcDbEntity
  8
AM_HID
100
AcDbLine
 10
162.9814626647854
 20
34.18889537370643
 30
0.0
 11
162.9814626647854
 21
34.24126056849108
 31
0.0
  0
LINE
  5
28C
330
2
100
AcDbEntity
  8
AM_HID
100
AcDbLine
 10
246.5814626647855
 20
34.27791620484034
 30
0.0
 11
246.5814626647855
 21
36.27822086092815
 31
0.0
  0
LINE
  5
28D
330
2
100
AcDbEntity
  8
AM_HID
100
AcDbLine
 10
162.9814626647854
 20
36.27822086092815
 30
0.0
 11
162.9814626647854
 21
34.27791620484034
 31
0.0
  0
LINE
  5
28E
330
2
100
AcDbEntity
  8
AM_HID
100
AcDbLine
 10
199.7814626647855
 20
35.24141289653498
 30
0.0
 11
209.7814626647855
 21
35.24141289653498
 31
0.0
  0
LINE
  5
28F
330
2
100
AcDbEntity
  8
AM_HID
100
AcDbLine
 10
209.7814626647855
 20
35.27806853288423
 30
0.0
 11
199.7814626647855
 21
35.27806853288423
 31
0.0
  0
LINE
  5
290
330
2
100
AcDbEntity
  8
AM_HID
100
AcDbLine
 10
209.7814626647855
 20
34.27791620484034
 30
0.0
 11
209.7814626647855
 21
35.27806853288424
 31
0.0
  0
LINE
  5
291
330
2
100
AcDbEntity
  8
AM_HID
100
AcDbLine
 10
199.7814626647855
 20
35.27806853288424
 30
0.0
 11
199.7814626647855
 21
34.27791620484034
 31
0.0
  0
LINE
  5
292
330
2
100
AcDbEntity
  8
AM_HID
100
AcDbLine
 10
199.7814626647855
 20
34.24126056849108
 30
0.0
 11
199.7814626647855
 21
34.18889537370642
 31
0.0
  0
LINE
  5
293
330
2
100
AcDbEntity
  8
AM_HID
100
AcDbLine
 10
209.7814626647855
 20
35.18904770175033
 30
0.0
 11
199.7814626647855
 21
35.18904770175033
 31
0.0
  0
LINE
  5
294
330
2
100
AcDbEntity
  8
AM_HID
100
AcDbLine
 10
199.7814626647855
 20
35.15239206540106
 30
0.0
 11
209.7814626647855
 21
35.15239206540106
 31
0.0
  0
LINE
  5
295
330
2
100
AcDbEntity
  8
AM_HID
100
AcDbLine
 10
209.7814626647855
 20
34.18889537370642
 30
0.0
 11
209.7814626647855
 21
34.24126056849108
 31
0.0
  0
LINE
  5
296
330
2
100
AcDbEntity
  8
AM_VIS
100
AcDbLine
 10
209.7814626647855
 20
34.27791620484034
 30
0.0
 11
209.7814626647855
 21
34.24126056849108
 31
0.0
  0
LINE
  5
297
330
2
100
AcDbEntity
  8
AM_VIS
100
AcDbLine
 10
246.5814626647855
 20
34.24126056849109
 30
0.0
 11
209.7814626647855
 21
34.24126056849109
 31
0.0
  0
ELLIPSE
  5
298
330
2
100
AcDbEntity
  8
AM_VIS
100
AcDbEllipse
 10
246.5814626647855
 20
34.25958838666571
 30
0.0
 11
1.050000000000001
 21
0.0
 31
0.0
210
0.0
220
0.0
230
1.0
 40
0.0174550649282177
 41
4.712388980384689
 42
7.853981633974482
  0
LINE
  5
299
330
2
100
AcDbEntity
  8
AM_VIS
100
AcDbLine
 10
209.7814626647855
 20
34.27791620484034
 30
0.0
 11
246.5814626647855
 21
34.27791620484034
 31
0.0
  0
LINE
  5
29A
330
2
100
AcDbEntity
  8
AM_VIS
100
AcDbLine
 10
199.7814626647855
 20
34.15223973735717
 30
0.0
 11
199.7814626647855
 21
34.18889537370642
 31
0.0
  0
LINE
  5
29B
330
2
100
AcDbEntity
  8
AM_VIS
100
AcDbLine
 10
162.9814626647854
 20
34.18889537370643
 30
0.0
 11
199.7814626647855
 21
34.18889537370643
 31
0.0
  0
ELLIPSE
  5
29C
330
2
100
AcDbEntity
  8
AM_VIS
100
AcDbEllipse
 10
162.9814626647854
 20
34.1705675555318
 30
0.0
 11
1.05
 21
0.0
 31
0.0
210
0.0
220
0.0
230
1.0
 40
0.0174550649282177
 41
1.570796326794896
 42
4.712388980384689
  0
LINE
  5
29D
330
2
100
AcDbEntity
  8
AM_VIS
100
AcDbLine
 10
199.7814626647855
 20
34.15223973735717
 30
0.0
 11
162.9814626647855
 21
34.15223973735717
 31
0.0
  0
LINE
  5
29E
330
2
100
AcDbEntity
  8
AM_VIS
100
AcDbLine
 10
162.9814626647854
 20
34.27791620484034
 30
0.0
 11
199.7814626647855
 21
34.27791620484034
 31
0.0
  0
ELLIPSE
  5
29F
330
2
100
AcDbEntity
  8
AM_VIS
100
AcDbEllipse
 10
162.9814626647854
 20
34.25958838666571
 30
0.0
 11
1.050000000000001
 21
0.0
 31
0.0
210
0.0
220
0.0
230
1.0
 40
0.0174550649282177
 41
1.570796326794896
 42
4.712388980384689
  0
LINE
  5
2A0
330
2
100
AcDbEntity
  8
AM_VIS
100
AcDbLine
 10
199.7814626647855
 20
34.24126056849109
 30
0.0
 11
162.9814626647855
 21
34.24126056849109
 31
0.0
  0
LINE
  5
2A1
330
2
100
AcDbEntity
  8
AM_VIS
100
AcDbLine
 10
199.7814626647855
 20
34.24126056849108
 30
0.0
 11
199.7814626647855
 21
34.27791620484034
 31
0.0
  0
LINE
  5
2A2
330
2
100
AcDbEntity
  8
AM_VIS
100
AcDbLine
 10
246.5814626647855
 20
34.15223973735717
 30
0.0
 11
209.7814626647855
 21
34.15223973735717
 31
0.0
  0
ELLIPSE
  5
2A3
330
2
100
AcDbEntity
  8
AM_VIS
100
AcDbEllipse
 10
246.5814626647855
 20
34.1705675555318
 30
0.0
 11
1.05
 21
0.0
 31
0.0
210
0.0
220
0.0
230
1.0
 40
0.0174550649282177
 41
4.712388980384689
 42
7.853981633974482
  0
LINE
  5
2A4
330
2
100
AcDbEntity
  8
AM_VIS
100
AcDbLine
 10
209.7814626647855
 20
34.18889537370643
 30
0.0
 11
246.5814626647855
 21
34.18889537370643
 31
0.0
  0
LINE
  5
2A5
330
2
100
AcDbEntity
  8
AM_VIS
100
AcDbLine
 10
209.7814626647855
 20
34.18889537370642
 30
0.0
 11
209.7814626647855
 21
34.15223973735717
 31
0.0
  0
LINE
  5
2A6
330
2
100
AcDbEntity
  8
AM_VIS
100
AcDbLine
 10
145.7267191484989
 20
103.5383895722428
 30
0.0
 11
145.2813103599418
 21
103.9837983607998
 31
0.0
  0
LINE
  5
2A7
330
2
100
AcDbEntity
  8
AM_VIS
100
AcDbLine
 10
144.2814626647854
 20
102.9839506656434
 30
0.0
 11
144.7268714533425
 21
102.5385418770864
 31
0.0
  0
LINE
  5
2A8
330
2
100
AcDbEntity
  8
AM_VIS
100
AcDbLine
 10
145.7267191484989
 20
35.42905484451333
 30
0.0
 11
145.7267191484989
 21
102.5385418770864
 31
0.0
  0
LINE
  5
2A9
330
2
100
AcDbEntity
  8
AM_VIS
100
AcDbLine
 10
144.7268714533425
 20
102.5385418770864
 30
0.0
 11
144.7268714533425
 21
35.42905484451333
 31
0.0
  0
LINE
  5
2AA
330
2
100
AcDbEntity
  8
AM_VIS
100
AcDbLine
 10
144.7268714533425
 20
35.42905484451333
 30
0.0
 11
144.2814626647854
 21
34.98364605595626
 31
0.0
  0
LINE
  5
2AB
330
2
100
AcDbEntity
  8
AM_VIS
100
AcDbLine
 10
145.2813103599418
 20
33.98379836079987
 30
0.0
 11
145.7267191484989
 21
34.42920714935694
 31
0.0
  0
LINE
  5
2AC
330
2
100
AcDbEntity
  8
AM_VIS
100
AcDbLine
 10
145.7267191484989
 20
102.5385418770864
 30
0.0
 11
263.836206181072
 21
102.5385418770864
 31
0.0
  0
LINE
  5
2AD
330
2
100
AcDbEntity
  8
AM_VIS
100
AcDbLine
 10
263.836206181072
 20
103.5383895722428
 30
0.0
 11
145.7267191484989
 21
103.5383895722428
 31
0.0
  0
LINE
  5
2AE
330
2
100
AcDbEntity
  8
AM_VIS
100
AcDbLine
 10
264.8360538762284
 20
102.5385418770864
 30
0.0
 11
265.2814626647855
 21
102.9839506656435
 31
0.0
  0
LINE
  5
2AF
330
2
100
AcDbEntity
  8
AM_VIS
100
AcDbLine
 10
264.2816149696291
 20
103.9837983607998
 30
0.0
 11
263.836206181072
 21
103.5383895722428
 31
0.0
  0
LINE
  5
2B0
330
2
100
AcDbEntity
  8
AM_VIS
100
AcDbLine
 10
263.836206181072
 20
35.42905484451333
 30
0.0
 11
145.7267191484989
 21
35.42905484451333
 31
0.0
  0
LINE
  5
2B1
330
2
100
AcDbEntity
  8
AM_VIS
100
AcDbLine
 10
145.7267191484989
 20
34.42920714935694
 30
0.0
 11
263.836206181072
 21
34.42920714935694
 31
0.0
  0
LINE
  5
2B2
330
2
100
AcDbEntity
  8
AM_VIS
100
AcDbLine
 10
263.836206181072
 20
102.5385418770864
 30
0.0
 11
263.836206181072
 21
35.42905484451333
 31
0.0
  0
LINE
  5
2B3
330
2
100
AcDbEntity
  8
AM_VIS
100
AcDbLine
 10
264.8360538762284
 20
35.42905484451333
 30
0.0
 11
264.8360538762284
 21
102.5385418770864
 31
0.0
  0
LINE
  5
2B4
330
2
100
AcDbEntity
  8
AM_VIS
100
AcDbLine
 10
263.836206181072
 20
34.42920714935694
 30
0.0
 11
264.2816149696291
 21
33.98379836079987
 31
0.0
  0
LINE
  5
2B5
330
2
100
AcDbEntity
  8
AM_VIS
100
AcDbLine
 10
265.2814626647855
 20
34.98364605595626
 30
0.0
 11
264.8360538762284
 21
35.42905484451333
 31
0.0
  0
LINE
  5
2B6
330
2
100
AcDbEntity
  8
AM_VIS
100
AcDbLine
 10
263.836206181072
 20
35.42905484451333
 30
0.0
 11
264.8360538762284
 21
35.42905484451333
 31
0.0
  0
ELLIPSE
  5
2B7
330
2
100
AcDbEntity
  8
AM_VIS
100
AcDbEllipse
 10
263.836206181072
 20
35.42905484451333
 30
0.0
 11
-0.7071067811865469
 21
-0.7071067811865469
 31
0.0
210
0.0
220
0.0
230
1.0
 40
0.9996954598818875
 41
0.785550456645029
 42
2.356042196944764
  0
LINE
  5
2B8
330
2
100
AcDbEntity
  8
AM_VIS
100
AcDbLine
 10
263.836206181072
 20
34.42920714935694
 30
0.0
 11
263.836206181072
 21
35.42905484451333
 31
0.0
  0
ELLIPSE
  5
2B9
330
2
100
AcDbEntity
  8
AM_VIS
100
AcDbEllipse
 10
263.836206181072
 20
102.5385418770864
 30
0.0
 11
0.7071067811865451
 21
-0.7071067811865499
 31
0.0
210
0.0
220
0.0
230
1.0
 40
0.9996954598818874
 41
0.7855504566450309
 42
2.356042196944765
  0
LINE
  5
2BA
330
2
100
AcDbEntity
  8
AM_VIS
100
AcDbLine
 10
264.8360538762284
 20
102.5385418770864
 30
0.0
 11
263.836206181072
 21
102.5385418770864
 31
0.0
  0
LINE
  5
2BB
330
2
100
AcDbEntity
  8
AM_VIS
100
AcDbLine
 10
263.836206181072
 20
102.5385418770864
 30
0.0
 11
263.836206181072
 21
103.5383895722428
 31
0.0
  0
LINE
  5
2BC
330
2
100
AcDbEntity
  8
AM_VIS
100
AcDbLine
 10
144.7268714533425
 20
35.42905484451333
 30
0.0
 11
145.7267191484989
 21
35.42905484451333
 31
0.0
  0
LINE
  5
2BD
330
2
100
AcDbEntity
  8
AM_VIS
100
AcDbLine
 10
145.7267191484989
 20
35.42905484451333
 30
0.0
 11
145.7267191484989
 21
34.42920714935694
 31
0.0
  0
ELLIPSE
  5
2BE
330
2
100
AcDbEntity
  8
AM_VIS
100
AcDbEllipse
 10
145.7267191484989
 20
35.42905484451333
 30
0.0
 11
-0.7071067811865451
 21
0.7071067811865499
 31
0.0
210
0.0
220
0.0
230
1.0
 40
0.9996954598818874
 41
0.7855504566450309
 42
2.356042196944765
  0
LINE
  5
2BF
330
2
100
AcDbEntity
  8
AM_VIS
100
AcDbLine
 10
145.7267191484989
 20
103.5383895722428
 30
0.0
 11
145.7267191484989
 21
102.5385418770864
 31
0.0
  0
LINE
  5
2C0
330
2
100
AcDbEntity
  8
AM_VIS
100
AcDbLine
 10
145.7267191484989
 20
102.5385418770864
 30
0.0
 11
144.7268714533425
 21
102.5385418770864
 31
0.0
  0
ELLIPSE
  5
2C1
330
2
100
AcDbEntity
  8
AM_VIS
100
AcDbEllipse
 10
145.7267191484989
 20
102.5385418770864
 30
0.0
 11
0.7071067811865809
 21
0.707106781186514
 31
0.0
210
0.0
220
0.0
230
1.0
 40
0.9996954598818877
 41
0.785550456645081
 42
2.356042196944808
  0
LINE
  5
2C2
330
2
100
AcDbEntity
  8
AM_HID
100
AcDbLine
 10
163.8338278595701
 20
103.9314331660152
 30
0.0
 11
163.8338278595701
 21
102.0358588994967
 31
0.0
  0
LINE
  5
2C3
330
2
100
AcDbEntity
  8
AM_HID
100
AcDbLine
 10
167.9290974700008
 20
102.0358588994967
 30
0.0
 11
167.9290974700008
 21
103.9314331660152
 31
0.0
  0
LINE
  5
2C4
330
2
100
AcDbEntity
  8
AM_HID
100
AcDbLine
 10
245.7290974700008
 20
102.0358588994967
 30
0.0
 11
245.7290974700008
 21
103.9314331660152
 31
0.0
  0
LINE
  5
2C5
330
2
100
AcDbEntity
  8
AM_HID
100
AcDbLine
 10
163.8338278595701
 20
103.9314331660152
 30
0.0
 11
167.9290974700008
 21
103.9314331660152
 31
0.0
  0
LINE
  5
2C6
330
2
100
AcDbEntity
  8
AM_HID
100
AcDbLine
 10
167.9290974700008
 20
103.9314331660152
 30
0.0
 11
167.9814626647854
 21
103.9837983607998
 31
0.0
  0
LINE
  5
2C7
330
2
100
AcDbEntity
  8
AM_VIS
100
AcDbLine
 10
167.9814626647854
 20
103.9837983607998
 30
0.0
 11
163.7814626647854
 21
103.9837983607998
 31
0.0
  0
LINE
  5
2C8
330
2
100
AcDbEntity
  8
AM_HID
100
AcDbLine
 10
163.7814626647854
 20
103.9837983607998
 30
0.0
 11
163.8338278595701
 21
103.9314331660152
 31
0.0
  0
LINE
  5
2C9
330
2
100
AcDbEntity
  8
AM_VIS
100
AcDbLine
 10
245.7814626647855
 20
103.9837983607998
 30
0.0
 11
241.5814626647855
 21
103.9837983607998
 31
0.0
  0
LINE
  5
2CA
330
2
100
AcDbEntity
  8
AM_HID
100
AcDbLine
 10
241.5814626647855
 20
103.9837983607998
 30
0.0
 11
241.6338278595701
 21
103.9314331660152
 31
0.0
  0
LINE
  5
2CB
330
2
100
AcDbEntity
  8
AM_HID
100
AcDbLine
 10
241.6338278595701
 20
103.9314331660152
 30
0.0
 11
245.7290974700008
 21
103.9314331660152
 31
0.0
  0
LINE
  5
2CC
330
2
100
AcDbEntity
  8
AM_HID
100
AcDbLine
 10
245.7290974700008
 20
103.9314331660152
 30
0.0
 11
245.7814626647855
 21
103.9837983607998
 31
0.0
  0
LINE
  5
2CD
330
2
100
AcDbEntity
  8
AM_HID
100
AcDbLine
 10
235.7814626647855
 20
35.7975609389211
 30
0.0
 11
173.7814626647854
 21
35.7975609389211
 31
0.0
  0
LINE
  5
2CE
330
2
100
AcDbEntity
  8
AM_HID
100
AcDbLine
 10
235.7814626647855
 20
36.09756093892109
 30
0.0
 11
235.7814626647855
 21
35.7975609389211
 31
0.0
  0
LINE
  5
2CF
330
2
100
AcDbEntity
  8
AM_HID
100
AcDbLine
 10
235.7814626647855
 20
35.68410301688769
 30
0.0
 11
235.7814626647855
 21
35.79756093892111
 31
0.0
  0
LINE
  5
2D0
330
2
100
AcDbEntity
  8
AM_HID
100
AcDbLine
 10
173.7814626647854
 20
35.7975609389211
 30
0.0
 11
173.7814626647854
 21
35.68410301688769
 31
0.0
  0
LINE
  5
2D1
330
2
100
AcDbEntity
  8
AM_HID
100
AcDbLine
 10
173.7814626647854
 20
35.7975609389211
 30
0.0
 11
173.7814626647854
 21
36.09756093892109
 31
0.0
  0
LINE
  5
2D2
330
2
100
AcDbEntity
  8
AM_HID
100
AcDbLine
 10
161.7814626647854
 20
36.09756093892109
 30
0.0
 11
161.7814626647854
 21
35.7975609389211
 31
0.0
  0
LINE
  5
2D3
330
2
100
AcDbEntity
  8
AM_HID
100
AcDbLine
 10
146.3952252429067
 20
36.59748478649929
 30
0.0
 11
146.3952252429067
 21
101.3701119351004
 31
0.0
  0
LINE
  5
2D4
330
2
100
AcDbEntity
  8
AM_HID
100
AcDbLine
 10
161.7814626647854
 20
102.1700357826786
 30
0.0
 11
161.7814626647854
 21
101.8700357826786
 31
0.0
  0
LINE
  5
2D5
330
2
100
AcDbEntity
  8
AM_HID
100
AcDbLine
 10
161.7814626647854
 20
35.68410301688769
 30
0.0
 11
161.7814626647854
 21
35.79756093892111
 31
0.0
  0
LINE
  5
2D6
330
2
100
AcDbEntity
  8
AM_HID
100
AcDbLine
 10
161.7814626647854
 20
35.7975609389211
 30
0.0
 11
147.095072938063
 21
35.7975609389211
 31
0.0
  0
LINE
  5
2D7
330
2
100
AcDbEntity
  8
AM_HID
100
AcDbLine
 10
163.7814626647854
 20
103.9837983607998
 30
0.0
 11
163.7814626647854
 21
101.983493704712
 31
0.0
  0
LINE
  5
2D8
330
2
100
AcDbEntity
  8
AM_VIS
100
AcDbLine
 10
145.2813103599418
 20
103.9837983607998
 30
0.0
 11
163.7814626647854
 21
103.9837983607998
 31
0.0
  0
ELLIPSE
  5
2D9
330
2
100
AcDbEntity
  8
AM_VIS
100
AcDbEllipse
 10
145.2816149928293
 20
102.9836460327559
 30
0.0
 11
-0.7073221891695809
 21
0.7073221891695809
 31
0.0
210
0.0
220
0.0
230
1.0
 40
0.9996954598818874
 41
5.497939437029721
 42
7.068431177329449
  0
LINE
  5
2DA
330
2
100
AcDbEntity
  8
AM_VIS
100
AcDbLine
 10
144.2814626647854
 20
34.98364605595627
 30
0.0
 11
144.2814626647854
 21
102.9839506656435
 31
0.0
  0
ELLIPSE
  5
2DB
330
2
100
AcDbEntity
  8
AM_VIS
100
AcDbEllipse
 10
145.2816149928293
 20
34.98395068884378
 30
0.0
 11
-0.7073221891695758
 21
-0.7073221891695859
 31
0.0
210
0.0
220
0.0
230
1.0
 40
0.9996954598818874
 41
5.497939437029709
 42
7.068431177329444
  0
LINE
  5
2DC
330
2
100
AcDbEntity
  8
AM_VIS
100
AcDbLine
 10
264.2816149696291
 20
33.98379836079987
 30
0.0
 11
145.2813103599418
 21
33.98379836079987
 31
0.0
  0
ELLIPSE
  5
2DD
330
2
100
AcDbEntity
  8
AM_VIS
100
AcDbEllipse
 10
264.2813103367416
 20
34.98395068884378
 30
0.0
 11
0.7073221891695809
 21
-0.7073221891695809
 31
0.0
210
0.0
220
0.0
230
1.0
 40
0.9996954598818874
 41
5.497939437029721
 42
7.068431177329449
  0
LINE
  5
2DE
330
2
100
AcDbEntity
  8
AM_VIS
100
AcDbLine
 10
265.2814626647855
 20
102.9839506656434
 30
0.0
 11
265.2814626647855
 21
34.98364605595624
 31
0.0
  0
ELLIPSE
  5
2DF
330
2
100
AcDbEntity
  8
AM_VIS
100
AcDbEllipse
 10
264.2813103367416
 20
102.9836460327559
 30
0.0
 11
0.7073221891695758
 21
0.7073221891695859
 31
0.0
210
0.0
220
0.0
230
1.0
 40
0.9996954598818874
 41
5.497939437029709
 42
7.068431177329444
  0
LINE
  5
2E0
330
2
100
AcDbEntity
  8
AM_VIS
100
AcDbLine
 10
245.7814626647855
 20
103.9837983607998
 30
0.0
 11
264.2816149696291
 21
103.9837983607998
 31
0.0
  0
LINE
  5
2E1
330
2
100
AcDbEntity
  8
AM_HID
100
AcDbLine
 10
245.7814626647855
 20
101.983493704712
 30
0.0
 11
245.7814626647855
 21
103.9837983607998
 31
0.0
  0
LINE
  5
2E2
330
2
100
AcDbEntity
  8
AM_HID
100
AcDbLine
 10
173.7814626647854
 20
35.68410301688769
 30
0.0
 11
235.7814626647855
 21
35.68410301688769
 31
0.0
  0
LINE
  5
2E3
330
2
100
AcDbEntity
  8
AM_HID
100
AcDbLine
 10
146.9816150160297
 20
35.68410301688769
 30
0.0
 11
161.7814626647854
 21
35.68410301688769
 31
0.0
  0
LINE
  5
2E4
330
2
100
AcDbEntity
  8
AM_HID
100
AcDbLine
 10
247.7814626647855
 20
101.8700357826786
 30
0.0
 11
247.7814626647855
 21
102.1700357826786
 31
0.0
  0
LINE
  5
2E5
330
2
100
AcDbEntity
  8
AM_HID
100
AcDbLine
 10
247.7814626647855
 20
35.7975609389211
 30
0.0
 11
247.7814626647855
 21
36.09756093892109
 31
0.0
  0
LINE
  5
2E6
330
2
100
AcDbEntity
  8
AM_HID
100
AcDbLine
 10
262.5813103135413
 20
102.283493704712
 30
0.0
 11
247.7814626647855
 21
102.283493704712
 31
0.0
  0
LINE
  5
2E7
330
2
100
AcDbEntity
  8
AM_HID
100
AcDbLine
 10
247.7814626647855
 20
102.283493704712
 30
0.0
 11
247.7814626647855
 21
102.1700357826786
 31
0.0
  0
LINE
  5
2E8
330
2
100
AcDbEntity
  8
AM_HID
100
AcDbLine
 10
247.7814626647855
 20
102.1700357826786
 30
0.0
 11
262.4678523915079
 21
102.1700357826786
 31
0.0
  0
LINE
  5
2E9
330
2
100
AcDbEntity
  8
AM_HID
100
AcDbLine
 10
235.7814626647855
 20
102.1700357826786
 30
0.0
 11
235.7814626647855
 21
102.283493704712
 31
0.0
  0
LINE
  5
2EA
330
2
100
AcDbEntity
  8
AM_HID
100
AcDbLine
 10
242.1814626647855
 20
101.8735267956643
 30
0.0
 11
245.1814626647855
 21
101.8735267956643
 31
0.0
  0
LINE
  5
2EB
330
2
100
AcDbEntity
  8
AM_HID
100
AcDbLine
 10
245.1814626647855
 20
101.9136734449991
 30
0.0
 11
242.1814626647855
 21
101.9136734449991
 31
0.0
  0
LINE
  5
2EC
330
2
100
AcDbEntity
  8
AM_HID
100
AcDbLine
 10
164.3814626647854
 20
101.8735267956643
 30
0.0
 11
167.3814626647854
 21
101.8735267956643
 31
0.0
  0
LINE
  5
2ED
330
2
100
AcDbEntity
  8
AM_HID
100
AcDbLine
 10
167.3814626647854
 20
101.9136734449991
 30
0.0
 11
164.3814626647854
 21
101.9136734449991
 31
0.0
  0
ELLIPSE
  5
2EE
330
2
100
AcDbEntity
  8
AM_HID
100
AcDbEllipse
 10
162.9814626647854
 20
101.7967245099801
 30
0.0
 11
1.05
 21
0.0
 31
0.0
210
0.0
220
0.0
230
1.0
 40
0.0174550649282177
 41
1.570796326794896
 42
4.712388980384689
  0
LINE
  5
2EF
330
2
100
AcDbEntity
  8
AM_HID
100
AcDbLine
 10
246.5814626647855
 20
101.8150523281547
 30
0.0
 11
162.9814626647854
 21
101.8150523281547
 31
0.0
  0
ELLIPSE
  5
2F0
330
2
100
AcDbEntity
  8
AM_HID
100
AcDbEllipse
 10
246.5814626647855
 20
101.7967245099801
 30
0.0
 11
1.05
 21
0.0
 31
0.0
210
0.0
220
0.0
230
1.0
 40
0.0174550649282177
 41
4.712388980384689
 42
7.853981633974482
  0
LINE
  5
2F1
330
2
100
AcDbEntity
  8
AM_HID
100
AcDbLine
 10
162.9814626647854
 20
101.7783966918055
 30
0.0
 11
246.5814626647855
 21
101.7783966918055
 31
0.0
  0
LINE
  5
2F2
330
2
100
AcDbEntity
  8
AM_HID
100
AcDbLine
 10
162.9814626647854
 20
101.6893758606716
 30
0.0
 11
246.5814626647855
 21
101.6893758606716
 31
0.0
  0
ELLIPSE
  5
2F3
330
2
100
AcDbEntity
  8
AM_HID
100
AcDbEllipse
 10
162.9814626647854
 20
101.7077036788462
 30
0.0
 11
1.050000000000001
 21
0.0
 31
0.0
210
0.0
220
0.0
230
1.0
 40
0.0174550649282177
 41
1.570796326794896
 42
4.712388980384689
  0
LINE
  5
2F4
330
2
100
AcDbEntity
  8
AM_HID
100
AcDbLine
 10
246.5814626647855
 20
101.7260314970208
 30
0.0
 11
162.9814626647854
 21
101.7260314970208
 31
0.0
  0
ELLIPSE
  5
2F5
330
2
100
AcDbEntity
  8
AM_HID
100
AcDbEllipse
 10
246.5814626647855
 20
101.7077036788462
 30
0.0
 11
1.050000000000001
 21
0.0
 31
0.0
210
0.0
220
0.0
230
1.0
 40
0.0174550649282177
 41
4.712388980384689
 42
7.853981633974482
  0
LINE
  5
2F6
330
2
100
AcDbEntity
  8
AM_HID
100
AcDbLine
 10
247.7814626647855
 20
101.8700357826786
 30
0.0
 11
262.6677762390861
 21
101.8700357826786
 31
0.0
  0
LINE
  5
2F7
330
2
100
AcDbEntity
  8
AM_HID
100
AcDbLine
 10
247.7814626647855
 20
101.983493704712
 30
0.0
 11
245.7814626647855
 21
101.983493704712
 31
0.0
  0
LINE
  5
2F8
330
2
100
AcDbEntity
  8
AM_HID
100
AcDbLine
 10
245.7814626647855
 20
101.983493704712
 30
0.0
 11
245.7290974700008
 21
102.0358588994967
 31
0.0
  0
LINE
  5
2F9
330
2
100
AcDbEntity
  8
AM_HID
100
AcDbLine
 10
245.7290974700008
 20
102.0358588994967
 30
0.0
 11
241.6338278595701
 21
102.0358588994967
 31
0.0
  0
LINE
  5
2FA
330
2
100
AcDbEntity
  8
AM_HID
100
AcDbLine
 10
241.6338278595701
 20
102.0358588994967
 30
0.0
 11
241.5814626647855
 21
101.983493704712
 31
0.0
  0
LINE
  5
2FB
330
2
100
AcDbEntity
  8
AM_HID
100
AcDbLine
 10
167.9814626647855
 20
101.983493704712
 30
0.0
 11
167.9290974700008
 21
102.0358588994967
 31
0.0
  0
LINE
  5
2FC
330
2
100
AcDbEntity
  8
AM_HID
100
AcDbLine
 10
167.9290974700008
 20
102.0358588994967
 30
0.0
 11
163.8338278595701
 21
102.0358588994967
 31
0.0
  0
LINE
  5
2FD
330
2
100
AcDbEntity
  8
AM_HID
100
AcDbLine
 10
163.8338278595701
 20
102.0358588994967
 30
0.0
 11
163.7814626647854
 21
101.983493704712
 31
0.0
  0
LINE
  5
2FE
330
2
100
AcDbEntity
  8
AM_HID
100
AcDbLine
 10
163.7814626647854
 20
101.983493704712
 30
0.0
 11
161.7814626647854
 21
101.983493704712
 31
0.0
  0
LINE
  5
2FF
330
2
100
AcDbEntity
  8
AM_HID
100
AcDbLine
 10
146.8951490904849
 20
101.8700357826786
 30
0.0
 11
161.7814626647854
 21
101.8700357826786
 31
0.0
  0
LINE
  5
300
330
2
100
AcDbEntity
  8
AM_HID
100
AcDbLine
 10
172.2814626647855
 20
101.8700357826786
 30
0.0
 11
235.7814626647855
 21
101.8700357826786
 31
0.0
  0
LINE
  5
301
330
2
100
AcDbEntity
  8
AM_HID
100
AcDbLine
 10
235.7814626647855
 20
102.1700357826786
 30
0.0
 11
235.7814626647855
 21
101.8700357826786
 31
0.0
  0
LINE
  5
302
330
2
100
AcDbEntity
  8
AM_HID
100
AcDbLine
 10
172.2814626647855
 20
102.1700357826786
 30
0.0
 11
235.7814626647855
 21
102.1700357826786
 31
0.0
  0
LINE
  5
303
330
2
100
AcDbEntity
  8
AM_HID
100
AcDbLine
 10
172.2814626647855
 20
101.8700357826786
 30
0.0
 11
172.2814626647855
 21
102.1700357826786
 31
0.0
  0
LINE
  5
304
330
2
100
AcDbEntity
  8
AM_HID
100
AcDbLine
 10
172.2814626647855
 20
102.283493704712
 30
0.0
 11
172.2814626647855
 21
102.1700357826786
 31
0.0
  0
LINE
  5
305
330
2
100
AcDbEntity
  8
AM_HID
100
AcDbLine
 10
241.5814626647855
 20
101.983493704712
 30
0.0
 11
235.7814626647855
 21
101.983493704712
 31
0.0
  0
LINE
  5
306
330
2
100
AcDbEntity
  8
AM_HID
100
AcDbLine
 10
241.5814626647855
 20
103.9837983607998
 30
0.0
 11
241.5814626647855
 21
101.983493704712
 31
0.0
  0
LINE
  5
307
330
2
100
AcDbEntity
  8
AM_VIS
100
AcDbLine
 10
167.9814626647854
 20
103.9837983607998
 30
0.0
 11
241.5814626647855
 21
103.9837983607998
 31
0.0
  0
LINE
  5
308
330
2
100
AcDbEntity
  8
AM_HID
100
AcDbLine
 10
167.9814626647854
 20
101.983493704712
 30
0.0
 11
167.9814626647854
 21
103.9837983607998
 31
0.0
  0
LINE
  5
309
330
2
100
AcDbEntity
  8
AM_HID
100
AcDbLine
 10
172.2814626647855
 20
101.983493704712
 30
0.0
 11
167.9814626647854
 21
101.983493704712
 31
0.0
  0
LINE
  5
30A
330
2
100
AcDbEntity
  8
AM_HID
100
AcDbLine
 10
235.7814626647855
 20
102.283493704712
 30
0.0
 11
172.2814626647855
 21
102.283493704712
 31
0.0
  0
LINE
  5
30B
330
2
100
AcDbEntity
  8
AM_HID
100
AcDbLine
 10
263.1677000866643
 20
101.3701119351004
 30
0.0
 11
263.1677000866643
 21
36.59748478649929
 31
0.0
  0
LINE
  5
30C
330
2
100
AcDbEntity
  8
AM_HID
100
AcDbLine
 10
162.9814626647855
 20
36.24156522457889
 30
0.0
 11
246.5814626647855
 21
36.24156522457889
 31
0.0
  0
ELLIPSE
  5
30D
330
2
100
AcDbEntity
  8
AM_HID
100
AcDbEllipse
 10
162.9814626647854
 20
36.25989304275352
 30
0.0
 11
-1.050000000000001
 21
0.0
 31
0.0
210
0.0
220
0.0
230
1.0
 40
0.0174550649282177
 41
4.712388980384689
 42
7.853981633974482
  0
LINE
  5
30E
330
2
100
AcDbEntity
  8
AM_HID
100
AcDbLine
 10
246.5814626647855
 20
36.27822086092815
 30
0.0
 11
162.9814626647854
 21
36.27822086092815
 31
0.0
  0
ELLIPSE
  5
30F
330
2
100
AcDbEntity
  8
AM_HID
100
AcDbEllipse
 10
246.5814626647855
 20
36.25989304275352
 30
0.0
 11
-1.050000000000001
 21
0.0
 31
0.0
210
0.0
220
0.0
230
1.0
 40
0.0174550649282177
 41
1.570796326794896
 42
4.712388980384689
  0
ELLIPSE
  5
310
330
2
100
AcDbEntity
  8
AM_HID
100
AcDbEllipse
 10
246.5814626647855
 20
36.17087221161961
 30
0.0
 11
-1.05
 21
0.0
 31
0.0
210
0.0
220
0.0
230
1.0
 40
0.0174550649282177
 41
1.570796326794896
 42
4.712388980384689
  0
LINE
  5
311
330
2
100
AcDbEntity
  8
AM_HID
100
AcDbLine
 10
162.9814626647855
 20
36.15254439344499
 30
0.0
 11
246.5814626647855
 21
36.15254439344499
 31
0.0
  0
ELLIPSE
  5
312
330
2
100
AcDbEntity
  8
AM_HID
100
AcDbEllipse
 10
162.9814626647854
 20
36.17087221161961
 30
0.0
 11
-1.05
 21
0.0
 31
0.0
210
0.0
220
0.0
230
1.0
 40
0.0174550649282177
 41
4.712388980384689
 42
7.853981633974482
  0
LINE
  5
313
330
2
100
AcDbEntity
  8
AM_HID
100
AcDbLine
 10
246.5814626647855
 20
36.18920002979424
 30
0.0
 11
162.9814626647854
 21
36.18920002979424
 31
0.0
  0
LINE
  5
314
330
2
100
AcDbEntity
  8
AM_HID
100
AcDbLine
 10
242.5314626647855
 20
36.05915979607902
 30
0.0
 11
242.5314626647855
 21
36.02250415972977
 31
0.0
  0
LINE
  5
315
330
2
100
AcDbEntity
  8
AM_HID
100
AcDbLine
 10
244.8314626647855
 20
36.05915979607902
 30
0.0
 11
242.5314626647855
 21
36.05915979607902
 31
0.0
  0
LINE
  5
316
330
2
100
AcDbEntity
  8
AM_HID
100
AcDbLine
 10
244.8314626647855
 20
36.02250415972976
 30
0.0
 11
244.8314626647855
 21
36.05915979607902
 31
0.0
  0
LINE
  5
317
330
2
100
AcDbEntity
  8
AM_HID
100
AcDbLine
 10
242.5314626647855
 20
36.02250415972977
 30
0.0
 11
244.8314626647855
 21
36.02250415972977
 31
0.0
  0
LINE
  5
318
330
2
100
AcDbEntity
  8
AM_HID
100
AcDbLine
 10
164.7314626647854
 20
36.02250415972977
 30
0.0
 11
167.0314626647854
 21
36.02250415972977
 31
0.0
  0
LINE
  5
319
330
2
100
AcDbEntity
  8
AM_HID
100
AcDbLine
 10
164.7314626647854
 20
36.05915979607902
 30
0.0
 11
164.7314626647854
 21
36.02250415972977
 31
0.0
  0
LINE
  5
31A
330
2
100
AcDbEntity
  8
AM_HID
100
AcDbLine
 10
167.0314626647854
 20
36.05915979607902
 30
0.0
 11
164.7314626647854
 21
36.05915979607902
 31
0.0
  0
LINE
  5
31B
330
2
100
AcDbEntity
  8
AM_HID
100
AcDbLine
 10
167.0314626647854
 20
36.02250415972976
 30
0.0
 11
167.0314626647854
 21
36.05915979607902
 31
0.0
  0
LINE
  5
31C
330
2
100
AcDbEntity
  8
AM_HID
100
AcDbLine
 10
161.7814626647854
 20
36.09756093892109
 30
0.0
 11
146.8951490904849
 21
36.09756093892109
 31
0.0
  0
LINE
  5
31D
330
2
100
AcDbEntity
  8
AM_HID
100
AcDbLine
 10
161.7814626647854
 20
35.98410301688768
 30
0.0
 11
173.7814626647854
 21
35.98410301688768
 31
0.0
  0
LINE
  5
31E
330
2
100
AcDbEntity
  8
AM_HID
100
AcDbLine
 10
235.7814626647855
 20
36.09756093892109
 30
0.0
 11
173.7814626647854
 21
36.09756093892109
 31
0.0
  0
LINE
  5
31F
330
2
100
AcDbEntity
  8
AM_HID
100
AcDbLine
 10
235.7814626647855
 20
35.98410301688768
 30
0.0
 11
247.7814626647855
 21
35.98410301688768
 31
0.0
  0
LINE
  5
320
330
2
100
AcDbEntity
  8
AM_HID
100
AcDbLine
 10
262.6677762390861
 20
36.09756093892109
 30
0.0
 11
247.7814626647855
 21
36.09756093892109
 31
0.0
  0
LINE
  5
321
330
2
100
AcDbEntity
  8
AM_HID
100
AcDbLine
 10
147.2007650431724
 20
36.40317689160866
 30
0.0
 11
146.8951490904849
 21
36.09756093892109
 31
0.0
  0
LINE
  5
322
330
2
100
AcDbEntity
  8
AM_HID
100
AcDbLine
 10
146.3952252429067
 20
36.59748478649929
 30
0.0
 11
146.7008411955942
 21
36.90310073918686
 31
0.0
  0
ELLIPSE
  5
323
330
2
100
AcDbEntity
  8
AM_HID
100
AcDbEllipse
 10
146.8953014069286
 20
36.59763710294305
 30
0.0
 11
-0.3536610945847904
 21
-0.3536610945847904
 31
0.0
210
0.0
220
0.0
230
1.0
 40
0.9996954598818875
 41
5.497939437029723
 42
7.068431177329451
  0
LINE
  5
324
330
2
100
AcDbEntity
  8
AM_HID
100
AcDbLine
 10
146.7008411955942
 20
36.90310073918686
 30
0.0
 11
146.7008411955942
 21
101.0644959824128
 31
0.0
  0
LINE
  5
325
330
2
100
AcDbEntity
  8
AM_HID
100
AcDbLine
 10
147.2007650431724
 20
101.0644959824128
 30
0.0
 11
147.2007650431724
 21
36.90310073918686
 31
0.0
  0
LINE
  5
326
330
2
100
AcDbEntity
  8
AM_HID
100
AcDbLine
 10
146.7008411955942
 20
101.0644959824128
 30
0.0
 11
146.3952252429067
 21
101.3701119351004
 31
0.0
  0
LINE
  5
327
330
2
100
AcDbEntity
  8
AM_HID
100
AcDbLine
 10
146.8951490904849
 20
101.8700357826786
 30
0.0
 11
147.2007650431724
 21
101.5644198299911
 31
0.0
  0
ELLIPSE
  5
328
330
2
100
AcDbEntity
  8
AM_HID
100
AcDbEllipse
 10
146.8953014069286
 20
101.3699596186567
 30
0.0
 11
-0.3536610945847904
 21
0.3536610945847904
 31
0.0
210
0.0
220
0.0
230
1.0
 40
0.9996954598818875
 41
5.497939437029723
 42
7.068431177329436
  0
LINE
  5
329
330
2
100
AcDbEntity
  8
AM_HID
100
AcDbLine
 10
262.3621602863985
 20
36.40317689160866
 30
0.0
 11
147.2007650431724
 21
36.40317689160866
 31
0.0
  0
LINE
  5
32A
330
2
100
AcDbEntity
  8
AM_HID
100
AcDbLine
 10
147.2007650431724
 20
36.90310073918686
 30
0.0
 11
262.3621602863985
 21
36.90310073918686
 31
0.0
  0
LINE
  5
32B
330
2
100
AcDbEntity
  8
AM_HID
100
AcDbLine
 10
262.8620841339767
 20
36.90310073918686
 30
0.0
 11
263.1677000866643
 21
36.59748478649929
 31
0.0
  0
LINE
  5
32C
330
2
100
AcDbEntity
  8
AM_HID
100
AcDbLine
 10
262.6677762390861
 20
36.09756093892109
 30
0.0
 11
262.3621602863985
 21
36.40317689160866
 31
0.0
  0
ELLIPSE
  5
32D
330
2
100
AcDbEntity
  8
AM_HID
100
AcDbEllipse
 10
262.6676239226423
 20
36.59763710294305
 30
0.0
 11
0.3536610945847904
 21
-0.3536610945847904
 31
0.0
210
0.0
220
0.0
230
1.0
 40
0.9996954598818875
 41
5.497939437029723
 42
7.068431177329465
  0
LINE
  5
32E
330
2
100
AcDbEntity
  8
AM_HID
100
AcDbLine
 10
147.2007650431724
 20
101.5644198299911
 30
0.0
 11
262.3621602863985
 21
101.5644198299911
 31
0.0
  0
LINE
  5
32F
330
2
100
AcDbEntity
  8
AM_HID
100
AcDbLine
 10
262.3621602863985
 20
101.0644959824128
 30
0.0
 11
147.2007650431724
 21
101.0644959824128
 31
0.0
  0
LINE
  5
330
330
2
100
AcDbEntity
  8
AM_HID
100
AcDbLine
 10
262.8620841339767
 20
101.0644959824128
 30
0.0
 11
262.8620841339767
 21
36.90310073918687
 31
0.0
  0
LINE
  5
331
330
2
100
AcDbEntity
  8
AM_HID
100
AcDbLine
 10
262.3621602863985
 20
36.90310073918686
 30
0.0
 11
262.3621602863985
 21
101.0644959824128
 31
0.0
  0
LINE
  5
332
330
2
100
AcDbEntity
  8
AM_HID
100
AcDbLine
 10
262.3621602863985
 20
101.5644198299911
 30
0.0
 11
262.6677762390861
 21
101.8700357826786
 31
0.0
  0
LINE
  5
333
330
2
100
AcDbEntity
  8
AM_HID
100
AcDbLine
 10
263.1677000866643
 20
101.3701119351004
 30
0.0
 11
262.8620841339767
 21
101.0644959824128
 31
0.0
  0
ELLIPSE
  5
334
330
2
100
AcDbEntity
  8
AM_HID
100
AcDbEllipse
 10
262.6676239226423
 20
101.3699596186567
 30
0.0
 11
0.3536610945847904
 21
0.3536610945847904
 31
0.0
210
0.0
220
0.0
230
1.0
 40
0.9996954598818875
 41
5.497939437029723
 42
7.068431177329451
  0
LINE
  5
335
330
2
100
AcDbEntity
  8
AM_HID
100
AcDbLine
 10
262.3621602863985
 20
101.0644959824128
 30
0.0
 11
262.8620841339767
 21
101.0644959824128
 31
0.0
  0
ELLIPSE
  5
336
330
2
100
AcDbEntity
  8
AM_HID
100
AcDbEllipse
 10
262.3621602863985
 20
101.0644959824128
 30
0.0
 11
-0.3535533905932709
 21
0.3535533905932759
 31
0.0
210
0.0
220
0.0
230
1.0
 40
0.9996954598818875
 41
3.927143110234826
 42
5.497634850534561
  0
LINE
  5
337
330
2
100
AcDbEntity
  8
AM_HID
100
AcDbLine
 10
262.3621602863985
 20
101.5644198299911
 30
0.0
 11
262.3621602863985
 21
101.0644959824128
 31
0.0
  0
ELLIPSE
  5
338
330
2
100
AcDbEntity
  8
AM_HID
100
AcDbEllipse
 10
262.3621602863985
 20
36.90310073918686
 30
0.0
 11
0.3535533905933097
 21
0.3535533905932377
 31
0.0
210
0.0
220
0.0
230
1.0
 40
0.999695459881887
 41
3.92714311023492
 42
5.497634850534669
  0
LINE
  5
339
330
2
100
AcDbEntity
  8
AM_HID
100
AcDbLine
 10
262.8620841339767
 20
36.90310073918686
 30
0.0
 11
262.3621602863985
 21
36.90310073918686
 31
0.0
  0
LINE
  5
33A
330
2
100
AcDbEntity
  8
AM_HID
100
AcDbLine
 10
262.3621602863985
 20
36.90310073918686
 30
0.0
 11
262.3621602863985
 21
36.40317689160866
 31
0.0
  0
LINE
  5
33B
330
2
100
AcDbEntity
  8
AM_HID
100
AcDbLine
 10
146.7008411955942
 20
101.0644959824128
 30
0.0
 11
147.2007650431724
 21
101.0644959824128
 31
0.0
  0
LINE
  5
33C
330
2
100
AcDbEntity
  8
AM_HID
100
AcDbLine
 10
147.2007650431724
 20
101.0644959824128
 30
0.0
 11
147.2007650431724
 21
101.5644198299911
 31
0.0
  0
ELLIPSE
  5
33D
330
2
100
AcDbEntity
  8
AM_HID
100
AcDbEllipse
 10
147.2007650431724
 20
101.0644959824128
 30
0.0
 11
-0.3535533905933097
 21
-0.3535533905932377
 31
0.0
210
0.0
220
0.0
230
1.0
 40
0.999695459881887
 41
3.92714311023492
 42
5.497634850534669
  0
LINE
  5
33E
330
2
100
AcDbEntity
  8
AM_HID
100
AcDbLine
 10
147.2007650431724
 20
36.40317689160866
 30
0.0
 11
147.2007650431724
 21
36.90310073918686
 31
0.0
  0
LINE
  5
33F
330
2
100
AcDbEntity
  8
AM_HID
100
AcDbLine
 10
147.2007650431724
 20
36.90310073918686
 30
0.0
 11
146.7008411955942
 21
36.90310073918686
 31
0.0
  0
ELLIPSE
  5
340
330
2
100
AcDbEntity
  8
AM_HID
100
AcDbEllipse
 10
147.2007650431724
 20
36.90310073918686
 30
0.0
 11
0.3535533905932712
 21
-0.3535533905932762
 31
0.0
210
0.0
220
0.0
230
1.0
 40
0.9996954598818874
 41
3.927143110234826
 42
5.497634850534561
  0
LINE
  5
341
330
2
100
AcDbEntity
  8
AM_HID
100
AcDbLine
 10
263.5811580086977
 20
36.68395071204408
 30
0.0
 11
263.5811580086977
 21
101.2836460095556
 31
0.0
  0
LINE
  5
342
330
2
100
AcDbEntity
  8
AM_HID
100
AcDbLine
 10
263.4677000866643
 20
101.1701880875222
 30
0.0
 11
263.4677000866643
 21
36.79740863407749
 31
0.0
  0
LINE
  5
343
330
2
100
AcDbEntity
  8
AM_HID
100
AcDbLine
 10
263.5811580086977
 20
101.2836460095556
 30
0.0
 11
263.4677000866643
 21
101.1701880875222
 31
0.0
  0
ELLIPSE
  5
344
330
2
100
AcDbEntity
  8
AM_HID
100
AcDbEllipse
 10
262.5810056806537
 20
101.2833413766681
 30
0.0
 11
0.7073221891695809
 21
0.7073221891695809
 31
0.0
210
0.0
220
0.0
230
1.0
 40
0.9996954598818874
 41
5.497939437029716
 42
7.068431177329458
  0
LINE
  5
345
330
2
100
AcDbEntity
  8
AM_HID
100
AcDbLine
 10
262.4678523915079
 20
102.1700357826786
 30
0.0
 11
262.5813103135413
 21
102.283493704712
 31
0.0
  0
ELLIPSE
  5
346
330
2
100
AcDbEntity
  8
AM_HID
100
AcDbEllipse
 10
262.4675477586203
 20
101.1698834546347
 30
0.0
 11
0.7073221891695809
 21
0.7073221891695809
 31
0.0
210
0.0
220
0.0
230
1.0
 40
0.9996954598818874
 41
5.497939437029716
 42
7.068431177329451
  0
LINE
  5
347
330
2
100
AcDbEntity
  8
AM_HID
100
AcDbLine
 10
262.4678523915079
 20
35.79756093892111
 30
0.0
 11
247.7814626647855
 21
35.79756093892111
 31
0.0
  0
LINE
  5
348
330
2
100
AcDbEntity
  8
AM_HID
100
AcDbLine
 10
247.7814626647855
 20
35.7975609389211
 30
0.0
 11
247.7814626647855
 21
35.68410301688769
 31
0.0
  0
LINE
  5
349
330
2
100
AcDbEntity
  8
AM_HID
100
AcDbLine
 10
247.7814626647855
 20
35.68410301688769
 30
0.0
 11
262.5813103135413
 21
35.68410301688769
 31
0.0
  0
LINE
  5
34A
330
2
100
AcDbEntity
  8
AM_HID
100
AcDbLine
 10
262.5813103135413
 20
35.68410301688769
 30
0.0
 11
262.4678523915079
 21
35.7975609389211
 31
0.0
  0
ELLIPSE
  5
34B
330
2
100
AcDbEntity
  8
AM_HID
100
AcDbEllipse
 10
262.5810056806537
 20
36.6842553449316
 30
0.0
 11
0.7073221891695809
 21
-0.7073221891695809
 31
0.0
210
0.0
220
0.0
230
1.0
 40
0.9996954598818874
 41
5.49793943702973
 42
7.068431177329451
  0
LINE
  5
34C
330
2
100
AcDbEntity
  8
AM_HID
100
AcDbLine
 10
263.4677000866643
 20
36.79740863407749
 30
0.0
 11
263.5811580086977
 21
36.68395071204408
 31
0.0
  0
ELLIPSE
  5
34D
330
2
100
AcDbEntity
  8
AM_HID
100
AcDbEllipse
 10
262.4675477586203
 20
36.79771326696501
 30
0.0
 11
0.7073221891695809
 21
-0.7073221891695809
 31
0.0
210
0.0
220
0.0
230
1.0
 40
0.9996954598818874
 41
5.497939437029723
 42
7.068431177329451
  0
LINE
  5
34E
330
2
100
AcDbEntity
  8
AM_HID
100
AcDbLine
 10
145.9817673208733
 20
101.2836460095556
 30
0.0
 11
145.9817673208733
 21
36.68395071204408
 31
0.0
  0
LINE
  5
34F
330
2
100
AcDbEntity
  8
AM_HID
100
AcDbLine
 10
146.0952252429067
 20
36.7974086340775
 30
0.0
 11
146.0952252429067
 21
101.1701880875222
 31
0.0
  0
LINE
  5
350
330
2
100
AcDbEntity
  8
AM_HID
100
AcDbLine
 10
145.9817673208733
 20
36.68395071204408
 30
0.0
 11
146.0952252429067
 21
36.79740863407749
 31
0.0
  0
ELLIPSE
  5
351
330
2
100
AcDbEntity
  8
AM_HID
100
AcDbEllipse
 10
146.9819196489172
 20
36.6842553449316
 30
0.0
 11
-0.7073221891695809
 21
-0.7073221891695809
 31
0.0
210
0.0
220
0.0
230
1.0
 40
0.9996954598818874
 41
5.497939437029716
 42
7.068431177329465
  0
LINE
  5
352
330
2
100
AcDbEntity
  8
AM_HID
100
AcDbLine
 10
147.095072938063
 20
35.7975609389211
 30
0.0
 11
146.9816150160297
 21
35.68410301688769
 31
0.0
  0
ELLIPSE
  5
353
330
2
100
AcDbEntity
  8
AM_HID
100
AcDbEllipse
 10
147.0953775709506
 20
36.79771326696501
 30
0.0
 11
-0.7073221891695809
 21
-0.7073221891695809
 31
0.0
210
0.0
220
0.0
230
1.0
 40
0.9996954598818874
 41
5.497939437029716
 42
7.068431177329451
  0
LINE
  5
354
330
2
100
AcDbEntity
  8
AM_HID
100
AcDbLine
 10
147.095072938063
 20
102.1700357826786
 30
0.0
 11
161.7814626647854
 21
102.1700357826786
 31
0.0
  0
LINE
  5
355
330
2
100
AcDbEntity
  8
AM_HID
100
AcDbLine
 10
161.7814626647854
 20
102.1700357826786
 30
0.0
 11
161.7814626647854
 21
102.283493704712
 31
0.0
  0
LINE
  5
356
330
2
100
AcDbEntity
  8
AM_HID
100
AcDbLine
 10
161.7814626647854
 20
102.283493704712
 30
0.0
 11
146.9816150160297
 21
102.283493704712
 31
0.0
  0
LINE
  5
357
330
2
100
AcDbEntity
  8
AM_HID
100
AcDbLine
 10
146.9816150160297
 20
102.283493704712
 30
0.0
 11
147.095072938063
 21
102.1700357826786
 31
0.0
  0
ELLIPSE
  5
358
330
2
100
AcDbEntity
  8
AM_HID
100
AcDbEllipse
 10
146.9819196489172
 20
101.2833413766681
 30
0.0
 11
-0.7073221891695809
 21
0.7073221891695809
 31
0.0
210
0.0
220
0.0
230
1.0
 40
0.9996954598818874
 41
5.49793943702973
 42
7.068431177329451
  0
LINE
  5
359
330
2
100
AcDbEntity
  8
AM_HID
100
AcDbLine
 10
146.0952252429067
 20
101.1701880875222
 30
0.0
 11
145.9817673208733
 21
101.2836460095556
 31
0.0
  0
ELLIPSE
  5
35A
330
2
100
AcDbEntity
  8
AM_HID
100
AcDbEllipse
 10
147.0953775709506
 20
101.1698834546347
 30
0.0
 11
-0.7073221891695809
 21
0.7073221891695809
 31
0.0
210
0.0
220
0.0
230
1.0
 40
0.9996954598818874
 41
5.497939437029723
 42
7.068431177329451
  0
LINE
  5
35B
330
2
100
AcDbEntity
  8
AM_HID
100
AcDbLine
 10
247.6314626647855
 20
34.25958838666571
 30
0.0
 11
247.6314626647855
 21
34.1705675555318
 31
0.0
  0
LINE
  5
35C
330
2
100
AcDbEntity
  8
AM_HID
100
AcDbLine
 10
247.6314626647855
 20
103.7970291660679
 30
0.0
 11
247.6314626647855
 21
103.708008334934
 31
0.0
  0
LINE
  5
35D
330
2
100
AcDbEntity
  8
AM_HID
100
AcDbLine
 10
161.9314626647854
 20
34.25958838666571
 30
0.0
 11
161.9314626647854
 21
34.1705675555318
 31
0.0
  0
LINE
  5
35E
330
2
100
AcDbEntity
  8
AM_HID
100
AcDbLine
 10
161.9314626647854
 20
103.7970291660679
 30
0.0
 11
161.9314626647854
 21
103.708008334934
 31
0.0
  0
LINE
  5
35F
330
2
100
AcDbEntity
  8
AM_HID
100
AcDbLine
 10
247.6314626647855
 20
36.25989304275352
 30
0.0
 11
247.6314626647855
 21
34.25958838666571
 31
0.0
  0
LINE
  5
360
330
2
100
AcDbEntity
  8
AM_HID
100
AcDbLine
 10
247.6314626647855
 20
103.708008334934
 30
0.0
 11
247.6314626647855
 21
101.7077036788462
 31
0.0
  0
LINE
  5
361
330
2
100
AcDbEntity
  8
AM_HID
100
AcDbLine
 10
161.9314626647854
 20
36.25989304275352
 30
0.0
 11
161.9314626647854
 21
34.25958838666571
 31
0.0
  0
LINE
  5
362
330
2
100
AcDbEntity
  8
AM_HID
100
AcDbLine
 10
161.9314626647854
 20
103.708008334934
 30
0.0
 11
161.9314626647854
 21
101.7077036788462
 31
0.0
  0
LINE
  5
363
330
2
100
AcDbEntity
  8
AM_VIS
100
AcDbLine
 10
337.1233121637213
 20
172.1870104809001
 30
0.0
 11
337.1233121637213
 21
171.532795972763
 31
0.0
  0
LINE
  5
364
330
2
100
AcDbEntity
  8
AM_VIS
100
AcDbLine
 10
381.4589073441179
 20
147.1605595950609
 30
0.0
 11
381.4589073441179
 21
145.9356281606788
 31
0.0
  0
LINE
  5
365
330
2
100
AcDbEntity
  8
AM_VIS
100
AcDbLine
 10
384.1635907821564
 20
147.5516917748922
 30
0.0
 11
384.1635907821564
 21
148.7766232092743
 31
0.0
  0
LINE
  5
366
330
2
100
AcDbEntity
  8
AM_VIS
100
AcDbLine
 10
339.8279956017599
 20
173.1488595869764
 30
0.0
 11
339.8279956017599
 21
173.8030740951136
 31
0.0
  0
LINE
  5
367
330
2
100
AcDbEntity
  8
AM_VIS
100
AcDbLine
 10
359.3441427625086
 20
161.8812067701737
 30
0.0
 11
359.3441427625086
 21
162.4936724873648
 31
0.0
  0
LINE
  5
368
330
2
100
AcDbEntity
  8
AM_VIS
100
AcDbLine
 10
359.9365245962462
 20
162.8476239752767
 30
0.0
 11
359.3441427625086
 21
162.4936724873648
 31
0.0
  0
LINE
  5
369
330
2
100
AcDbEntity
  8
AM_VIS
100
AcDbLine
 10
356.6394593244701
 20
160.2651431559603
 30
0.0
 11
356.6394593244701
 21
160.8776088731514
 31
0.0
  0
LINE
  5
36A
330
2
100
AcDbEntity
  8
AM_VIS
100
AcDbLine
 10
357.2318411582076
 20
161.2315603610633
 30
0.0
 11
356.63945932447
 21
160.8776088731515
 31
0.0
  0
LINE
  5
36B
330
2
100
AcDbEntity
  8
AM_VIS
100
AcDbLine
 10
365.7611368017765
 20
159.4847825504885
 30
0.0
 11
364.6474436214077
 21
158.8193445916948
 31
0.0
  0
LINE
  5
36C
330
2
100
AcDbEntity
  8
AM_VIS
100
AcDbLine
 10
384.1635907821564
 20
147.5516917748922
 30
0.0
 11
364.6474436214077
 21
158.8193445916948
 31
0.0
  0
ELLIPSE
  5
36D
330
2
100
AcDbEntity
  8
AM_VIS
100
AcDbEllipse
 10
384.7204373723408
 20
147.8844107542891
 30
0.0
 11
0.7874678462514814
 21
0.0121161425960833
 31
0.0
210
0.0
220
0.0
230
1.0
 40
0.5873368847174615
 41
3.917954176604516
 42
7.059546830194309
  0
LINE
  5
36E
330
2
100
AcDbEntity
  8
AM_VIS
100
AcDbLine
 10
365.7611368017765
 20
159.4847825504885
 30
0.0
 11
385.2772839625252
 21
148.2171297336859
 31
0.0
  0
LINE
  5
36F
330
2
100
AcDbEntity
  8
AM_VIS
100
AcDbLine
 10
356.6394593244701
 20
160.2651431559603
 30
0.0
 11
357.7531525048389
 21
160.9305811147541
 31
0.0
  0
LINE
  5
370
330
2
100
AcDbEntity
  8
AM_VIS
100
AcDbLine
 10
338.2370053440901
 20
172.1982339315567
 30
0.0
 11
357.7531525048389
 21
160.9305811147541
 31
0.0
  0
ELLIPSE
  5
371
330
2
100
AcDbEntity
  8
AM_VIS
100
AcDbEllipse
 10
337.6801587539057
 20
171.8655149521598
 30
0.0
 11
0.7874678462514808
 21
0.0121161425960836
 31
0.0000000000000001
210
-0.0000000000000001
220
0.0
230
1.0
 40
0.5873368847174616
 41
0.7763615230147231
 42
3.917954176604515
  0
LINE
  5
372
330
2
100
AcDbEntity
  8
AM_VIS
100
AcDbLine
 10
356.6394593244701
 20
160.2651431559603
 30
0.0
 11
337.1233121637213
 21
171.532795972763
 31
0.0
  0
LINE
  5
373
330
2
100
AcDbEntity
  8
AM_VIS
100
AcDbLine
 10
340.9416887821287
 20
173.8142975457701
 30
0.0
 11
360.4578359428774
 21
162.5466447289675
 31
0.0
  0
ELLIPSE
  5
374
330
2
100
AcDbEntity
  8
AM_VIS
100
AcDbEllipse
 10
340.3848421919442
 20
173.4815785663733
 30
0.0
 11
0.7874678462514814
 21
0.0121161425960833
 31
0.0
210
0.0
220
0.0
230
1.0
 40
0.5873368847174615
 41
0.776361523014724
 42
3.917954176604516
  0
LINE
  5
375
330
2
100
AcDbEntity
  8
AM_VIS
100
AcDbLine
 10
359.3441427625086
 20
161.8812067701737
 30
0.0
 11
339.8279956017599
 21
173.1488595869764
 31
0.0
  0
LINE
  5
376
330
2
100
AcDbEntity
  8
AM_VIS
100
AcDbLine
 10
359.3441427625086
 20
161.8812067701737
 30
0.0
 11
360.4578359428774
 21
162.5466447289675
 31
0.0
  0
LINE
  5
377
330
2
100
AcDbEntity
  8
AM_VIS
100
AcDbLine
 10
381.4589073441179
 20
145.9356281606788
 30
0.0
 11
361.9427601833692
 21
157.2032809774813
 31
0.0
  0
ELLIPSE
  5
378
330
2
100
AcDbEntity
  8
AM_VIS
100
AcDbEllipse
 10
382.0157539343022
 20
146.2683471400756
 30
0.0
 11
0.7874678462514808
 21
0.0121161425960836
 31
0.0000000000000001
210
-0.0000000000000001
220
0.0
230
1.0
 40
0.5873368847174616
 41
3.917954176604516
 42
7.059546830194308
  0
LINE
  5
379
330
2
100
AcDbEntity
  8
AM_VIS
100
AcDbLine
 10
363.0564533637379
 20
157.8687189362751
 30
0.0
 11
382.5726005244867
 21
146.6010661194725
 31
0.0
  0
LINE
  5
37A
330
2
100
AcDbEntity
  8
AM_VIS
100
AcDbLine
 10
363.0564533637379
 20
157.8687189362751
 30
0.0
 11
361.9427601833692
 21
157.2032809774814
 31
0.0
  0
LINE
  5
37B
330
2
100
AcDbEntity
  8
AM_VIS
100
AcDbLine
 10
322.0884542287424
 20
216.4544237185499
 30
0.0
 11
335.8573406362316
 21
223.8583818628972
 31
0.0
  0
LINE
  5
37C
330
2
100
AcDbEntity
  8
AM_VIS
100
AcDbLine
 10
336.9086644999657
 20
182.7570847777898
 30
0.0
 11
336.9086644999657
 21
223.8530848102219
 31
0.0
  0
LINE
  5
37D
330
2
100
AcDbEntity
  8
AM_VIS
100
AcDbLine
 10
335.8573406362315
 20
223.8583818628972
 30
0.0
 11
335.8573406362315
 21
182.7623818304651
 31
0.0
  0
LINE
  5
37E
330
2
100
AcDbEntity
  8
AM_VIS
100
AcDbLine
 10
335.8573406362315
 20
182.7623818304651
 30
0.0
 11
322.0884542287423
 21
174.8129115566598
 31
0.0
  0
LINE
  5
37F
330
2
100
AcDbEntity
  8
AM_VIS
100
AcDbLine
 10
322.6187035427915
 20
173.8944928040482
 30
0.0
 11
336.3875899502807
 21
181.8439630778534
 31
0.0
  0
LINE
  5
380
330
2
100
AcDbEntity
  8
AM_VIS
100
AcDbLine
 10
336.9086644999657
 20
223.8530848102219
 30
0.0
 11
399.5456789023635
 21
187.689587683763
 31
0.0
  0
LINE
  5
381
330
2
100
AcDbEntity
  8
AM_VIS
100
AcDbLine
 10
399.5456789023635
 20
146.5935876513309
 30
0.0
 11
336.9086644999657
 21
182.7570847777898
 31
0.0
  0
LINE
  5
382
330
2
100
AcDbEntity
  8
AM_VIS
100
AcDbLine
 10
336.3875899502807
 20
181.8439630778535
 30
0.0
 11
399.0246043526784
 21
145.6804659513947
 31
0.0
  0
LINE
  5
383
330
2
100
AcDbEntity
  8
AM_VIS
100
AcDbLine
 10
399.5456789023635
 20
187.6895876837631
 30
0.0
 11
399.5456789023635
 21
146.5935876513309
 31
0.0
  0
LINE
  5
384
330
2
100
AcDbEntity
  8
AM_VIS
100
AcDbLine
 10
399.0246043526784
 20
145.6804659513947
 30
0.0
 11
385.7281453073724
 21
137.4582396128604
 31
0.0
  0
ELLIPSE
  5
385
330
2
100
AcDbEntity
  8
AM_VIS
100
AcDbEllipse
 10
399.0153488164736
 20
146.287401433483
 30
0.0
 11
0.7499999999999999
 21
0.0
 31
0.0
210
0.0000000000000001
220
0.0
230
1.0
 40
0.5773502691896258
 41
0.0000000000000026
 42
0.7853981633974483
  0
ELLIPSE
  5
386
330
2
100
AcDbEntity
  8
AM_VIS
100
AcDbEllipse
 10
399.0153488164736
 20
146.287401433483
 30
0.0
 11
0.3944567150310061
 21
-0.6378901942865606
 31
0.0
210
0.0
220
0.0
230
0.9999999999999998
 40
0.5771744428704544
 41
5.480491458658691
 42
6.283185307179588
  0
ELLIPSE
  5
387
330
2
100
AcDbEntity
  8
AM_VIS
100
AcDbEllipse
 10
399.0153488164736
 20
146.287401433483
 30
0.0
 11
0.3749999999999959
 21
0.6495190528383312
 31
-0.0000000000000001
210
0.0
220
0.0000000000000001
230
1.0
 40
0.5773502691896218
 41
3.944444109507187
 42
5.497787143782134
  0
ELLIPSE
  5
388
330
2
100
AcDbEntity
  8
AM_VIS
100
AcDbEllipse
 10
399.0153488164736
 20
187.3834014659151
 30
0.0
 11
0.749999999999999
 21
-0.0000000000000448
 31
0.0
210
0.0
220
0.0
230
1.0
 40
0.5773502691896259
 41
0.000000000000163
 42
0.7853981633976176
  0
ELLIPSE
  5
389
330
2
100
AcDbEntity
  8
AM_VIS
100
AcDbEllipse
 10
399.0153488164736
 20
187.3834014659151
 30
0.0
 11
0.3749999999999999
 21
0.6495190528383289
 31
0.0
210
0.0
220
0.0
230
0.9999999999999998
 40
0.577350269189626
 41
5.497787143782137
 42
6.283185307179584
  0
ELLIPSE
  5
38A
330
2
100
AcDbEntity
  8
AM_VIS
100
AcDbEllipse
 10
336.3783344140758
 20
182.4508985599418
 30
0.0
 11
0.7499999999999999
 21
0.0
 31
0.0
210
0.0000000000000001
220
0.0
230
1.0
 40
0.5773502691896258
 41
0.7853981633974555
 42
2.3387411976724
  0
ELLIPSE
  5
38B
330
2
100
AcDbEntity
  8
AM_VIS
100
AcDbEllipse
 10
336.3783344140758
 20
182.4508985599418
 30
0.0
 11
0.3749999999999612
 21
0.6495190528383512
 31
0.0
210
0.0
220
0.0
230
1.0
 40
0.5773502691896259
 41
3.944444109507012
 42
5.497787143781964
  0
ELLIPSE
  5
38C
330
2
100
AcDbEntity
  8
AM_VIS
100
AcDbEllipse
 10
336.3783344140758
 20
182.4508985599418
 30
0.0
 11
-0.3749999999999986
 21
0.6495190528383295
 31
0.0000000000000001
210
0.0
220
-0.0000000000000001
230
1.0
 40
0.5570252081200261
 41
0.785550456645039
 42
2.356042196944773
  0
ELLIPSE
  5
38D
330
2
100
AcDbEntity
  8
AM_VIS
100
AcDbEllipse
 10
336.3783344140758
 20
223.5468985923739
 30
0.0
 11
0.3749999999999647
 21
0.6495190528383481
 31
0.0
210
0.0
220
0.0
230
0.9999999999999998
 40
0.5773502691896299
 41
5.497787143781965
 42
6.283185307179412
  0
ELLIPSE
  5
38E
330
2
100
AcDbEntity
  8
AM_VIS
100
AcDbEllipse
 10
336.3783344140758
 20
223.5468985923739
 30
0.0
 11
0.7500000000000014
 21
-0.0000000000000448
 31
0.0
210
0.0
220
0.0
230
1.0
 40
0.5773502691896259
 41
0.7853981633976211
 42
2.338741197672573
  0
ELLIPSE
  5
38F
330
2
100
AcDbEntity
  8
AM_VIS
100
AcDbEllipse
 10
336.3783344140758
 20
223.5468985923739
 30
0.0
 11
-0.3552007555616531
 21
0.6605546330534896
 31
0.0
210
0.0
220
0.0
230
1.0
 40
0.5771744428704555
 41
-0.0000000000000038
 42
0.8026938485208892
  0
ELLIPSE
  5
390
330
2
100
AcDbEntity
  8
AM_VIS
100
AcDbEllipse
 10
322.6188650987769
 20
216.1480043111711
 30
0.0
 11
-0.3751142373341434
 21
0.6497169177051866
 31
0.0
210
0.0
220
0.0
230
0.9999999999999998
 40
0.5771744428704545
 41
6.265737328808566
 42
7.068431177329454
  0
LINE
  5
391
330
2
100
AcDbEntity
  8
AM_VIS
100
AcDbLine
 10
322.0884542287424
 20
174.8129115566598
 30
0.0
 11
322.0884542287424
 21
216.4544237185499
 31
0.0
  0
ELLIPSE
  5
392
330
2
100
AcDbEntity
  8
AM_VIS
100
AcDbEllipse
 10
322.6188650987769
 20
174.5068652468476
 30
0.0
 11
0.3750000000000027
 21
-0.6495190528383273
 31
-0.0000000000000001
210
0.0
220
-0.0000000000000001
230
1.0
 40
0.5775261490712771
 41
3.927143110234817
 42
5.497634850534552
  0
LINE
  5
393
330
2
100
AcDbEntity
  8
AM_VIS
100
AcDbLine
 10
385.7281453073724
 20
137.4582396128604
 30
0.0
 11
322.6187035427915
 21
173.8944928040482
 31
0.0
  0
ELLIPSE
  5
394
330
2
100
AcDbEntity
  8
AM_VIS
100
AcDbEllipse
 10
385.727983751387
 20
138.0707986044431
 30
0.0
 11
0.3751142373341434
 21
-0.6497169177051866
 31
0.0
210
0.0
220
0.0
230
0.9999999999999998
 40
0.5771744428704545
 41
5.497939437029724
 42
6.300633285550613
  0
LINE
  5
395
330
2
100
AcDbEntity
  8
AM_VIS
100
AcDbLine
 10
340.598405689366
 20
173.9289945498927
 30
0.0
 11
359.8654541091398
 21
162.8051589582467
 31
0.0
  0
LINE
  5
396
330
2
100
AcDbEntity
  8
AM_VIS
100
AcDbLine
 10
365.6900663146702
 20
159.4423175334586
 30
0.0
 11
384.1635907821564
 21
148.7766232092743
 31
0.0
  0
ELLIPSE
  5
397
330
2
100
AcDbEntity
  8
AM_VIS
100
AcDbEllipse
 10
384.7204373723408
 20
149.1093421886712
 30
0.0
 11
-0.7874678462514808
 21
-0.0121161425961313
 31
0.0
210
0.0
220
0.0
230
1.0
 40
0.5873368847174615
 41
0.7763615230145531
 42
1.287128728822836
  0
ELLIPSE
  5
398
330
2
100
AcDbEntity
  8
AM_VIS
100
AcDbEllipse
 10
382.0157539343022
 20
147.4932785744578
 30
0.0
 11
-0.78746784625148
 21
-0.0121161425961313
 31
0.0
210
0.0
220
0.0
230
1.0
 40
0.5873368847174616
 41
0.7763615230145531
 42
1.287128728822836
  0
LINE
  5
399
330
2
100
AcDbEntity
  8
AM_VIS
100
AcDbLine
 10
337.8937222513274
 20
172.3129309356793
 30
0.0
 11
357.1607706711013
 21
161.1890953440333
 31
0.0
  0
LINE
  5
39A
330
2
100
AcDbEntity
  8
AM_VIS
100
AcDbLine
 10
362.9853828766317
 20
157.8262539192452
 30
0.0
 11
381.4589073441179
 21
147.1605595950609
 31
0.0
  0
LINE
  5
39B
330
2
100
AcDbEntity
  8
AM_VIS
100
AcDbLine
 10
322.250350618285
 20
216.8013997405525
 30
0.0
 11
336.0231336585141
 21
224.2074532254274
 31
0.0
  0
LINE
  5
39C
330
2
100
AcDbEntity
  8
AM_VIS
100
AcDbLine
 10
336.7533344140758
 20
224.1964176452123
 30
0.0
 11
399.3903488164735
 21
188.0329205187535
 31
0.0
  0
LINE
  5
39D
330
2
100
AcDbEntity
  8
AM_VIS
100
AcDbLine
 10
399.7653488164735
 20
187.3834014659151
 30
0.0
 11
399.7653488164735
 21
146.287401433483
 31
0.0
  0
LINE
  5
39E
330
2
100
AcDbEntity
  8
AM_VIS
100
AcDbLine
 10
386.109583551702
 20
137.424957987984
 30
0.0
 11
399.4098055315046
 21
145.6495112391965
 31
0.0
  0
ARC
  5
39F
330
2
100
AcDbEntity
  8
AM_VIS
100
AcDbCircle
 10
399.0153488164736
 20
146.287401433483
 30
0.0
 40
0.7499999999999992
100
AcDbArc
 50
301.7316992156008
 51
0.0
  0
ARC
  5
3A0
330
2
100
AcDbEntity
  8
AM_VIS
100
AcDbCircle
 10
399.0153488164736
 20
187.3834014659151
 30
0.0
 40
0.75
100
AcDbArc
 50
359.9999999999996
 51
59.99999999999986
  0
ARC
  5
3A1
330
2
100
AcDbEntity
  8
AM_VIS
100
AcDbCircle
 10
336.3783344140758
 20
223.5468985923739
 30
0.0
 40
0.75
100
AcDbArc
 50
60.00000000000169
 51
118.2683007843997
  0
LINE
  5
3A2
330
2
100
AcDbEntity
  8
AM_VIS
100
AcDbLine
 10
293.8359726050927
 20
67.64654850736935
 30
0.0
 11
292.7751508650236
 21
67.03408279017828
 31
0.0
  0
LINE
  5
3A3
330
2
100
AcDbEntity
  8
AM_VIS
100
AcDbLine
 10
335.0956532873277
 20
43.82526075880295
 30
0.0
 11
334.0348315472586
 21
43.21279504161188
 31
0.0
  0
LINE
  5
3A4
330
2
100
AcDbEntity
  8
AM_VIS
100
AcDbLine
 10
334.0348315472586
 20
43.21279504161188
 30
0.0
 11
333.4864639828514
 21
43.52939520253726
 31
0.0
  0
LINE
  5
3A5
330
2
100
AcDbEntity
  8
AM_VIS
100
AcDbLine
 10
334.0317396180752
 20
43.00647029860182
 30
0.0
 11
334.0348315472586
 21
43.21279504161188
 31
0.0
  0
LINE
  5
3A6
330
2
100
AcDbEntity
  8
AM_VIS
100
AcDbLine
 10
292.7751508650236
 20
67.03408279017828
 30
0.0
 11
292.2267833006164
 21
67.35068295110366
 31
0.0
  0
LINE
  5
3A7
330
2
100
AcDbEntity
  8
AM_VIS
100
AcDbLine
 10
292.7720589358401
 20
66.82775804716823
 30
0.0
 11
292.7751508650236
 21
67.03408279017828
 31
0.0
  0
LINE
  5
3A8
330
2
100
AcDbEntity
  8
AM_VIS
100
AcDbLine
 10
332.1228661542302
 20
38.58633142192366
 30
0.0
 11
333.1281462178036
 21
39.16673013723876
 31
0.0
  0
ELLIPSE
  5
3A9
330
2
100
AcDbEntity
  8
AM_VIS
100
AcDbEllipse
 10
334.8180242302679
 20
45.50208885506203
 30
0.0
 11
-0.3832410358416571
 21
0.6880252308152424
 31
-0.0000000000000001
210
0.0
220
0.0000000000000001
230
1.0
 40
0.5873368847174616
 41
4.996056578356586
 42
5.506823784164863
  0
ELLIPSE
  5
3AA
330
2
100
AcDbEntity
  8
AM_VIS
100
AcDbEllipse
 10
334.8652346552892
 20
48.65244522870515
 30
0.0
 11
-0.3832410358416578
 21
0.6880252308152432
 31
0.0
210
0.0
220
0.0
230
1.0
 40
0.5873368847174615
 41
4.996056578356561
 42
5.506823784164861
  0
LINE
  5
3AB
330
2
100
AcDbEntity
  8
AM_VIS
100
AcDbLine
 10
310.0082960040069
 20
60.4802066331525
 30
0.0
 11
291.2625589308642
 21
71.30306297848933
 31
0.0
  0
LINE
  5
3AC
330
2
100
AcDbEntity
  8
AM_VIS
100
AcDbLine
 10
291.5529705833272
 20
72.36032516714619
 30
0.0
 11
290.9864041997561
 21
72.03321791307761
 31
0.0
  0
LINE
  5
3AD
330
2
100
AcDbEntity
  8
AM_VIS
100
AcDbLine
 10
334.8277440236547
 20
46.1506916378709
 30
0.0
 11
335.8885657637237
 21
46.76315735506197
 31
0.0
  0
LINE
  5
3AE
330
2
100
AcDbEntity
  8
AM_VIS
100
AcDbLine
 10
334.8277440236547
 20
46.1506916378709
 30
0.0
 11
315.8329082095372
 21
57.11736520836438
 31
0.0
  0
LINE
  5
3AF
330
2
100
AcDbEntity
  8
AM_VIS
100
AcDbLine
 10
310.0555064290281
 20
63.63056300679563
 30
0.0
 11
291.3097693558855
 21
74.45341935213247
 31
0.0
  0
LINE
  5
3B0
330
2
100
AcDbEntity
  8
AM_VIS
100
AcDbLine
 10
291.0336146247773
 20
75.18357428672072
 30
0.0
 11
291.6001810083484
 21
75.5106815407893
 31
0.0
  0
LINE
  5
3B1
330
2
100
AcDbEntity
  8
AM_VIS
100
AcDbLine
 10
335.935776188745
 20
49.9135137287051
 30
0.0
 11
334.8749544486759
 21
49.30104801151403
 31
0.0
  0
LINE
  5
3B2
330
2
100
AcDbEntity
  8
AM_VIS
100
AcDbLine
 10
334.8749544486759
 20
49.30104801151403
 30
0.0
 11
315.8801186345585
 21
60.26772158200749
 31
0.0
  0
LINE
  5
3B3
330
2
100
AcDbEntity
  8
AM_VIS
100
AcDbLine
 10
310.5859172990626
 20
63.93679586539114
 30
0.0
 11
315.8892181579617
 21
60.87493368691217
 31
0.0
  0
LINE
  5
3B4
330
2
100
AcDbEntity
  8
AM_VIS
100
AcDbLine
 10
310.5755772356924
 20
63.24680240467809
 30
0.0
 11
310.5859172990627
 21
63.93679586539116
 31
0.0
  0
LINE
  5
3B5
330
2
100
AcDbEntity
  8
AM_VIS
100
AcDbLine
 10
310.0555064290281
 20
63.63056300679563
 30
0.0
 11
310.0542658890612
 21
63.54778165098725
 31
0.0
  0
LINE
  5
3B6
330
2
100
AcDbEntity
  8
AM_VIS
100
AcDbLine
 10
310.0555064290281
 20
63.63056300679563
 30
0.0
 11
310.5859172990627
 21
63.93679586539116
 31
0.0
  0
LINE
  5
3B7
330
2
100
AcDbEntity
  8
AM_VIS
100
AcDbLine
 10
315.8892181579617
 20
60.87493368691219
 30
0.0
 11
315.8788780945915
 21
60.18494022619911
 31
0.0
  0
LINE
  5
3B8
330
2
100
AcDbEntity
  8
AM_VIS
100
AcDbLine
 10
310.5387068740414
 20
60.78643949174803
 30
0.0
 11
315.8420077329405
 21
57.72457731326905
 31
0.0
  0
LINE
  5
3B9
330
2
100
AcDbEntity
  8
AM_VIS
100
AcDbLine
 10
315.8420077329405
 20
57.72457731326905
 30
0.0
 11
315.8316676695703
 21
57.034583852556
 31
0.0
  0
LINE
  5
3BA
330
2
100
AcDbEntity
  8
AM_VIS
100
AcDbLine
 10
310.0082960040069
 20
60.4802066331525
 30
0.0
 11
310.0070554640399
 21
60.39742527734413
 31
0.0
  0
LINE
  5
3BB
330
2
100
AcDbEntity
  8
AM_VIS
100
AcDbLine
 10
310.0082960040069
 20
60.4802066331525
 30
0.0
 11
310.5387068740414
 21
60.78643949174804
 31
0.0
  0
LINE
  5
3BC
330
2
100
AcDbEntity
  8
AM_VIS
100
AcDbLine
 10
310.5283668106712
 20
60.09644603103497
 30
0.0
 11
310.5387068740414
 21
60.78643949174804
 31
0.0
  0
LINE
  5
3BD
330
2
100
AcDbEntity
  8
AM_VIS
100
AcDbLine
 10
370.6724900629384
 20
66.84566541268512
 30
0.0
 11
371.7333118030074
 21
67.45813112987619
 31
0.0
  0
LINE
  5
3BE
330
2
100
AcDbEntity
  8
AM_VIS
100
AcDbLine
 10
327.3977166226109
 20
93.05529894196039
 30
0.0
 11
326.8505898258132
 21
92.7394151385484
 31
0.0
  0
LINE
  5
3BF
330
2
100
AcDbEntity
  8
AM_VIS
100
AcDbLine
 10
371.6861013779862
 20
70.55397360033018
 30
0.0
 11
370.6252796379172
 21
69.94150788313911
 31
0.0
  0
LINE
  5
3C0
330
2
100
AcDbEntity
  8
AM_VIS
100
AcDbLine
 10
326.803379400792
 20
95.83525760900236
 30
0.0
 11
327.3505061975896
 21
96.15114141241438
 31
0.0
  0
LINE
  5
3C1
330
2
100
AcDbEntity
  8
AM_VIS
100
AcDbLine
 10
346.3362424883038
 20
84.57725573701623
 30
0.0
 11
346.3462592427521
 21
83.92040306468215
 31
0.0
  0
LINE
  5
3C2
330
2
100
AcDbEntity
  8
AM_VIS
100
AcDbLine
 10
346.3362424883038
 20
84.57725573701623
 30
0.0
 11
346.8666533583383
 21
84.88348859561176
 31
0.0
  0
LINE
  5
3C3
330
2
100
AcDbEntity
  8
AM_VIS
100
AcDbLine
 10
346.3834529133251
 20
81.48141326656224
 30
0.0
 11
346.9138637833596
 21
81.78764612515777
 31
0.0
  0
LINE
  5
3C4
330
2
100
AcDbEntity
  8
AM_VIS
100
AcDbLine
 10
346.3834529133251
 20
81.48141326656224
 30
0.0
 11
346.3934696677734
 21
80.82456059422817
 31
0.0
  0
LINE
  5
3C5
330
2
100
AcDbEntity
  8
AM_VIS
100
AcDbLine
 10
352.1699542172374
 20
81.82162641713279
 30
0.0
 11
352.1893938040109
 21
80.54686775282821
 31
0.0
  0
LINE
  5
3C6
330
2
100
AcDbEntity
  8
AM_VIS
100
AcDbLine
 10
371.7055409647596
 20
69.2792149360256
 30
0.0
 11
352.1893938040109
 21
80.54686775282821
 31
0.0
  0
ELLIPSE
  5
3C7
330
2
100
AcDbEntity
  8
AM_VIS
100
AcDbEllipse
 10
371.6958211713729
 20
69.91659426817789
 30
0.0
 11
0.4038689895425314
 21
-0.6761205145619275
 31
0.0
210
0.0
220
-0.0000000000000001
230
1.0
 40
0.5671876532381041
 41
5.489359861737764
 42
8.630952515327557
  0
LINE
  5
3C8
330
2
100
AcDbEntity
  8
AM_VIS
100
AcDbLine
 10
352.1699542172374
 20
81.82162641713279
 30
0.0
 11
371.6861013779862
 21
70.55397360033018
 31
0.0
  0
LINE
  5
3C9
330
2
100
AcDbEntity
  8
AM_VIS
100
AcDbLine
 10
346.933303370133
 20
80.51288746085321
 30
0.0
 11
346.9138637833596
 21
81.78764612515779
 31
0.0
  0
LINE
  5
3CA
330
2
100
AcDbEntity
  8
AM_VIS
100
AcDbLine
 10
327.3977166226109
 20
93.05529894196039
 30
0.0
 11
346.9138637833596
 21
81.78764612515777
 31
0.0
  0
ELLIPSE
  5
3CB
330
2
100
AcDbEntity
  8
AM_VIS
100
AcDbEllipse
 10
327.4074364159976
 20
92.4179196098081
 30
0.0
 11
0.4038689895425309
 21
-0.6761205145619269
 31
-0.0000000000000001
210
0.0
220
-0.0000000000000001
230
1.0
 40
0.5671876532381041
 41
2.347767208147971
 42
5.489359861737764
  0
LINE
  5
3CC
330
2
100
AcDbEntity
  8
AM_VIS
100
AcDbLine
 10
346.933303370133
 20
80.51288746085319
 30
0.0
 11
327.4171562093843
 21
91.78054027765581
 31
0.0
  0
LINE
  5
3CD
330
2
100
AcDbEntity
  8
AM_VIS
100
AcDbLine
 10
327.3505061975896
 20
96.1511414124144
 30
0.0
 11
346.8666533583383
 21
84.88348859561176
 31
0.0
  0
ELLIPSE
  5
3CE
330
2
100
AcDbEntity
  8
AM_VIS
100
AcDbEllipse
 10
327.3602259909763
 20
95.5137620802621
 30
0.0
 11
0.4038689895425314
 21
-0.6761205145619275
 31
0.0
210
0.0
220
-0.0000000000000001
230
1.0
 40
0.5671876532381041
 41
2.347767208147971
 42
5.489359861737764
  0
LINE
  5
3CF
330
2
100
AcDbEntity
  8
AM_VIS
100
AcDbLine
 10
346.8860929451119
 20
83.60872993130717
 30
0.0
 11
327.3699457843631
 21
94.87638274810979
 31
0.0
  0
LINE
  5
3D0
330
2
100
AcDbEntity
  8
AM_VIS
100
AcDbLine
 10
346.8860929451119
 20
83.60872993130717
 30
0.0
 11
346.8666533583383
 21
84.88348859561176
 31
0.0
  0
LINE
  5
3D1
330
2
100
AcDbEntity
  8
AM_VIS
100
AcDbLine
 10
371.7527513897809
 20
66.1833724655716
 30
0.0
 11
352.2366042290321
 21
77.45102528237423
 31
0.0
  0
ELLIPSE
  5
3D2
330
2
100
AcDbEntity
  8
AM_VIS
100
AcDbEllipse
 10
371.7430315963941
 20
66.8207517977239
 30
0.0
 11
0.4038689895425309
 21
-0.6761205145619269
 31
-0.0000000000000001
210
0.0
220
-0.0000000000000001
230
1.0
 40
0.5671876532381041
 41
5.489359861737757
 42
8.63095251532755
  0
LINE
  5
3D3
330
2
100
AcDbEntity
  8
AM_VIS
100
AcDbLine
 10
352.2171646422587
 20
78.7257839466788
 30
0.0
 11
371.7333118030074
 21
67.45813112987619
 31
0.0
  0
LINE
  5
3D4
330
2
100
AcDbEntity
  8
AM_VIS
100
AcDbLine
 10
352.2171646422587
 20
78.72578394667882
 30
0.0
 11
352.2366042290321
 21
77.45102528237423
 31
0.0
  0
LINE
  5
3D5
330
2
100
AcDbEntity
  8
AM_VIS
100
AcDbLine
 10
280.9964564346955
 20
70.52150730981532
 30
0.0
 11
281.4688837968786
 21
86.14769179269684
 31
0.0
  0
LINE
  5
3D6
330
2
100
AcDbEntity
  8
AM_VIS
100
AcDbLine
 10
281.4688837968786
 20
86.14769179269684
 30
0.0
 11
317.0590638188909
 21
106.6956918089129
 31
0.0
  0
LINE
  5
3D7
330
2
100
AcDbEntity
  8
AM_VIS
100
AcDbLine
 10
317.0590638188909
 20
106.6956918089129
 30
0.0
 11
317.0590638188909
 21
91.34226339076038
 31
0.0
  0
LINE
  5
3D8
330
2
100
AcDbEntity
  8
AM_VIS
100
AcDbLine
 10
318.1195624469892
 20
91.34226339076038
 30
0.0
 11
318.1195624469892
 21
106.6956918089129
 31
0.0
  0
LINE
  5
3D9
330
2
100
AcDbEntity
  8
AM_VIS
100
AcDbLine
 10
318.1195624469892
 20
106.6956918089129
 30
0.0
 11
380.7565768493869
 21
70.53219468245406
 31
0.0
  0
LINE
  5
3DA
330
2
100
AcDbEntity
  8
AM_VIS
100
AcDbLine
 10
380.7565768493869
 20
70.53219468245408
 30
0.0
 11
381.2290042115701
 21
54.90601019957255
 31
0.0
  0
ELLIPSE
  5
3DB
330
2
100
AcDbEntity
  8
AM_VIS
100
AcDbEllipse
 10
380.2263275353378
 20
70.21536772561145
 30
0.0
 11
0.749657470592656
 21
0.02266443876693
 31
0.0000000000000001
210
-0.0000000000000001
220
0.0
230
1.0
 40
0.5771744428704544
 41
0.0000000000000029
 42
0.76779789177884
  0
ELLIPSE
  5
3DC
330
2
100
AcDbEntity
  8
AM_VIS
100
AcDbEllipse
 10
380.2263275353378
 20
70.21536772561145
 30
0.0
 11
0.3750000000000347
 21
0.6495190528383087
 31
0.0000000000000001
210
0.0
220
-0.0000000000000001
230
1.0
 40
0.5773502691896301
 41
5.515240436302252
 42
6.283185307179753
  0
ELLIPSE
  5
3DD
330
2
100
AcDbEntity
  8
AM_VIS
100
AcDbEllipse
 10
317.58931313294
 20
106.3788648520702
 30
0.0
 11
-0.3750000000000385
 21
0.6495190528383064
 31
0.0
210
0.0
220
0.0
230
1.0
 40
0.5773502691896258
 41
-0.0000000000001612
 42
0.7679448708773357
  0
ELLIPSE
  5
3DE
330
2
100
AcDbEntity
  8
AM_VIS
100
AcDbEllipse
 10
317.58931313294
 20
106.3788648520702
 30
0.0
 11
0.375
 21
0.649519052838329
 31
0.0
210
0.0
220
0.0
230
0.9999999999999998
 40
0.5773502691896261
 41
5.515240436302081
 42
6.283185307179579
  0
ELLIPSE
  5
3DF
330
2
100
AcDbEntity
  8
AM_VIS
100
AcDbEllipse
 10
317.58931313294
 20
106.3788648520702
 30
0.0
 11
-0.75
 21
-0.0000000000000015
 31
0.0
210
0.0
220
0.0
230
1.0
 40
0.5973236776208827
 41
3.927143110234814
 42
5.497634850534549
  0
ELLIPSE
  5
3E0
330
2
100
AcDbEntity
  8
AM_VIS
100
AcDbEllipse
 10
281.9991331109278
 20
85.8308648358542
 30
0.0
 11
-0.3750000000000007
 21
0.6495190528383304
 31
0.0
210
0.0
220
0.0
230
1.0
 40
0.5773502691896259
 41
-0.0000000000000026
 42
0.7679448708775042
  0
ELLIPSE
  5
3E1
330
2
100
AcDbEntity
  8
AM_VIS
100
AcDbEllipse
 10
281.9991331109278
 20
85.83086483585422
 30
0.0
 11
-0.7496574705926569
 21
0.0226644387669264
 31
0.0000000000000001
210
0.0000000000000001
220
0.0
230
0.9999999999999998
 40
0.5771744428704537
 41
5.515387415400745
 42
6.283185307179578
  0
LINE
  5
3E2
330
2
100
AcDbEntity
  8
AM_VIS
100
AcDbLine
 10
290.8631854719952
 20
62.40761917049008
 30
0.0
 11
291.8684655355686
 21
62.98801788580516
 31
0.0
  0
LINE
  5
3E3
330
2
100
AcDbEntity
  8
AM_VIS
100
AcDbLine
 10
294.0403102198106
 20
61.73410277271996
 30
0.0
 11
293.0350301562372
 21
61.15370405740486
 31
0.0
  0
LINE
  5
3E4
330
2
100
AcDbEntity
  8
AM_VIS
100
AcDbLine
 10
335.2999909020457
 20
37.91281502415356
 30
0.0
 11
334.2947108384723
 21
37.33241630883846
 31
0.0
  0
LINE
  5
3E5
330
2
100
AcDbEntity
  8
AM_VIS
100
AcDbLine
 10
290.8631854719952
 20
62.40761917049006
 30
0.0
 11
293.0350301562372
 21
61.15370405740486
 31
0.0
  0
LINE
  5
3E6
330
2
100
AcDbEntity
  8
AM_VIS
100
AcDbLine
 10
290.8076437954996
 20
64.24473647757745
 30
0.0
 11
290.8631854719952
 21
62.40761917049006
 31
0.0
  0
LINE
  5
3E7
330
2
100
AcDbEntity
  8
AM_VIS
100
AcDbLine
 10
332.0673244777346
 20
40.42344872901106
 30
0.0
 11
332.1228661542302
 21
38.58633142192366
 31
0.0
  0
LINE
  5
3E8
330
2
100
AcDbEntity
  8
AM_VIS
100
AcDbLine
 10
332.1228661542302
 20
38.58633142192366
 30
0.0
 11
334.2947108384723
 21
37.33241630883846
 31
0.0
  0
LINE
  5
3E9
330
2
100
AcDbEntity
  8
AM_VIS
100
AcDbLine
 10
290.7088764875587
 20
69.3928788491649
 30
0.0
 11
290.8679755133256
 21
69.48473471451926
 31
0.0
  0
LINE
  5
3EA
330
2
100
AcDbEntity
  8
AM_VIS
100
AcDbLine
 10
290.8078053637888
 20
65.46957463046431
 30
0.0
 11
290.6487063380218
 21
65.37771876510993
 31
0.0
  0
LINE
  5
3EB
330
2
100
AcDbEntity
  8
AM_VIS
100
AcDbLine
 10
290.8076437954996
 20
64.24473647757745
 30
0.0
 11
291.8684655355686
 21
64.85720219476852
 31
0.0
  0
LINE
  5
3EC
330
2
100
AcDbEntity
  8
AM_VIS
100
AcDbLine
 10
280.9964564346955
 20
69.90922814140756
 30
0.0
 11
290.8076437954996
 21
64.24473647757745
 31
0.0
  0
ELLIPSE
  5
3ED
330
2
100
AcDbEntity
  8
AM_VIS
100
AcDbEllipse
 10
281.5270288607154
 20
70.21536772561145
 30
0.0
 11
-0.7502284746682868
 21
0.0
 31
0.0
210
0.0
220
0.0
230
1.0
 40
0.5771744428704545
 41
5.497939437029717
 42
7.068431177329445
  0
LINE
  5
3EE
330
2
100
AcDbEntity
  8
AM_VIS
100
AcDbLine
 10
317.0590638188909
 20
91.34226339076038
 30
0.0
 11
280.9964564346955
 21
70.52150730981532
 31
0.0
  0
ELLIPSE
  5
3EF
330
2
100
AcDbEntity
  8
AM_VIS
100
AcDbEllipse
 10
317.58931313294
 20
91.03593725777319
 30
0.0
 11
0.75
 21
-0.0000000000000031
 31
-0.0000000000000001
210
0.0000000000000001
220
0.0
230
1.0
 40
0.5775261490712771
 41
0.7855504566450338
 42
2.356042196944768
  0
LINE
  5
3F0
330
2
100
AcDbEntity
  8
AM_VIS
100
AcDbLine
 10
381.2290042115701
 20
54.90601019957257
 30
0.0
 11
318.1195624469892
 21
91.34226339076038
 31
0.0
  0
ELLIPSE
  5
3F1
330
2
100
AcDbEntity
  8
AM_VIS
100
AcDbEllipse
 10
380.6984317855502
 20
54.59987061536868
 30
0.0
 11
0.7502284746682868
 21
0.0
 31
0.0
210
0.0
220
0.0
230
1.0
 40
0.5771744428704545
 41
5.497939437029728
 42
7.068431177329456
  0
LINE
  5
3F2
330
2
100
AcDbEntity
  8
AM_VIS
100
AcDbLine
 10
345.1663968273746
 20
33.47297495021976
 30
0.0
 11
381.2290042115701
 21
54.29373103116482
 31
0.0
  0
ELLIPSE
  5
3F3
330
2
100
AcDbEntity
  8
AM_VIS
100
AcDbEllipse
 10
344.6361475133255
 20
33.77930108320696
 30
0.0
 11
-0.75
 21
0.0000000000000031
 31
0.0000000000000001
210
0.0000000000000001
220
0.0
230
1.0
 40
0.5775261490712771
 41
0.7855504566450355
 42
2.35604219694477
  0
LINE
  5
3F4
330
2
100
AcDbEntity
  8
AM_VIS
100
AcDbLine
 10
335.3191344849282
 20
38.54601534600431
 30
0.0
 11
344.1058981992764
 21
33.47297495021975
 31
0.0
  0
LINE
  5
3F5
330
2
100
AcDbEntity
  8
AM_VIS
100
AcDbLine
 10
336.2570937245541
 20
39.04570403019079
 30
0.0
 11
336.4161927503211
 21
39.13755989554515
 31
0.0
  0
LINE
  5
3F6
330
2
100
AcDbEntity
  8
AM_VIS
100
AcDbLine
 10
371.4176552824767
 20
59.34566371051582
 30
0.0
 11
371.5767543082437
 21
59.43751957587018
 31
0.0
  0
LINE
  5
3F7
330
2
100
AcDbEntity
  8
AM_VIS
100
AcDbLine
 10
365.2127932775648
 20
63.11175419004496
 30
0.0
 11
365.0536942517978
 21
63.01989832469058
 31
0.0
  0
LINE
  5
3F8
330
2
100
AcDbEntity
  8
AM_VIS
100
AcDbLine
 10
332.3323279523904
 20
82.09529969661458
 30
0.0
 11
365.2127932775648
 21
63.11175419004496
 31
0.0
  0
LINE
  5
3F9
330
2
100
AcDbEntity
  8
AM_VIS
100
AcDbLine
 10
332.1732289266234
 20
82.00344383126022
 30
0.0
 11
332.3323279523904
 21
82.09529969661458
 31
0.0
  0
LINE
  5
3FA
330
2
100
AcDbEntity
  8
AM_VIS
100
AcDbLine
 10
325.9683669217114
 20
85.76953431078935
 30
0.0
 11
325.8092678959445
 21
85.67767844543499
 31
0.0
  0
LINE
  5
3FB
330
2
100
AcDbEntity
  8
AM_VIS
100
AcDbLine
 10
318.1195624469892
 20
90.30104368708697
 30
0.0
 11
325.9683669217114
 21
85.76953431078933
 31
0.0
  0
LINE
  5
3FC
330
2
100
AcDbEntity
  8
AM_VIS
100
AcDbLine
 10
344.1058981992763
 20
34.51419465389316
 30
0.0
 11
336.2570937245541
 21
39.04570403019078
 31
0.0
  0
LINE
  5
3FD
330
2
100
AcDbEntity
  8
AM_VIS
100
AcDbLine
 10
336.4736334586074
 20
42.97058409253209
 30
0.0
 11
344.1058981992764
 21
38.56409398998039
 31
0.0
  0
LINE
  5
3FE
330
2
100
AcDbEntity
  8
AM_VIS
100
AcDbLine
 10
329.9533028434121
 20
46.7350987284205
 30
0.0
 11
329.8931326938752
 21
42.71993864436555
 31
0.0
  0
LINE
  5
3FF
330
2
100
AcDbEntity
  8
AM_VIS
100
AcDbLine
 10
335.0956532873277
 20
43.82526075880295
 30
0.0
 11
335.0743623113377
 21
42.4045118059835
 31
0.0
  0
LINE
  5
400
330
2
100
AcDbEntity
  8
AM_VIS
100
AcDbLine
 10
333.504663029658
 20
44.74381941234663
 30
0.0
 11
335.0956532873277
 21
43.82526075880295
 31
0.0
  0
LINE
  5
401
330
2
100
AcDbEntity
  8
AM_VIS
100
AcDbLine
 10
333.4833720536679
 20
43.32307045952719
 30
0.0
 11
333.5046630296579
 21
44.74381941234663
 31
0.0
  0
LINE
  5
402
330
2
100
AcDbEntity
  8
AM_VIS
100
AcDbLine
 10
335.0743623113377
 20
42.4045118059835
 30
0.0
 11
333.4833720536679
 21
43.32307045952719
 31
0.0
  0
LINE
  5
403
330
2
100
AcDbEntity
  8
AM_VIS
100
AcDbLine
 10
292.2449823474229
 20
68.56510716091304
 30
0.0
 11
293.8359726050927
 21
67.64654850736935
 31
0.0
  0
LINE
  5
404
330
2
100
AcDbEntity
  8
AM_VIS
100
AcDbLine
 10
292.2236913714329
 20
67.14435820809359
 30
0.0
 11
292.2449823474229
 21
68.56510716091304
 31
0.0
  0
LINE
  5
405
330
2
100
AcDbEntity
  8
AM_VIS
100
AcDbLine
 10
293.8146816291027
 20
66.22579955454991
 30
0.0
 11
292.2236913714329
 21
67.14435820809359
 31
0.0
  0
LINE
  5
406
330
2
100
AcDbEntity
  8
AM_VIS
100
AcDbLine
 10
293.8359726050927
 20
67.64654850736935
 30
0.0
 11
293.8146816291027
 21
66.22579955454991
 31
0.0
  0
ELLIPSE
  5
407
330
2
100
AcDbEntity
  8
AM_VIS
100
AcDbEllipse
 10
291.5432507899404
 20
71.71172238433729
 30
0.0
 11
0.3832410358416156
 21
-0.688025230815266
 31
0.0000000000000001
210
0.0
220
0.0000000000000001
230
1.0
 40
0.5873368847174616
 41
2.36523113057524
 42
5.506823784165033
  0
LINE
  5
408
330
2
100
AcDbEntity
  8
AM_VIS
100
AcDbLine
 10
335.8691261769503
 20
45.46595178944421
 30
0.0
 11
291.5335309965538
 21
71.06311960152843
 31
0.0
  0
ELLIPSE
  5
409
330
2
100
AcDbEntity
  8
AM_VIS
100
AcDbEllipse
 10
335.878845970337
 20
46.1145545722531
 30
0.0
 11
0.3832410358416156
 21
-0.688025230815266
 31
0.0000000000000001
210
0.0
220
0.0000000000000001
230
1.0
 40
0.5873368847174616
 41
5.506823784165033
 42
8.648416437754825
  0
LINE
  5
40A
330
2
100
AcDbEntity
  8
AM_VIS
100
AcDbLine
 10
291.5529705833272
 20
72.36032516714619
 30
0.0
 11
335.8885657637237
 21
46.76315735506197
 31
0.0
  0
LINE
  5
40B
330
2
100
AcDbEntity
  8
AM_VIS
100
AcDbLine
 10
291.6001810083484
 20
75.5106815407893
 30
0.0
 11
335.935776188745
 21
49.9135137287051
 31
0.0
  0
ELLIPSE
  5
40C
330
2
100
AcDbEntity
  8
AM_VIS
100
AcDbEllipse
 10
291.5904612149617
 20
74.86207875798043
 30
0.0
 11
0.383241035841616
 21
-0.6880252308152666
 31
0.0
210
0.0
220
0.0
230
0.9999999999999998
 40
0.5873368847174615
 41
3.780817065324896
 42
5.506823784165033
  0
ELLIPSE
  5
40D
330
2
100
AcDbEntity
  8
AM_VIS
100
AcDbEllipse
 10
291.5904612149617
 20
74.86207875798043
 30
0.0
 11
0.383241035841616
 21
-0.6880252308152666
 31
0.0
210
0.0
220
0.0
230
0.9999999999999998
 40
0.5873368847174615
 41
2.365231130575239
 42
2.520441522620485
  0
LINE
  5
40E
330
2
100
AcDbEntity
  8
AM_VIS
100
AcDbLine
 10
335.9163366019715
 20
48.61630816308734
 30
0.0
 11
291.580741421575
 21
74.21347597517154
 31
0.0
  0
ELLIPSE
  5
40F
330
2
100
AcDbEntity
  8
AM_VIS
100
AcDbEllipse
 10
335.9260563953582
 20
49.26491094589621
 30
0.0
 11
0.383241035841616
 21
-0.6880252308152666
 31
0.0
210
0.0
220
0.0
230
0.9999999999999998
 40
0.5873368847174615
 41
5.506823784165033
 42
8.648416437754825
  0
LINE
  5
410
330
2
100
AcDbEntity
  8
AM_VIS
100
AcDbLine
 10
336.476362899858
 20
43.1527199796001
 30
0.0
 11
344.371022856301
 21
38.5947359285872
 31
0.0
  0
LINE
  5
411
330
2
100
AcDbEntity
  8
AM_VIS
100
AcDbLine
 10
336.4161927503211
 20
39.13755989554515
 30
0.0
 11
336.476362899858
 21
43.1527199796001
 31
0.0
  0
LINE
  5
412
330
2
100
AcDbEntity
  8
AM_VIS
100
AcDbLine
 10
336.4161927503211
 20
39.13755989554515
 30
0.0
 11
335.3555325785413
 21
39.74993233124095
 31
0.0
  0
LINE
  5
413
330
2
100
AcDbEntity
  8
AM_VIS
100
AcDbLine
 10
335.3555325785413
 20
39.74993233124094
 30
0.0
 11
335.2999909020457
 21
37.91281502415356
 31
0.0
  0
LINE
  5
414
330
2
100
AcDbEntity
  8
AM_VIS
100
AcDbLine
 10
335.2999909020457
 20
37.91281502415356
 30
0.0
 11
333.1281462178036
 21
39.16673013723877
 31
0.0
  0
LINE
  5
415
330
2
100
AcDbEntity
  8
AM_VIS
100
AcDbLine
 10
333.1281462178036
 20
39.16673013723876
 30
0.0
 11
333.1281462178036
 21
41.03591444620211
 31
0.0
  0
LINE
  5
416
330
2
100
AcDbEntity
  8
AM_VIS
100
AcDbLine
 10
330.112401869179
 20
46.82695459377486
 30
0.0
 11
330.0522317196422
 21
42.81179450971992
 31
0.0
  0
LINE
  5
417
330
2
100
AcDbEntity
  8
AM_VIS
100
AcDbLine
 10
294.0958518963063
 20
63.57122007980734
 30
0.0
 11
294.0403102198106
 21
61.73410277271995
 31
0.0
  0
LINE
  5
418
330
2
100
AcDbEntity
  8
AM_VIS
100
AcDbLine
 10
294.0403102198106
 20
61.73410277271996
 30
0.0
 11
291.8684655355686
 21
62.98801788580516
 31
0.0
  0
LINE
  5
419
330
2
100
AcDbEntity
  8
AM_VIS
100
AcDbLine
 10
291.8684655355686
 20
62.98801788580516
 30
0.0
 11
291.8684655355686
 21
64.85720219476852
 31
0.0
  0
LINE
  5
41A
330
2
100
AcDbEntity
  8
AM_VIS
100
AcDbLine
 10
291.8684655355686
 20
64.85720219476852
 30
0.0
 11
290.8078053637888
 21
65.46957463046431
 31
0.0
  0
LINE
  5
41B
330
2
100
AcDbEntity
  8
AM_VIS
100
AcDbLine
 10
290.8679755133256
 20
69.48473471451928
 30
0.0
 11
290.8078053637888
 21
65.46957463046432
 31
0.0
  0
LINE
  5
41C
330
2
100
AcDbEntity
  8
AM_VIS
100
AcDbLine
 10
285.9360672828387
 20
72.33217325900944
 30
0.0
 11
290.8679755133257
 21
69.48473471451926
 31
0.0
  0
LINE
  5
41D
330
2
100
AcDbEntity
  8
AM_VIS
100
AcDbLine
 10
296.4364414151697
 20
66.26977942711635
 30
0.0
 11
330.112401869179
 21
46.82695459377486
 31
0.0
  0
LINE
  5
41E
330
2
100
AcDbEntity
  8
AM_VIS
100
AcDbLine
 10
329.9533028434121
 20
46.7350987284205
 30
0.0
 11
330.112401869179
 21
46.82695459377486
 31
0.0
  0
LINE
  5
41F
330
2
100
AcDbEntity
  8
AM_VIS
100
AcDbLine
 10
296.4337119739192
 20
66.08764354004833
 30
0.0
 11
329.9533028434121
 21
46.73509872842049
 31
0.0
  0
LINE
  5
420
330
2
100
AcDbEntity
  8
AM_VIS
100
AcDbLine
 10
296.3762712656329
 20
62.25461934306139
 30
0.0
 11
296.4364414151697
 21
66.26977942711635
 31
0.0
  0
LINE
  5
421
330
2
100
AcDbEntity
  8
AM_VIS
100
AcDbLine
 10
330.0522317196422
 20
42.81179450971992
 30
0.0
 11
329.8931326938752
 21
42.71993864436554
 31
0.0
  0
LINE
  5
422
330
2
100
AcDbEntity
  8
AM_VIS
100
AcDbLine
 10
333.1281462178036
 20
41.03591444620211
 30
0.0
 11
330.0522317196422
 21
42.81179450971992
 31
0.0
  0
LINE
  5
423
330
2
100
AcDbEntity
  8
AM_VIS
100
AcDbLine
 10
332.0673244777346
 20
40.42344872901104
 30
0.0
 11
333.1281462178036
 21
41.03591444620211
 31
0.0
  0
LINE
  5
424
330
2
100
AcDbEntity
  8
AM_VIS
100
AcDbLine
 10
294.0594538026932
 20
62.3673030945707
 30
0.0
 11
332.0673244777346
 21
40.42344872901106
 31
0.0
  0
LINE
  5
425
330
2
100
AcDbEntity
  8
AM_VIS
100
AcDbLine
 10
296.3762712656329
 20
62.25461934306139
 30
0.0
 11
294.0958518963063
 21
63.57122007980734
 31
0.0
  0
LINE
  5
426
330
2
100
AcDbEntity
  8
AM_VIS
100
AcDbLine
 10
296.2171722398659
 20
62.16276347770701
 30
0.0
 11
296.3762712656329
 21
62.25461934306139
 31
0.0
  0
LINE
  5
427
330
2
100
AcDbEntity
  8
AM_VIS
100
AcDbLine
 10
329.8931326938752
 20
42.71993864436554
 30
0.0
 11
296.2171722398659
 21
62.16276347770701
 31
0.0
  0
LINE
  5
428
330
2
100
AcDbEntity
  8
AM_VIS
100
AcDbLine
 10
344.9012721703501
 20
38.5947359285872
 30
0.0
 11
376.2893933634268
 21
56.71667614876668
 31
0.0
  0
LINE
  5
429
330
2
100
AcDbEntity
  8
AM_VIS
100
AcDbLine
 10
370.6252796379172
 20
69.94150788313911
 30
0.0
 11
352.1887998818877
 21
80.58581443319178
 31
0.0
  0
LINE
  5
42A
330
2
100
AcDbEntity
  8
AM_VIS
100
AcDbLine
 10
346.345665320629
 20
83.95934974504573
 30
0.0
 11
327.1776841265902
 21
95.02598884724568
 31
0.0
  0
ELLIPSE
  5
42B
330
2
100
AcDbEntity
  8
AM_VIS
100
AcDbEllipse
 10
370.6349994313039
 20
69.30412855098682
 30
0.0
 11
-0.4038689895425711
 21
0.6761205145619038
 31
0.0
210
0.0
220
0.0
230
1.0
 40
0.5671876532381041
 41
5.137971094941304
 42
5.48935986173759
  0
ELLIPSE
  5
42C
330
2
100
AcDbEntity
  8
AM_VIS
100
AcDbEllipse
 10
370.6822098563251
 20
66.20828608053284
 30
0.0
 11
-0.4038689895425706
 21
0.6761205145619032
 31
-0.0000000000000001
210
0.0
220
0.0000000000000001
230
1.0
 40
0.5671876532381041
 41
5.137971094941333
 42
5.48935986173759
  0
LINE
  5
42D
330
2
100
AcDbEntity
  8
AM_VIS
100
AcDbLine
 10
370.6724900629384
 20
66.84566541268512
 30
0.0
 11
352.236010306909
 21
77.4899719627378
 31
0.0
  0
LINE
  5
42E
330
2
100
AcDbEntity
  8
AM_VIS
100
AcDbLine
 10
346.3928757456502
 20
80.86350727459175
 30
0.0
 11
327.2248945516115
 21
91.93014637679167
 31
0.0
  0
LINE
  5
42F
330
2
100
AcDbEntity
  8
AM_VIS
100
AcDbLine
 10
325.8092678959445
 20
85.67767844543499
 30
0.0
 11
325.8064414767898
 21
85.86302201000348
 31
0.0
  0
LINE
  5
430
330
2
100
AcDbEntity
  8
AM_VIS
100
AcDbLine
 10
325.8092678959445
 20
85.67767844543499
 30
0.0
 11
332.1732289266234
 21
82.00344383126022
 31
0.0
  0
LINE
  5
431
330
2
100
AcDbEntity
  8
AM_VIS
100
AcDbLine
 10
365.0536942517978
 20
63.01989832469058
 30
0.0
 11
365.0508678326432
 21
63.2052418892591
 31
0.0
  0
LINE
  5
432
330
2
100
AcDbEntity
  8
AM_VIS
100
AcDbLine
 10
365.0536942517979
 20
63.01989832469058
 30
0.0
 11
371.4176552824767
 21
59.34566371051582
 31
0.0
  0
LINE
  5
433
330
2
100
AcDbEntity
  8
AM_VIS
100
AcDbLine
 10
295.3835488884527
 20
77.78667930717471
 30
0.0
 11
344.3710228563009
 21
49.50374802491776
 31
0.0
  0
LINE
  5
434
330
2
100
AcDbEntity
  8
AM_VIS
100
AcDbLine
 10
344.6361475133255
 20
49.95766034854821
 30
0.0
 11
295.9092108203198
 21
78.09017036504091
 31
0.0
  0
LINE
  5
435
330
2
100
AcDbEntity
  8
AM_VIS
100
AcDbLine
 10
344.9012721703501
 20
49.50374802491776
 30
0.0
 11
366.6828127320459
 21
62.07932633157759
 31
0.0
  0
LINE
  5
436
330
2
100
AcDbEntity
  8
AM_VIS
100
AcDbLine
 10
366.1571508001788
 20
62.38281738944379
 30
0.0
 11
344.6361475133254
 21
49.95766034854821
 31
0.0
  0
LINE
  5
437
330
2
100
AcDbEntity
  8
AM_VIS
100
AcDbLine
 10
344.371022856301
 20
49.50374802491776
 30
0.0
 11
344.371022856301
 21
38.5947359285872
 31
0.0
  0
LINE
  5
438
330
2
100
AcDbEntity
  8
AM_VIS
100
AcDbLine
 10
344.9012721703501
 20
38.5947359285872
 30
0.0
 11
344.9012721703501
 21
49.50374802491776
 31
0.0
  0
ELLIPSE
  5
439
330
2
100
AcDbEntity
  8
AM_VIS
100
AcDbEllipse
 10
344.6361475133255
 20
38.7478989950808
 30
0.0
 11
0.375
 21
0.0
 31
0.0
210
0.0
220
0.0
230
1.0
 40
0.5775261490712771
 41
3.927143110234824
 42
5.497634850534552
  0
ELLIPSE
  5
43A
330
2
100
AcDbEntity
  8
AM_VIS
100
AcDbEllipse
 10
344.6361475133255
 20
49.65147413070032
 30
0.0
 11
-0.1875000000000233
 21
0.3247595264191509
 31
0.0000000000000001
210
0.0000000000000001
220
-0.0000000000000001
230
0.9999999999999998
 40
0.5773502691896342
 41
3.944444109507008
 42
5.497787143781958
  0
ELLIPSE
  5
43B
330
2
100
AcDbEntity
  8
AM_VIS
100
AcDbEllipse
 10
344.6361475133255
 20
49.65147413070032
 30
0.0
 11
-0.3749999999999996
 21
-0.0000000000000015
 31
0.0
210
0.0
220
0.0
230
0.9999999999999998
 40
0.5570252081200326
 41
0.7855504566450097
 42
2.356042196944744
  0
ELLIPSE
  5
43C
330
2
100
AcDbEntity
  8
AM_VIS
100
AcDbEllipse
 10
344.6361475133255
 20
49.65147413070031
 30
0.0
 11
0.1874999999999959
 21
0.3247595264191668
 31
0.0
210
0.0
220
0.0
230
0.9999999999999998
 40
0.5773502691896341
 41
0.7853981633974412
 42
2.338741197672387
  0
LINE
  5
43D
330
2
100
AcDbEntity
  8
AM_VIS
100
AcDbLine
 10
379.425558782966
 20
54.29373103116481
 30
0.0
 11
345.1663968273746
 21
34.51419465389314
 31
0.0
  0
LINE
  5
43E
330
2
100
AcDbEntity
  8
AM_VIS
100
AcDbLine
 10
345.1663968273746
 20
38.56409398998039
 30
0.0
 11
376.4484923891938
 21
56.62482028341232
 31
0.0
  0
LINE
  5
43F
330
2
100
AcDbEntity
  8
AM_VIS
100
AcDbLine
 10
345.1663968273746
 20
34.51419465389316
 30
0.0
 11
345.1663968273746
 21
38.56409398998039
 31
0.0
  0
ELLIPSE
  5
440
330
2
100
AcDbEntity
  8
AM_VIS
100
AcDbEllipse
 10
344.6361475133255
 20
34.82052078688035
 30
0.0
 11
0.75
 21
0.0
 31
0.0
210
0.0
220
0.0
230
1.0
 40
0.5775261490712771
 41
3.927143110234817
 42
5.497634850534559
  0
LINE
  5
441
330
2
100
AcDbEntity
  8
AM_VIS
100
AcDbLine
 10
344.1058981992763
 20
38.56409398998041
 30
0.0
 11
344.1058981992763
 21
34.51419465389316
 31
0.0
  0
ELLIPSE
  5
442
330
2
100
AcDbEntity
  8
AM_VIS
100
AcDbEllipse
 10
344.6361475133255
 20
38.8704201229676
 30
0.0
 11
0.75
 21
0.0
 31
0.0
210
0.0
220
0.0
230
1.0
 40
0.5775261490712771
 41
3.927143110234824
 42
5.497634850534559
  0
LINE
  5
443
330
2
100
AcDbEntity
  8
AM_VIS
100
AcDbLine
 10
371.5767543082437
 20
59.4375195758702
 30
0.0
 11
379.4255587829659
 21
54.90601019957256
 31
0.0
  0
ELLIPSE
  5
444
330
2
100
AcDbEntity
  8
AM_VIS
100
AcDbEllipse
 10
378.894986356946
 20
54.59987061536868
 30
0.0
 11
0.7502284746682868
 21
0.0
 31
0.0
210
0.0
220
0.0
230
1.0
 40
0.5771744428704545
 41
5.497939437029721
 42
7.068431177329442
  0
LINE
  5
445
330
2
100
AcDbEntity
  8
AM_VIS
100
AcDbLine
 10
379.4067188584506
 20
54.91688743506304
 30
0.0
 11
379.4255587829659
 21
54.29373103116481
 31
0.0
  0
LINE
  5
446
330
2
100
AcDbEntity
  8
AM_VIS
100
AcDbLine
 10
282.7999018632996
 20
70.52150730981532
 30
0.0
 11
317.0590638188909
 21
90.30104368708697
 31
0.0
  0
ELLIPSE
  5
447
330
2
100
AcDbEntity
  8
AM_VIS
100
AcDbEllipse
 10
317.5893131329401
 20
89.99471755409977
 30
0.0
 11
-0.75
 21
0.0
 31
0.0
210
0.0
220
0.0
230
1.0
 40
0.5775261490712771
 41
3.92714311023481
 42
5.497634850534559
  0
LINE
  5
448
330
2
100
AcDbEntity
  8
AM_VIS
100
AcDbLine
 10
285.7769682570717
 20
72.24031739365506
 30
0.0
 11
290.7088764875587
 21
69.3928788491649
 31
0.0
  0
LINE
  5
449
330
2
100
AcDbEntity
  8
AM_VIS
100
AcDbLine
 10
290.7088764875587
 20
69.3928788491649
 30
0.0
 11
290.6487063380218
 21
65.37771876510993
 31
0.0
  0
LINE
  5
44A
330
2
100
AcDbEntity
  8
AM_VIS
100
AcDbLine
 10
290.6487063380218
 20
65.37771876510993
 30
0.0
 11
282.7999018632996
 21
69.90922814140756
 31
0.0
  0
LINE
  5
44B
330
2
100
AcDbEntity
  8
AM_VIS
100
AcDbLine
 10
282.7999018632996
 20
69.90922814140756
 30
0.0
 11
282.8187417878149
 21
70.53238454530578
 31
0.0
  0
ELLIPSE
  5
44C
330
2
100
AcDbEntity
  8
AM_VIS
100
AcDbEllipse
 10
283.3304742893195
 20
70.21536772561145
 30
0.0
 11
-0.7502284746682868
 21
0.0
 31
0.0
210
0.0
220
0.0
230
1.0
 40
0.5771744428704545
 41
5.497939437029716
 42
7.068431177329436
  0
LINE
  5
44D
330
2
100
AcDbEntity
  8
AM_VIS
100
AcDbLine
 10
280.7769145799085
 20
70.22292253853376
 30
0.0
 11
281.2494756403351
 21
85.85352927462114
 31
0.0
  0
LINE
  5
44E
330
2
100
AcDbEntity
  8
AM_VIS
100
AcDbLine
 10
317.21431313294
 20
107.0283839049086
 30
0.0
 11
281.6241331109278
 21
86.48038388869252
 31
0.0
  0
LINE
  5
44F
330
2
100
AcDbEntity
  8
AM_VIS
100
AcDbLine
 10
380.6013275353378
 20
70.86488677844977
 30
0.0
 11
317.9643131329401
 21
107.0283839049086
 31
0.0
  0
LINE
  5
450
330
2
100
AcDbEntity
  8
AM_VIS
100
AcDbLine
 10
381.4485460663571
 20
54.607425428291
 30
0.0
 11
380.9759850059305
 21
70.23803216437838
 31
0.0
  0
ARC
  5
451
330
2
100
AcDbEntity
  8
AM_VIS
100
AcDbCircle
 10
380.2263275353378
 20
70.21536772561145
 30
0.0
 40
0.7499999999999992
100
AcDbArc
 50
1.731699215600871
 51
60.00000000000007
  0
ARC
  5
452
330
2
100
AcDbEntity
  8
AM_VIS
100
AcDbCircle
 10
317.58931313294
 20
106.3788648520702
 30
0.0
 40
0.75
100
AcDbArc
 50
60.00000000000007
 51
119.9999999999999
  0
ARC
  5
453
330
2
100
AcDbEntity
  8
AM_VIS
100
AcDbCircle
 10
281.9991331109278
 20
85.83086483585422
 30
0.0
 40
0.75
100
AcDbArc
 50
119.9999999999999
 51
178.2683007843999
  0
ENDSEC
  0
SECTION
  2
OBJECTS
  0
DICTIONARY
  5
8
330
0
100
AcDbDictionary
281
     1
  3
ACAD_COLOR
350
30
  3
ACAD_GROUP
350
2C
  3
ACAD_LAYOUT
350
C
  3
ACAD_MATERIAL
350
2F
  3
ACAD_MLINESTYLE
350
2D
  3
ACAD_PLOTSETTINGS
350
2E
  3
ACAD_PLOTSTYLENAME
350
7
  3
ACDBHEADERROUNDTRIPXREC
350
4C5
  3
AcDbVariableDictionary
350
4C0
  3
ACMDICTIONARY
350
465
  3
AMG
350
455
  3
DWGPROPS
350
4C4
  0
DICTIONARY
  5
3
330
2
100
AcDbDictionary
280
     1
281
     1
  0
DICTIONARY
  5
30
102
{ACAD_REACTORS
330
8
102
}
330
8
100
AcDbDictionary
281
     1
  0
DICTIONARY
  5
2C
102
{ACAD_REACTORS
330
8
102
}
330
8
100
AcDbDictionary
281
     1
  0
DICTIONARY
  5
C
102
{ACAD_REACTORS
330
8
102
}
330
8
100
AcDbDictionary
281
     1
  3
Layout1
350
11
  3
Model
350
B
  0
DICTIONARY
  5
2F
102
{ACAD_REACTORS
330
8
102
}
330
8
100
AcDbDictionary
281
     1
  0
DICTIONARY
  5
2D
102
{ACAD_REACTORS
330
8
102
}
330
8
100
AcDbDictionary
281
     1
  3
STANDARD
350
32
  0
DICTIONARY
  5
2E
102
{ACAD_REACTORS
330
8
102
}
330
8
100
AcDbDictionary
281
     1
  0
ACDBDICTIONARYWDFLT
  5
7
102
{ACAD_REACTORS
330
8
102
}
330
8
100
AcDbDictionary
281
     1
  3
Normal
350
6
100
AcDbDictionaryWithDefault
340
6
  0
DICTIONARY
  5
4C5
102
{ACAD_REACTORS
330
8
102
}
330
8
100
AcDbDictionary
281
     1
  0
DICTIONARY
  5
4C0
102
{ACAD_REACTORS
330
8
102
}
330
8
100
AcDbDictionary
281
     1
  3
DIMASSOC
350
4C2
  3
HIDETEXT
350
4C1
  3
PROJECTNAME
350
4C3
  0
DICTIONARY
  5
465
102
{ACAD_REACTORS
330
8
102
}
330
8
100
AcDbDictionary
281
     1
  3
ACMSTDDICTIONARY
350
466
  0
DICTIONARY
  5
455
102
{ACAD_REACTORS
330
8
102
}
330
8
100
AcDbDictionary
281
     1
  3
AcMgSettings
350
45E
  0
XRECORD
  5
4C4
102
{ACAD_REACTORS
330
8
102
}
330
8
100
AcDbXrecord
280
     1
  1
DWGPROPS COOKIE
  2

  3

  4

  6

  7

  8

  9

300
AmdtFileType=84
301
=
302
=
303
=
304
=
305
=
306
=
307
=
308
=
309
=
 40
0.0573773842592593
 41
2453950.399355104
 42
2453950.453418692
  1

 90
        1
  0
LAYOUT
  5
11
102
{ACAD_XDICTIONARY
360
4C8
102
}
102
{ACAD_REACTORS
330
C
102
}
330
C
100
AcDbPlotSettings
  1

  2
hp deskjet 990c
  4
A4
  6

 40
4.180416584014892
 41
13.23975372314453
 42
4.180404663085937
 43
3.17498779296875
 44
209.9733276367187
 45
296.9259948730469
 46
0.0
 47
0.0
 48
0.0
 49
0.0
140
0.0
141
0.0
142
1.0
143
1.0
 70
   688
 72
     1
 73
     1
 74
     5
  7
2004_1.ctb
 75
     0
147
1.0
148
0.0
149
0.0
100
AcDbLayout
  1
Layout1
 70
     1
 71
     1
 10
-3.17498779296875
 20
-4.180416584014892
 11
293.7510070800781
 21
205.7929110527039
 12
0.0
 22
0.0
 32
0.0
 14
-129.8210971745716
 24
-173.6995556822631
 34
0.0
 15
286.5931754209025
 25
312.4704199353236
 35
0.0
146
0.0
 13
0.0
 23
0.0
 33
0.0
 16
1.0
 26
0.0
 36
0.0
 17
0.0
 27
1.0
 37
0.0
 76
     0
330
E
  0
LAYOUT
  5
B
102
{ACAD_XDICTIONARY
360
4C6
102
}
102
{ACAD_REACTORS
330
C
102
}
330
C
100
AcDbPlotSettings
  1

  2
hp deskjet 990c.pc3
  4
A4
  6
AMDTVIEW1
 40
4.180416584014892
 41
13.23975372314453
 42
4.180404663085937
 43
3.17498779296875
 44
209.9733276367187
 45
296.9259948730469
 46
0.0
 47
5.07
 48
0.0
 49
0.0
140
0.0
141
0.0
142
1.0
143
13.22642319577399
 70
 11956
 72
     1
 73
     1
 74
     0
  7
2004_1.ctb
 75
     0
147
0.0756062304372291
148
1677.316402065445
149
1171.11729331967
100
AcDbLayout
  1
Model
 70
     1
 71
     0
 10
0.0
 20
0.0
 11
12.0
 21
9.0
 12
0.0
 22
0.0
 32
0.0
 14
0.0
 24
0.0
 34
0.0
 15
0.0
 25
0.0
 35
0.0
146
0.0
 13
0.0
 23
0.0
 33
0.0
 16
1.0
 26
0.0
 36
0.0
 17
0.0
 27
1.0
 37
0.0
 76
     0
330
2
  0
MLINESTYLE
  5
32
102
{ACAD_REACTORS
330
2D
102
}
330
2D
100
AcDbMlineStyle
  2
STANDARD
 70
     0
  3

 62
     0
 51
90.0
 52
90.0
 71
     2
 49
0.5
 62
   256
  6
BYLAYER
 49
-0.5
 62
   256
  6
BYLAYER
  0
ACDBPLACEHOLDER
  5
6
102
{ACAD_REACTORS
330
7
102
}
330
7
  0
DICTIONARYVAR
  5
4C2
102
{ACAD_REACTORS
330
4C0
102
}
330
4C0
100
DictionaryVariables
280
     0
  1
1
  0
DICTIONARYVAR
  5
4C1
102
{ACAD_REACTORS
330
4C0
102
}
330
4C0
100
DictionaryVariables
280
     0
  1
1
  0
DICTIONARYVAR
  5
4C3
102
{ACAD_REACTORS
330
4C0
102
}
330
4C0
100
DictionaryVariables
280
     0
  1

  0
DICTIONARY
  5
466
102
{ACAD_REACTORS
330
465
102
}
330
465
100
AcDbDictionary
281
     1
  0
DICTIONARY
  5
45E
102
{ACAD_REACTORS
330
455
102
}
330
455
100
AcDbDictionary
281
     1
  3
DWGSETTINGS
350
45D
  3
FEM
350
45F
  3
Shaft
350
460
  3
TRANSSETTINGS
350
461
  0
DICTIONARY
  5
4C8
330
11
100
AcDbDictionary
280
     1
281
     1
  3
ACAD_XREC_ROUNDTRIP
360
4C9
  0
DICTIONARY
  5
4C6
330
B
100
AcDbDictionary
280
     1
281
     1
  3
ACAD_XREC_ROUNDTRIP
360
4C7
  0
XRECORD
  5
4C9
102
{ACAD_REACTORS
330
4C8
102
}
330
4C8
100
AcDbXrecord
280
     1
102
SHADEPLOT
 70
     1
102
SHADEPLOTRESLEVEL
 70
     2
102
SHADEPLOTCUSTOMDPI
 70
   150
  0
XRECORD
  5
4C7
102
{ACAD_REACTORS
330
4C6
102
}
330
4C6
100
AcDbXrecord
280
     1
102
SHADEPLOT
 70
     0
102
SHADEPLOTRESLEVEL
 70
     2
102
SHADEPLOTCUSTOMDPI
 70
   150
  0
ENDSEC
  0
EOF
