999
DXF file: pcb_longside.dxf
999
Pro/ENGINEER 2001440 by Parametric Technology Corporation
0
SECTION
2
HEADER
9
$ACADVER
1
AC1014
9
$EXTMAX
10
297.0000000000
20
210.0000000000
9
$EXTMIN
10
0.0000000000
20
0.0000000000
9
$LIMMIN
10
0.0000000000
20
0.0000000000
9
$LIMMAX
10
297.0000000000
20
210.0000000000
9
$VIEWCTR
10
148.5000000000
20
105.0000000000
9
$VIEWSIZE
40
210.0000000000
9
$CLAYER
8
0
9
$LTSCALE
40
16.3350000000
9
$CELTYPE
6
BYLAYER
9
$DIMSCALE
40
1
9
$DIMASZ
40
3.5000000000
9
$DIMEXO
40
1.8562500000
9
$DIMDLI
40
11.2860000000
9
$DIMEXE
40
5.3460000000
9
$DIMCEN
40
2.6730000000
9
$DIMLFAC
40
1.0000000000
9
$DIMTXT
40
3.5000000000
9
$DIMTOL
70
1
9
$DIMLIM
70
0
9
$DIMTFAC
40
1.0000000000
9
$DIMTP
40
0.0100000000
9
$DIMTM
40
0.0100000000
9
$HANDSEED
5
270
0
ENDSEC
0
SECTION
2
CLASSES
0
ENDSEC
0
SECTION
2
TABLES
0
TABLE
2
VPORT
5
8
100
AcDbSymbolTable
70
2
0
VPORT
5
1F4
100
AcDbSymbolTableRecord
100
AcDbViewportTableRecord
2
*ACTIVE
70
0
10
0.0
20
0.0
11
1.0
21
1.0
12
148.5000000000
22
105.0000000000
13
0.0
23
0.0
14
1.0
24
1.0
15
0.0
25
0.0
16
0.0
26
0.0
36
1.0
17
0.0
27
0.0
37
0.0
40
210.0000000000
41
1.4142857143
42
50.0
43
0.0
44
0.0
50
0.0
51
0.0
71
0
72
100
73
1
74
1
75
0
76
0
77
0
78
0
0
ENDTAB
0
TABLE
2
LTYPE
5
5
100
AcDbSymbolTable
70
6
0
LTYPE
5
14
100
AcDbSymbolTableRecord
100
AcDbLinetypeTableRecord
2
BYBLOCK
70
0
3

72
65
73
0
40
0.0
0
LTYPE
5
15
100
AcDbSymbolTableRecord
100
AcDbLinetypeTableRecord
2
BYLAYER
70
0
3

72
65
73
0
40
0.0
0
LTYPE
5
16
100
AcDbSymbolTableRecord
100
AcDbLinetypeTableRecord
2
CONTINUOUS
70
64
3
Solid line
72
65
73
0
40
0
0
LTYPE
5
1F5
100
AcDbSymbolTableRecord
100
AcDbLinetypeTableRecord
2
CENTER
70
64
3
____ _ ____ _ ____ _ ____ _ ____ _ ____ _ ____
72
65
73
4
40
0.6
49
0.375
74
0
49
-0.075
74
0
49
0.075
74
0
49
-0.075
74
0
0
LTYPE
5
1F6
100
AcDbSymbolTableRecord
100
AcDbLinetypeTableRecord
2
HIDDEN
70
64
3
- - - - - - - - - - - - - - - - - - - -
72
65
73
2
40
0.2
49
0.1
74
0
49
-0.1
74
0
0
LTYPE
5
1F7
100
AcDbSymbolTableRecord
100
AcDbLinetypeTableRecord
2
PHANTOM
70
64
3
_____ _ _ _____ _ _ _____ _ _ _____
72
65
73
6
40
0.8
49
0.45
74
0
49
-0.05
74
0
49
0.1
74
0
49
-0.05
74
0
49
0.1
74
0
49
-0.05
74
0
0
LTYPE
5
1F8
100
AcDbSymbolTableRecord
100
AcDbLinetypeTableRecord
2
DOT
70
64
3
. . . . . . . . . . . . . . . . . . . .
72
65
73
2
40
0.2
49
0.1
74
0
49
-0.1
74
0
0
LTYPE
5
1F9
100
AcDbSymbolTableRecord
100
AcDbLinetypeTableRecord
2
DASHED
70
64
3
- - - - - - - - - - - - - - - - - - - -
72
65
73
2
40
0.2
49
0.1
74
0
49
-0.1
74
0
0
ENDTAB
0
TABLE
2
LAYER
5
2
100
AcDbSymbolTable
70
36
0
LAYER
5
10
100
AcDbSymbolTableRecord
100
AcDbLayerTableRecord
2
0
70
0
62
7
6
CONTINUOUS
0
LAYER
5
1FA
100
AcDbSymbolTableRecord
100
AcDbLayerTableRecord
2
DEFAULT_1
70
0
62
7
6
CENTER
0
LAYER
5
1FB
100
AcDbSymbolTableRecord
100
AcDbLayerTableRecord
2
DEFAULT_2
70
0
62
8
6
HIDDEN
0
LAYER
5
1FC
100
AcDbSymbolTableRecord
100
AcDbLayerTableRecord
2
DEFAULT_3
70
0
62
7
6
PHANTOM
0
ENDTAB
0
TABLE
2
STYLE
5
3
100
AcDbSymbolTable
70
1
0
STYLE
5
11
100
AcDbSymbolTableRecord
100
AcDbTextStyleTableRecord
2
STANDARD
70
0
40
0.0
41
0.8500000000
50
0.0
71
0
42
0.0
3
txt
4

0
STYLE
5
1FD
100
AcDbSymbolTableRecord
100
AcDbTextStyleTableRecord
2
TEXTSTYLE_0
70
0
40
0.0
41
0.80
50
0.0
71
0
42
0.2
3
txt
4

0
STYLE
5
1FE
100
AcDbSymbolTableRecord
100
AcDbTextStyleTableRecord
2
TEXTSTYLE_1
70
0
40
0.0
41
0.80
50
0.0
71
0
42
0.2
3
txt
4

0
STYLE
5
1FF
100
AcDbSymbolTableRecord
100
AcDbTextStyleTableRecord
2
TEXTSTYLE_2
70
0
40
0.0
41
0.80
50
0.0
71
0
42
0.2
3
txt
4

0
ENDTAB
0
TABLE
2
VIEW
5
6
100
AcDbSymbolTable
70
0
0
ENDTAB
0
TABLE
2
UCS
5
7
100
AcDbSymbolTable
70
0
0
ENDTAB
0
TABLE
2
APPID
5
9
100
AcDbSymbolTable
70
1
0
APPID
5
200
100
AcDbSymbolTableRecord
100
AcDbRegAppTableRecord
2
ACAD
70
0
0
ENDTAB
0
TABLE
2
DIMSTYLE
5
A
100
AcDbSymbolTable
70
1
0
DIMSTYLE
105
201
100
AcDbSymbolTableRecord
100
AcDbDimStyleTableRecord
2
STANDARD
70
0
3

4

5

6

7

40
1.0
41
3.5000000000
42
0.0625
43
0.38
44
0.18
45
0.0
46
0.0
47
0.0100000000
48
0.0100000000
140
3.5000000000
141
0.09
142
0.0
143
25.4
144
1.0000000000
145
0.0
146
1.0000000000
147
0.09
71
1
72
0
73
0
74
0
75
0
76
0
77
1
78
0
170
0
171
2
172
0
173
0
174
0
175
0
176
0
177
0
178
0
270
2
271
2
272
2
273
2
274
2
340
11
275
0
280
0
281
0
282
0
283
1
284
0
285
0
286
0
287
3
288
0
0
DIMSTYLE
105
202
100
AcDbSymbolTableRecord
100
AcDbDimStyleTableRecord
2
DIMSTYLE_1
70
0
3

4

5

6

7

40
1.0
41
3.5000000000
42
0.0625
43
0.38
44
0.18
45
0.0
46
0.0
47
0.0100000000
48
0.0100000000
140
3.5000000000
141
0.09
142
0.0
143
25.4
144
1.0000000000
145
0.0
146
1.0000000000
147
0.09
71
0
72
0
73
0
74
0
75
0
76
0
77
1
78
0
170
0
171
2
172
0
173
0
174
0
175
0
176
0
177
0
178
0
270
2
271
2
272
2
273
2
274
2
340
11
275
0
280
0
281
0
282
0
283
1
284
0
285
0
286
0
287
3
288
0
0
ENDTAB
0
TABLE
2
BLOCK_RECORD
5
1
100
AcDbSymbolTable
70
0
0
BLOCK_RECORD
5
1B
100
AcDbSymbolTableRecord
100
AcDbBlockTableRecord
2
*MODEL_SPACE
0
BLOCK_RECORD
5
1C
100
AcDbSymbolTableRecord
100
AcDbBlockTableRecord
2
*PAPER_SPACE
0
BLOCK_RECORD
5
203
100
AcDbSymbolTableRecord
100
AcDbBlockTableRecord
2
*D0
0
BLOCK_RECORD
5
204
100
AcDbSymbolTableRecord
100
AcDbBlockTableRecord
2
*D1
0
BLOCK_RECORD
5
205
100
AcDbSymbolTableRecord
100
AcDbBlockTableRecord
2
*D2
0
ENDTAB
0
ENDSEC
0
SECTION
2
BLOCKS
0
BLOCK
5
1E
100
AcDbEntity
8
0
100
AcDbBlockBegin
2
*MODEL_SPACE
70
0
10
0.0
20
0.0
30
0.0
3
*MODEL_SPACE
1

0
ENDBLK
5
1F
100
AcDbEntity
8
0
100
AcDbBlockEnd
0
BLOCK
5
20
100
AcDbEntity
8
0
100
AcDbBlockBegin
2
*PAPER_SPACE
70
0
10
0.0
20
0.0
30
0.0
3
*PAPER_SPACE
1

0
ENDBLK
5
21
100
AcDbEntity
8
0
100
AcDbBlockEnd
0
BLOCK
5
206
100
AcDbEntity
8
0
100
AcDbBlockBegin
62
2
6
CONTINUOUS
2
*D0
70
65
10
0.0000000000
20
0.0000000000
3
*D0
1

0
TEXT
5
207
100
AcDbEntity
8
0
100
AcDbText
62
2
6
CONTINUOUS
10
130.3718558282
20
86.2591065951
7
TEXTSTYLE_0
40
3.5000000000
1
109
72
5
11
139.2968558282
21
86.2591065951
100
AcDbText
0
LINE
5
208
100
AcDbEntity
8
0
100
AcDbLine
62
2
6
CONTINUOUS
10
83.8196289063
20
96.2589062500
11
83.8196289063
21
83.8841065951
0
LINE
5
209
100
AcDbEntity
8
0
100
AcDbLine
62
2
6
CONTINUOUS
10
192.8196289063
20
96.2589062500
11
192.8196289063
21
83.8841065951
0
LINE
5
20A
100
AcDbEntity
8
0
100
AcDbLine
62
2
6
CONTINUOUS
10
83.8196289063
20
85.3841065951
11
138.3196289063
21
85.3841065951
0
LINE
5
20B
100
AcDbEntity
8
0
100
AcDbLine
62
2
6
CONTINUOUS
10
192.8196289063
20
85.3841065951
11
138.3196289063
21
85.3841065951
0
SOLID
5
20C
100
AcDbEntity
8
0
100
AcDbTrace
62
2
6
CONTINUOUS
10
87.3196289063
20
86.1341065951
11
83.8196289063
21
85.3841065951
12
87.3196289063
22
84.6341065951
13
87.3196289063
23
84.6341065951
0
SOLID
5
20D
100
AcDbEntity
8
0
100
AcDbTrace
62
2
6
CONTINUOUS
10
189.3196289063
20
84.6341065951
11
192.8196289063
21
85.3841065951
12
189.3196289063
22
86.1341065951
13
189.3196289063
23
86.1341065951
0
ENDBLK
5
20E
100
AcDbEntity
8
0
100
AcDbBlockEnd
0
BLOCK
5
20F
100
AcDbEntity
8
0
100
AcDbBlockBegin
62
2
6
CONTINUOUS
2
*D1
70
65
10
0.0000000000
20
0.0000000000
3
*D1
1

0
TEXT
5
210
100
AcDbEntity
8
0
100
AcDbText
62
2
6
CONTINUOUS
10
204.2918711656
20
105.3673888037
7
TEXTSTYLE_0
40
3.5000000000
1
23
50
90.0000000000
72
5
11
204.2918711656
21
111.3173888037
100
AcDbText
0
LINE
5
211
100
AcDbEntity
8
0
100
AcDbLine
62
2
6
CONTINUOUS
10
193.8196289063
20
97.2589062500
11
206.6668711656
21
97.2589062500
0
LINE
5
212
100
AcDbEntity
8
0
100
AcDbLine
62
2
6
CONTINUOUS
10
193.8196289063
20
120.2589062500
11
206.6668711656
21
120.2589062500
0
LINE
5
213
100
AcDbEntity
8
0
100
AcDbLine
62
2
6
CONTINUOUS
10
205.1668711656
20
97.2589062500
11
205.1668711656
21
108.7589062500
0
LINE
5
214
100
AcDbEntity
8
0
100
AcDbLine
62
2
6
CONTINUOUS
10
205.1668711656
20
120.2589062500
11
205.1668711656
21
108.7589062500
0
SOLID
5
215
100
AcDbEntity
8
0
100
AcDbTrace
62
2
6
CONTINUOUS
10
204.4168711656
20
100.7589062500
11
205.1668711656
21
97.2589062500
12
205.9168711656
22
100.7589062500
13
205.9168711656
23
100.7589062500
0
SOLID
5
216
100
AcDbEntity
8
0
100
AcDbTrace
62
2
6
CONTINUOUS
10
205.9168711656
20
116.7589062500
11
205.1668711656
21
120.2589062500
12
204.4168711656
22
116.7589062500
13
204.4168711656
23
116.7589062500
0
ENDBLK
5
217
100
AcDbEntity
8
0
100
AcDbBlockEnd
0
BLOCK
5
218
100
AcDbEntity
8
0
100
AcDbBlockBegin
62
2
6
CONTINUOUS
2
*D2
70
65
10
0.0000000000
20
0.0000000000
3
*D2
1

0
TEXT
5
219
100
AcDbEntity
8
0
100
AcDbText
62
2
6
CONTINUOUS
10
208.3004601227
20
155.3522047546
7
TEXTSTYLE_0
40
3.5000000000
1
1.6
50
90.0000000000
72
5
11
208.3004601227
21
164.2772047546
100
AcDbText
0
LINE
5
21A
100
AcDbEntity
8
0
100
AcDbLine
62
2
6
CONTINUOUS
10
193.8196289063
20
148.3571127301
11
210.6754601227
21
148.3571127301
0
LINE
5
21B
100
AcDbEntity
8
0
100
AcDbLine
62
2
6
CONTINUOUS
10
193.8196289063
20
149.9571127301
11
210.6754601227
21
149.9571127301
0
LINE
5
21C
100
AcDbEntity
8
0
100
AcDbLine
62
2
6
CONTINUOUS
10
209.1754601227
20
148.3571127301
11
209.1754601227
21
140.3571127301
0
LINE
5
21D
100
AcDbEntity
8
0
100
AcDbLine
62
2
6
CONTINUOUS
10
209.1754601227
20
140.3571127301
11
209.1754601227
21
149.1571127301
0
LINE
5
21E
100
AcDbEntity
8
0
100
AcDbLine
62
2
6
CONTINUOUS
10
209.1754601227
20
149.9571127301
11
209.1754601227
21
164.2772047546
0
LINE
5
21F
100
AcDbEntity
8
0
100
AcDbLine
62
2
6
CONTINUOUS
10
209.1754601227
20
164.2772047546
11
209.1754601227
21
149.1571127301
0
SOLID
5
220
100
AcDbEntity
8
0
100
AcDbTrace
62
2
6
CONTINUOUS
10
209.9254601227
20
144.8571127301
11
209.1754601227
21
148.3571127301
12
208.4254601227
22
144.8571127301
13
208.4254601227
23
144.8571127301
0
SOLID
5
221
100
AcDbEntity
8
0
100
AcDbTrace
62
2
6
CONTINUOUS
10
208.4254601227
20
153.4571127301
11
209.1754601227
21
149.9571127301
12
209.9254601227
22
153.4571127301
13
209.9254601227
23
153.4571127301
0
ENDBLK
5
222
100
AcDbEntity
8
0
100
AcDbBlockEnd
0
ENDSEC
0
SECTION
2
ENTITIES
0
DIMENSION
5
223
100
AcDbEntity
8
0
100
AcDbDimension
62
2
6
CONTINUOUS
2
*D0
10
192.8196289063
20
85.3841065951
11
134.8343558282
21
88.0091065951
70
160
3
DIMSTYLE_1
100
AcDbAlignedDimension
13
83.8196289063
23
96.2589062500
14
192.8196289063
24
96.2589062500
100
AcDbRotatedDimension
0
DIMENSION
5
224
100
AcDbEntity
8
0
100
AcDbDimension
62
2
6
CONTINUOUS
2
*D1
10
205.1668711656
20
120.2589062500
11
202.5418711656
21
108.3423888037
70
160
3
DIMSTYLE_1
100
AcDbAlignedDimension
13
193.8196289063
23
97.2589062500
14
193.8196289063
24
120.2589062500
50
90.000000
100
AcDbRotatedDimension
0
DIMENSION
5
225
100
AcDbEntity
8
0
100
AcDbDimension
62
2
6
CONTINUOUS
2
*D2
10
209.1754601227
20
149.9571127301
11
206.5504601227
21
159.8147047546
70
160
3
DIMSTYLE_1
100
AcDbAlignedDimension
13
193.8196289063
23
148.3571127301
14
193.8196289063
24
149.9571127301
50
90.000000
100
AcDbRotatedDimension
0
LINE
5
226
100
AcDbEntity
8
0
100
AcDbLine
62
7
6
CONTINUOUS
10
184.5000000000
20
61.0500000000
11
284.5000000000
21
61.0500000000
0
LINE
5
227
100
AcDbEntity
8
0
100
AcDbLine
62
7
6
CONTINUOUS
10
184.5000000000
20
61.0500000000
11
184.5000000000
21
18.0500000000
0
LINE
5
228
100
AcDbEntity
8
0
100
AcDbLine
62
7
6
CONTINUOUS
10
184.5000000000
20
50.0500000000
11
284.5000000000
21
50.0500000000
0
LINE
5
229
100
AcDbEntity
8
0
100
AcDbLine
62
7
6
CONTINUOUS
10
184.5000000000
20
42.0500000000
11
284.5000000000
21
42.0500000000
0
LINE
5
22A
100
AcDbEntity
8
0
100
AcDbLine
62
7
6
CONTINUOUS
10
184.5000000000
20
34.0500000000
11
284.5000000000
21
34.0500000000
0
LINE
5
22B
100
AcDbEntity
8
0
100
AcDbLine
62
7
6
CONTINUOUS
10
184.5000000000
20
26.0500000000
11
284.5000000000
21
26.0500000000
0
LINE
5
22C
100
AcDbEntity
8
0
100
AcDbLine
62
7
6
CONTINUOUS
10
184.5000000000
20
18.0500000000
11
284.5000000000
21
18.0500000000
0
LINE
5
22D
100
AcDbEntity
8
0
100
AcDbLine
62
7
6
CONTINUOUS
10
199.5000000000
20
61.0500000000
11
199.5000000000
21
42.0500000000
0
LINE
5
22E
100
AcDbEntity
8
0
100
AcDbLine
62
7
6
CONTINUOUS
10
214.5000000000
20
42.0500000000
11
214.5000000000
21
26.0500000000
0
LINE
5
22F
100
AcDbEntity
8
0
100
AcDbLine
62
7
6
CONTINUOUS
10
259.5000000000
20
50.0500000000
11
259.5000000000
21
18.0500000000
0
LINE
5
230
100
AcDbEntity
8
0
100
AcDbLine
62
7
6
CONTINUOUS
10
284.5000000000
20
61.0500000000
11
284.5000000000
21
18.0500000000
0
TEXT
5
231
100
AcDbEntity
8
0
100
AcDbText
62
7
6
CONTINUOUS
10
184.5625000000
20
57.5500000000
7
TEXTSTYLE_0
40
1.5000000000
1
 Dato:
72
5
11
191.7625000000
21
57.5500000000
100
AcDbText
0
TEXT
5
232
100
AcDbEntity
8
0
100
AcDbText
62
7
6
CONTINUOUS
10
184.5625000000
20
54.9875000000
7
TEXTSTYLE_0
40
1.7500000000
1
 
72
5
11
185.9625000000
21
54.9875000000
100
AcDbText
0
TEXT
5
233
100
AcDbEntity
8
0
100
AcDbText
62
7
6
CONTINUOUS
10
184.5625000000
20
52.0500000000
7
TEXTSTYLE_0
40
2.0000000000
1
18-Nov-08
72
5
11
198.9625000000
21
52.0500000000
100
AcDbText
0
TEXT
5
234
100
AcDbEntity
8
0
100
AcDbText
62
7
6
CONTINUOUS
10
210.6676470588
20
53.8000000000
7
TEXTSTYLE_1
40
3.5000000000
1
             Bernic A/S
72
5
11
263.3323529412
21
53.8000000000
100
AcDbText
0
TEXT
5
235
100
AcDbEntity
8
0
100
AcDbText
62
7
6
CONTINUOUS
10
184.5625000000
20
47.9250000000
7
TEXTSTYLE_0
40
1.5000000000
1
 Skala:
72
5
11
192.9625000000
21
47.9250000000
100
AcDbText
0
TEXT
5
236
100
AcDbEntity
8
0
100
AcDbText
62
7
6
CONTINUOUS
10
184.5625000000
20
45.9875000000
7
TEXTSTYLE_0
40
1.2500000000
1
 
72
5
11
185.5625000000
21
45.9875000000
100
AcDbText
0
TEXT
5
237
100
AcDbEntity
8
0
100
AcDbText
62
7
6
CONTINUOUS
10
184.5625000000
20
42.6750000000
7
TEXTSTYLE_0
40
2.4000000000
1
 
72
5
11
186.4825000000
21
42.6750000000
100
AcDbText
0
TEXT
5
238
100
AcDbEntity
8
0
100
AcDbText
62
7
6
CONTINUOUS
10
186.4825000000
20
42.6750000000
7
TEXTSTYLE_0
40
2.4000000000
1
1.000
72
5
11
196.0825000000
21
42.6750000000
100
AcDbText
0
TEXT
5
239
100
AcDbEntity
8
0
100
AcDbText
62
7
6
CONTINUOUS
10
199.5625000000
20
48.4718750000
7
TEXTSTYLE_0
40
1.5000000000
1
 Kunde:
72
5
11
207.9625000000
21
48.4718750000
100
AcDbText
0
TEXT
5
23A
100
AcDbEntity
8
0
100
AcDbText
62
7
6
CONTINUOUS
10
236.3906250000
20
44.5500000000
7
TEXTSTYLE_2
40
3.0000000000
1
 
72
5
11
237.6093750000
21
44.5500000000
100
AcDbText
0
TEXT
5
23B
100
AcDbEntity
8
0
100
AcDbText
62
7
6
CONTINUOUS
10
259.5625000000
20
44.8500000000
7
TEXTSTYLE_0
40
2.4000000000
1
Sheet 
72
5
11
271.0825000000
21
44.8500000000
100
AcDbText
0
TEXT
5
23C
100
AcDbEntity
8
0
100
AcDbText
62
7
6
CONTINUOUS
10
271.0825000000
20
44.8500000000
7
TEXTSTYLE_0
40
2.4000000000
1
1
72
5
11
273.0025000000
21
44.8500000000
100
AcDbText
0
TEXT
5
23D
100
AcDbEntity
8
0
100
AcDbText
62
7
6
CONTINUOUS
10
273.0025000000
20
44.8500000000
7
TEXTSTYLE_0
40
2.4000000000
1
 of 
72
5
11
280.6825000000
21
44.8500000000
100
AcDbText
0
TEXT
5
23E
100
AcDbEntity
8
0
100
AcDbText
62
7
6
CONTINUOUS
10
280.6825000000
20
44.8500000000
7
TEXTSTYLE_0
40
2.4000000000
1
1
72
5
11
282.6025000000
21
44.8500000000
100
AcDbText
0
TEXT
5
23F
100
AcDbEntity
8
0
100
AcDbText
6
CONTINUOUS
10
184.5625000000
20
40.1125000000
7
TEXTSTYLE_0
40
1.5000000000
1
 Tol.:
72
5
11
191.7625000000
21
40.1125000000
100
AcDbText
0
TEXT
5
240
100
AcDbEntity
8
0
100
AcDbText
6
CONTINUOUS
10
184.5625000000
20
37.8625000000
7
TEXTSTYLE_0
40
1.5000000000
1
  
72
5
11
186.9625000000
21
37.8625000000
100
AcDbText
0
TEXT
5
241
100
AcDbEntity
8
0
100
AcDbText
6
CONTINUOUS
10
184.5625000000
20
34.4875000000
7
TEXTSTYLE_0
40
2.4000000000
1
DS/ISO 2768 - m 
72
5
11
215.2825000000
21
34.4875000000
100
AcDbText
0
TEXT
5
242
100
AcDbEntity
8
0
100
AcDbText
6
CONTINUOUS
10
215.2825000000
20
34.4875000000
7
TEXTSTYLE_0
40
2.4000000000
1
 
72
5
11
217.2025000000
21
34.4875000000
100
AcDbText
0
TEXT
5
243
100
AcDbEntity
8
0
100
AcDbText
6
CONTINUOUS
10
214.5625000000
20
40.1125000000
7
TEXTSTYLE_0
40
1.5000000000
1
 Materiale:
72
5
11
227.7625000000
21
40.1125000000
100
AcDbText
0
TEXT
5
244
100
AcDbEntity
8
0
100
AcDbText
6
CONTINUOUS
10
214.5625000000
20
37.8625000000
7
TEXTSTYLE_0
40
1.5000000000
1
 
72
5
11
215.7625000000
21
37.8625000000
100
AcDbText
0
TEXT
5
245
100
AcDbEntity
8
0
100
AcDbText
6
CONTINUOUS
10
214.5625000000
20
34.4875000000
7
TEXTSTYLE_0
40
2.4000000000
1
 
72
5
11
216.4825000000
21
34.4875000000
100
AcDbText
0
TEXT
5
246
100
AcDbEntity
8
0
100
AcDbText
6
CONTINUOUS
10
259.5625000000
20
40.1125000000
7
TEXTSTYLE_0
40
1.5000000000
1
 Farve:
72
5
11
267.9625000000
21
40.1125000000
100
AcDbText
0
TEXT
5
247
100
AcDbEntity
8
0
100
AcDbText
6
CONTINUOUS
10
259.5625000000
20
37.8625000000
7
TEXTSTYLE_0
40
1.5000000000
1
 
72
5
11
260.7625000000
21
37.8625000000
100
AcDbText
0
TEXT
5
248
100
AcDbEntity
8
0
100
AcDbText
6
CONTINUOUS
10
259.5625000000
20
34.4875000000
7
TEXTSTYLE_0
40
2.4000000000
1
 
72
5
11
261.4825000000
21
34.4875000000
100
AcDbText
0
TEXT
5
249
100
AcDbEntity
8
0
100
AcDbText
6
CONTINUOUS
10
261.4825000000
20
34.4875000000
7
TEXTSTYLE_0
40
2.4000000000
1
 
72
5
11
263.4025000000
21
34.4875000000
100
AcDbText
0
TEXT
5
24A
100
AcDbEntity
8
0
100
AcDbText
62
7
6
CONTINUOUS
10
184.5625000000
20
31.9250000000
7
TEXTSTYLE_0
40
1.5000000000
1
 Emne nr.:
72
5
11
196.5625000000
21
31.9250000000
100
AcDbText
0
TEXT
5
24B
100
AcDbEntity
8
0
100
AcDbText
62
7
6
CONTINUOUS
10
184.5625000000
20
29.9875000000
7
TEXTSTYLE_0
40
1.2500000000
1
 
72
5
11
185.5625000000
21
29.9875000000
100
AcDbText
0
TEXT
5
24C
100
AcDbEntity
8
0
100
AcDbText
62
7
6
CONTINUOUS
10
184.5625000000
20
26.6750000000
7
TEXTSTYLE_0
40
2.4000000000
1
 
72
5
11
186.4825000000
21
26.6750000000
100
AcDbText
0
TEXT
5
24D
100
AcDbEntity
8
0
100
AcDbText
62
7
6
CONTINUOUS
10
186.4825000000
20
26.6750000000
7
TEXTSTYLE_0
40
2.4000000000
1
.
72
5
11
188.4025000000
21
26.6750000000
100
AcDbText
0
TEXT
5
24E
100
AcDbEntity
8
0
100
AcDbText
62
7
6
CONTINUOUS
10
214.5625000000
20
31.9250000000
7
TEXTSTYLE_0
40
1.5000000000
1
 3D model:
72
5
11
226.5625000000
21
31.9250000000
100
AcDbText
0
TEXT
5
24F
100
AcDbEntity
8
0
100
AcDbText
62
7
6
CONTINUOUS
10
214.5625000000
20
29.9875000000
7
TEXTSTYLE_0
40
1.2500000000
1
 
72
5
11
215.5625000000
21
29.9875000000
100
AcDbText
0
TEXT
5
250
100
AcDbEntity
8
0
100
AcDbText
62
7
6
CONTINUOUS
10
214.5625000000
20
26.6750000000
7
TEXTSTYLE_0
40
2.4000000000
1
 
72
5
11
216.4825000000
21
26.6750000000
100
AcDbText
0
TEXT
5
251
100
AcDbEntity
8
0
100
AcDbText
62
7
6
CONTINUOUS
10
216.4825000000
20
26.6750000000
7
TEXTSTYLE_0
40
2.4000000000
1
PCB_LONGSIDE
72
5
11
239.5225000000
21
26.6750000000
100
AcDbText
0
TEXT
5
252
100
AcDbEntity
8
0
100
AcDbText
62
7
6
CONTINUOUS
10
259.5625000000
20
31.9250000000
7
TEXTSTYLE_0
40
1.5000000000
1
 Tegn. nr.:
72
5
11
272.7625000000
21
31.9250000000
100
AcDbText
0
TEXT
5
253
100
AcDbEntity
8
0
100
AcDbText
62
7
6
CONTINUOUS
10
259.5625000000
20
29.9875000000
7
TEXTSTYLE_0
40
1.2500000000
1
 
72
5
11
260.5625000000
21
29.9875000000
100
AcDbText
0
TEXT
5
254
100
AcDbEntity
8
0
100
AcDbText
62
7
6
CONTINUOUS
10
259.5625000000
20
26.6750000000
7
TEXTSTYLE_0
40
2.4000000000
1
 
72
5
11
261.4825000000
21
26.6750000000
100
AcDbText
0
TEXT
5
255
100
AcDbEntity
8
0
100
AcDbText
62
7
6
CONTINUOUS
10
261.4825000000
20
26.6750000000
7
TEXTSTYLE_0
40
2.4000000000
1
BC 274
72
5
11
273.0025000000
21
26.6750000000
100
AcDbText
0
TEXT
5
256
100
AcDbEntity
8
0
100
AcDbText
62
7
6
CONTINUOUS
10
184.5625000000
20
24.4718750000
7
TEXTSTYLE_0
40
1.5000000000
1
 Betegnelse:
72
5
11
198.9625000000
21
24.4718750000
100
AcDbText
0
TEXT
5
257
100
AcDbEntity
8
0
100
AcDbText
62
7
6
CONTINUOUS
10
199.5625000000
20
20.8000000000
7
TEXTSTYLE_2
40
2.5000000000
1
Pcb for enclosure Type 203, longside
72
5
11
257.7656250000
21
20.8000000000
100
AcDbText
0
TEXT
5
258
100
AcDbEntity
8
0
100
AcDbText
62
7
6
CONTINUOUS
10
259.5625000000
20
22.8625000000
7
TEXTSTYLE_0
40
1.5000000000
1
 Fil:
72
5
11
265.5625000000
21
22.8625000000
100
AcDbText
0
TEXT
5
259
100
AcDbEntity
8
0
100
AcDbText
62
7
6
CONTINUOUS
10
259.5625000000
20
19.7375000000
7
TEXTSTYLE_0
40
2.2000000000
1
PCB_LONGSIDE
72
5
11
280.6825000000
21
19.7375000000
100
AcDbText
0
LINE
5
25A
100
AcDbEntity
8
0
100
AcDbLine
62
7
6
CONTINUOUS
10
7.6562500000
20
12.7937500000
11
7.3437500000
21
13.1062500000
0
LINE
5
25B
100
AcDbEntity
8
0
100
AcDbLine
62
7
6
CONTINUOUS
10
18.5000000000
20
13.0500000000
11
18.5000000000
21
197.0500000000
0
LINE
5
25C
100
AcDbEntity
8
0
100
AcDbLine
62
7
6
CONTINUOUS
10
23.5000000000
20
18.0500000000
11
23.5000000000
21
192.0500000000
0
LINE
5
25D
100
AcDbEntity
8
0
100
AcDbLine
62
7
6
CONTINUOUS
10
289.5000000000
20
13.0500000000
11
18.5000000000
21
13.0500000000
0
LINE
5
25E
100
AcDbEntity
8
0
100
AcDbLine
62
7
6
CONTINUOUS
10
284.5000000000
20
18.0500000000
11
23.5000000000
21
18.0500000000
0
LINE
5
25F
100
AcDbEntity
8
0
100
AcDbLine
62
7
6
CONTINUOUS
10
7.6562500000
20
13.1062500000
11
7.3437500000
21
12.7937500000
0
LINE
5
260
100
AcDbEntity
8
0
100
AcDbLine
62
7
6
CONTINUOUS
10
23.5000000000
20
192.0500000000
11
284.5000000000
21
192.0500000000
0
LINE
5
261
100
AcDbEntity
8
0
100
AcDbLine
62
7
6
CONTINUOUS
10
18.5000000000
20
197.0500000000
11
289.5000000000
21
197.0500000000
0
LINE
5
262
100
AcDbEntity
8
0
100
AcDbLine
62
7
6
CONTINUOUS
10
284.5000000000
20
192.0500000000
11
284.5000000000
21
18.0500000000
0
LINE
5
263
100
AcDbEntity
8
0
100
AcDbLine
62
7
6
CONTINUOUS
10
289.5000000000
20
197.0500000000
11
289.5000000000
21
13.0500000000
0
LINE
5
264
100
AcDbEntity
8
0
100
AcDbLine
62
7
6
CONTINUOUS
10
83.8196289063
20
120.2589062500
11
83.8196289063
21
97.2589062500
0
LINE
5
265
100
AcDbEntity
8
0
100
AcDbLine
62
7
6
CONTINUOUS
10
83.8196289063
20
97.2589062500
11
192.8196289063
21
97.2589062500
0
LINE
5
266
100
AcDbEntity
8
0
100
AcDbLine
62
7
6
CONTINUOUS
10
192.8196289063
20
120.2589062500
11
83.8196289063
21
120.2589062500
0
LINE
5
267
100
AcDbEntity
8
0
100
AcDbLine
62
7
6
CONTINUOUS
10
192.8196289063
20
97.2589062500
11
192.8196289063
21
120.2589062500
0
LINE
5
268
100
AcDbEntity
8
0
100
AcDbLine
62
7
6
CONTINUOUS
10
83.8196289063
20
148.3571127301
11
83.8196289063
21
149.9571127301
0
LINE
5
269
100
AcDbEntity
8
0
100
AcDbLine
62
7
6
CONTINUOUS
10
192.8196289063
20
148.3571127301
11
83.8196289063
21
148.3571127301
0
LINE
5
26A
100
AcDbEntity
8
0
100
AcDbLine
62
7
6
CONTINUOUS
10
192.8196289063
20
149.9571127301
11
83.8196289063
21
149.9571127301
0
LINE
5
26B
100
AcDbEntity
8
0
100
AcDbLine
62
7
6
CONTINUOUS
10
192.8196289063
20
148.3571127301
11
192.8196289063
21
149.9571127301
0
ENDSEC
0
SECTION
2
OBJECTS
0
DICTIONARY
5
26C
100
AcDbDictionary
3
ACAD_GROUP
350
26D
3
ACAD_MLINESTYLE
350
26E
0
DICTIONARY
5
26D
102
{ACAD_REACTORS
330
26C
102
}
100
AcDbDictionary
0
DICTIONARY
5
26E
102
{ACAD_REACTORS
330
26C
102
}
100
AcDbDictionary
3
STANDARD
350
26F
0
MLINESTYLE
5
26F
102
{ACAD_REACTORS
330
26E
102
}
100
AcDbMlineStyle
2
STANDARD
70
0
3

62
256
51
90.0
52
90.0
71
2
49
0.5
62
256
6
BYLAYER
49
-0.5
62
256
6
BYLAYER
0
ENDSEC
0
EOF
