999
DXF file: top_500.dxf
999
Pro/ENGINEER 2001440 by Parametric Technology Corporation
0
SECTION
2
HEADER
9
$ACADVER
1
AC1014
9
$EXTMAX
10
420.0000000000
20
297.0000000000
9
$EXTMIN
10
0.0000000000
20
0.0000000000
9
$LIMMIN
10
0.0000000000
20
0.0000000000
9
$LIMMAX
10
420.0000000000
20
297.0000000000
9
$VIEWCTR
10
210.0000000000
20
148.5000000000
9
$VIEWSIZE
40
297.0000000000
9
$CLAYER
8
0
9
$LTSCALE
40
23.1000000000
9
$CELTYPE
6
BYLAYER
9
$DIMSCALE
40
1
9
$DIMASZ
40
3.5000000000
9
$DIMEXO
40
2.6250000000
9
$DIMDLI
40
15.9600000000
9
$DIMEXE
40
7.5600000000
9
$DIMCEN
40
3.7800000000
9
$DIMLFAC
40
1.0000000000
9
$DIMTXT
40
3.5000000000
9
$DIMTOL
70
1
9
$DIMLIM
70
0
9
$DIMTFAC
40
1.0000000000
9
$DIMTP
40
0.0100000000
9
$DIMTM
40
0.0100000000
9
$HANDSEED
5
563
0
ENDSEC
0
SECTION
2
CLASSES
0
ENDSEC
0
SECTION
2
TABLES
0
TABLE
2
VPORT
5
8
100
AcDbSymbolTable
70
2
0
VPORT
5
1F4
100
AcDbSymbolTableRecord
100
AcDbViewportTableRecord
2
*ACTIVE
70
0
10
0.0
20
0.0
11
1.0
21
1.0
12
210.0000000000
22
148.5000000000
13
0.0
23
0.0
14
1.0
24
1.0
15
0.0
25
0.0
16
0.0
26
0.0
36
1.0
17
0.0
27
0.0
37
0.0
40
297.0000000000
41
1.4141414141
42
50.0
43
0.0
44
0.0
50
0.0
51
0.0
71
0
72
100
73
1
74
1
75
0
76
0
77
0
78
0
0
ENDTAB
0
TABLE
2
LTYPE
5
5
100
AcDbSymbolTable
70
6
0
LTYPE
5
14
100
AcDbSymbolTableRecord
100
AcDbLinetypeTableRecord
2
BYBLOCK
70
0
3

72
65
73
0
40
0.0
0
LTYPE
5
15
100
AcDbSymbolTableRecord
100
AcDbLinetypeTableRecord
2
BYLAYER
70
0
3

72
65
73
0
40
0.0
0
LTYPE
5
16
100
AcDbSymbolTableRecord
100
AcDbLinetypeTableRecord
2
CONTINUOUS
70
64
3
Solid line
72
65
73
0
40
0
0
LTYPE
5
1F5
100
AcDbSymbolTableRecord
100
AcDbLinetypeTableRecord
2
CENTER
70
64
3
____ _ ____ _ ____ _ ____ _ ____ _ ____ _ ____
72
65
73
4
40
0.6
49
0.375
74
0
49
-0.075
74
0
49
0.075
74
0
49
-0.075
74
0
0
LTYPE
5
1F6
100
AcDbSymbolTableRecord
100
AcDbLinetypeTableRecord
2
HIDDEN
70
64
3
- - - - - - - - - - - - - - - - - - - -
72
65
73
2
40
0.2
49
0.1
74
0
49
-0.1
74
0
0
LTYPE
5
1F7
100
AcDbSymbolTableRecord
100
AcDbLinetypeTableRecord
2
PHANTOM
70
64
3
_____ _ _ _____ _ _ _____ _ _ _____
72
65
73
6
40
0.8
49
0.45
74
0
49
-0.05
74
0
49
0.1
74
0
49
-0.05
74
0
49
0.1
74
0
49
-0.05
74
0
0
LTYPE
5
1F8
100
AcDbSymbolTableRecord
100
AcDbLinetypeTableRecord
2
DOT
70
64
3
. . . . . . . . . . . . . . . . . . . .
72
65
73
2
40
0.2
49
0.1
74
0
49
-0.1
74
0
0
LTYPE
5
1F9
100
AcDbSymbolTableRecord
100
AcDbLinetypeTableRecord
2
DASHED
70
64
3
- - - - - - - - - - - - - - - - - - - -
72
65
73
2
40
0.2
49
0.1
74
0
49
-0.1
74
0
0
ENDTAB
0
TABLE
2
LAYER
5
2
100
AcDbSymbolTable
70
36
0
LAYER
5
10
100
AcDbSymbolTableRecord
100
AcDbLayerTableRecord
2
0
70
0
62
7
6
CONTINUOUS
0
LAYER
5
1FA
100
AcDbSymbolTableRecord
100
AcDbLayerTableRecord
2
DEFAULT_1
70
0
62
7
6
CENTER
0
LAYER
5
1FB
100
AcDbSymbolTableRecord
100
AcDbLayerTableRecord
2
DEFAULT_2
70
0
62
8
6
HIDDEN
0
LAYER
5
1FC
100
AcDbSymbolTableRecord
100
AcDbLayerTableRecord
2
DEFAULT_3
70
0
62
7
6
PHANTOM
0
ENDTAB
0
TABLE
2
STYLE
5
3
100
AcDbSymbolTable
70
1
0
STYLE
5
11
100
AcDbSymbolTableRecord
100
AcDbTextStyleTableRecord
2
STANDARD
70
0
40
0.0
41
0.8500000000
50
0.0
71
0
42
0.0
3
txt
4

0
STYLE
5
1FD
100
AcDbSymbolTableRecord
100
AcDbTextStyleTableRecord
2
TEXTSTYLE_0
70
0
40
0.0
41
0.80
50
0.0
71
0
42
0.2
3
txt
4

0
STYLE
5
1FE
100
AcDbSymbolTableRecord
100
AcDbTextStyleTableRecord
2
TEXTSTYLE_1
70
0
40
0.0
41
0.80
50
0.0
71
0
42
0.2
3
txt
4

0
STYLE
5
1FF
100
AcDbSymbolTableRecord
100
AcDbTextStyleTableRecord
2
TEXTSTYLE_2
70
0
40
0.0
41
0.80
50
0.0
71
0
42
0.2
3
txt
4

0
ENDTAB
0
TABLE
2
VIEW
5
6
100
AcDbSymbolTable
70
0
0
ENDTAB
0
TABLE
2
UCS
5
7
100
AcDbSymbolTable
70
0
0
ENDTAB
0
TABLE
2
APPID
5
9
100
AcDbSymbolTable
70
1
0
APPID
5
200
100
AcDbSymbolTableRecord
100
AcDbRegAppTableRecord
2
ACAD
70
0
0
ENDTAB
0
TABLE
2
DIMSTYLE
5
A
100
AcDbSymbolTable
70
1
0
DIMSTYLE
105
201
100
AcDbSymbolTableRecord
100
AcDbDimStyleTableRecord
2
STANDARD
70
0
3

4

5

6

7

40
1.0
41
3.5000000000
42
0.0625
43
0.38
44
0.18
45
0.0
46
0.0
47
0.0100000000
48
0.0100000000
140
3.5000000000
141
0.09
142
0.0
143
25.4
144
1.0000000000
145
0.0
146
1.0000000000
147
0.09
71
1
72
0
73
0
74
0
75
0
76
0
77
1
78
0
170
0
171
2
172
0
173
0
174
0
175
0
176
0
177
0
178
0
270
2
271
2
272
2
273
2
274
2
340
11
275
0
280
0
281
0
282
0
283
1
284
0
285
0
286
0
287
3
288
0
0
DIMSTYLE
105
202
100
AcDbSymbolTableRecord
100
AcDbDimStyleTableRecord
2
DIMSTYLE_1
70
0
3

4

5

6

7

40
1.0
41
3.5000000000
42
0.0625
43
0.38
44
0.18
45
0.0
46
0.0
47
0.0100000000
48
0.0100000000
140
3.5000000000
141
0.09
142
0.0
143
25.4
144
1.0000000000
145
0.0
146
1.0000000000
147
0.09
71
0
72
0
73
0
74
0
75
0
76
0
77
1
78
0
170
0
171
2
172
0
173
0
174
0
175
0
176
0
177
0
178
0
270
2
271
2
272
2
273
2
274
2
340
11
275
0
280
0
281
0
282
0
283
1
284
0
285
0
286
0
287
3
288
0
0
DIMSTYLE
105
203
100
AcDbSymbolTableRecord
100
AcDbDimStyleTableRecord
2
DIMSTYLE_2
70
0
3

4

5

6

7

40
1.0
41
3.5000000000
42
0.0625
43
0.38
44
0.18
45
0.0
46
0.0
47
0.1000000000
48
0.1000000000
140
3.5000000000
141
0.09
142
0.0
143
25.4
144
1.0000000000
145
0.0
146
1.0000000000
147
0.09
71
0
72
0
73
0
74
0
75
0
76
0
77
1
78
0
170
0
171
2
172
0
173
0
174
0
175
0
176
0
177
0
178
0
270
2
271
1
272
1
273
2
274
2
340
11
275
0
280
0
281
0
282
0
283
1
284
0
285
0
286
0
287
3
288
0
0
DIMSTYLE
105
204
100
AcDbSymbolTableRecord
100
AcDbDimStyleTableRecord
2
DIMSTYLE_3
70
0
3

4

5

6

7

40
1.0
41
3.5000000000
42
0.0625
43
0.38
44
0.18
45
0.0
46
0.0
47
0.5000000000
48
0.5000000000
140
3.5000000000
141
0.09
142
0.0
143
25.4
144
1.0000000000
145
0.0
146
1.0000000000
147
0.09
71
0
72
0
73
1
74
1
75
0
76
0
77
0
78
0
170
0
171
2
172
0
173
0
174
0
175
0
176
0
177
0
178
0
270
2
271
1
272
1
273
2
274
2
340
11
275
0
280
0
281
0
282
0
283
1
284
0
285
0
286
0
287
3
288
0
0
ENDTAB
0
TABLE
2
BLOCK_RECORD
5
1
100
AcDbSymbolTable
70
0
0
BLOCK_RECORD
5
1B
100
AcDbSymbolTableRecord
100
AcDbBlockTableRecord
2
*MODEL_SPACE
0
BLOCK_RECORD
5
1C
100
AcDbSymbolTableRecord
100
AcDbBlockTableRecord
2
*PAPER_SPACE
0
BLOCK_RECORD
5
205
100
AcDbSymbolTableRecord
100
AcDbBlockTableRecord
2
*D0
0
BLOCK_RECORD
5
206
100
AcDbSymbolTableRecord
100
AcDbBlockTableRecord
2
*D1
0
BLOCK_RECORD
5
207
100
AcDbSymbolTableRecord
100
AcDbBlockTableRecord
2
*D2
0
BLOCK_RECORD
5
208
100
AcDbSymbolTableRecord
100
AcDbBlockTableRecord
2
*D3
0
BLOCK_RECORD
5
209
100
AcDbSymbolTableRecord
100
AcDbBlockTableRecord
2
*D4
0
BLOCK_RECORD
5
20A
100
AcDbSymbolTableRecord
100
AcDbBlockTableRecord
2
*D5
0
BLOCK_RECORD
5
20B
100
AcDbSymbolTableRecord
100
AcDbBlockTableRecord
2
*D6
0
BLOCK_RECORD
5
20C
100
AcDbSymbolTableRecord
100
AcDbBlockTableRecord
2
*D7
0
BLOCK_RECORD
5
20D
100
AcDbSymbolTableRecord
100
AcDbBlockTableRecord
2
*D8
0
BLOCK_RECORD
5
20E
100
AcDbSymbolTableRecord
100
AcDbBlockTableRecord
2
*D9
0
BLOCK_RECORD
5
20F
100
AcDbSymbolTableRecord
100
AcDbBlockTableRecord
2
*D10
0
BLOCK_RECORD
5
210
100
AcDbSymbolTableRecord
100
AcDbBlockTableRecord
2
*D11
0
BLOCK_RECORD
5
211
100
AcDbSymbolTableRecord
100
AcDbBlockTableRecord
2
*D12
0
BLOCK_RECORD
5
212
100
AcDbSymbolTableRecord
100
AcDbBlockTableRecord
2
*D13
0
BLOCK_RECORD
5
213
100
AcDbSymbolTableRecord
100
AcDbBlockTableRecord
2
*D14
0
BLOCK_RECORD
5
214
100
AcDbSymbolTableRecord
100
AcDbBlockTableRecord
2
*D15
0
BLOCK_RECORD
5
215
100
AcDbSymbolTableRecord
100
AcDbBlockTableRecord
2
*D16
0
BLOCK_RECORD
5
216
100
AcDbSymbolTableRecord
100
AcDbBlockTableRecord
2
*D17
0
BLOCK_RECORD
5
217
100
AcDbSymbolTableRecord
100
AcDbBlockTableRecord
2
*D18
0
BLOCK_RECORD
5
218
100
AcDbSymbolTableRecord
100
AcDbBlockTableRecord
2
*D19
0
ENDTAB
0
ENDSEC
0
SECTION
2
BLOCKS
0
BLOCK
5
1E
100
AcDbEntity
8
0
100
AcDbBlockBegin
2
*MODEL_SPACE
70
0
10
0.0
20
0.0
30
0.0
3
*MODEL_SPACE
1

0
ENDBLK
5
1F
100
AcDbEntity
8
0
100
AcDbBlockEnd
0
BLOCK
5
20
100
AcDbEntity
8
0
100
AcDbBlockBegin
2
*PAPER_SPACE
70
0
10
0.0
20
0.0
30
0.0
3
*PAPER_SPACE
1

0
ENDBLK
5
21
100
AcDbEntity
8
0
100
AcDbBlockEnd
0
BLOCK
5
219
100
AcDbEntity
8
0
100
AcDbBlockBegin
62
2
6
CONTINUOUS
2
*D0
70
65
10
0.0000000000
20
0.0000000000
3
*D0
1

0
TEXT
5
21A
100
AcDbEntity
8
0
100
AcDbText
62
2
6
CONTINUOUS
10
125.5258200324
20
269.4188953777
7
TEXTSTYLE_0
40
3.5000000000
1
78.9
72
5
11
137.4258199122
21
269.4188953777
100
AcDbText
0
LINE
5
21B
100
AcDbEntity
8
0
100
AcDbLine
62
2
6
CONTINUOUS
10
94.4623921587
20
246.2083516741
11
94.4623921587
21
270.0438953777
0
LINE
5
21C
100
AcDbEntity
8
0
100
AcDbLine
62
2
6
CONTINUOUS
10
173.3623921587
20
246.2083516741
11
173.3623921587
21
270.0438953777
0
LINE
5
21D
100
AcDbEntity
8
0
100
AcDbLine
62
2
6
CONTINUOUS
10
94.4623921587
20
268.5438953777
11
133.9123921587
21
268.5438953777
0
LINE
5
21E
100
AcDbEntity
8
0
100
AcDbLine
62
2
6
CONTINUOUS
10
173.3623921587
20
268.5438953777
11
133.9123921587
21
268.5438953777
0
SOLID
5
21F
100
AcDbEntity
8
0
100
AcDbTrace
62
2
6
CONTINUOUS
10
97.9623921587
20
269.2938953777
11
94.4623921587
21
268.5438953777
12
97.9623921587
22
267.7938953777
13
97.9623921587
23
267.7938953777
0
SOLID
5
220
100
AcDbEntity
8
0
100
AcDbTrace
62
2
6
CONTINUOUS
10
169.8623921587
20
267.7938953777
11
173.3623921587
21
268.5438953777
12
169.8623921587
22
269.2938953777
13
169.8623921587
23
269.2938953777
0
ENDBLK
5
221
100
AcDbEntity
8
0
100
AcDbBlockEnd
0
BLOCK
5
222
100
AcDbEntity
8
0
100
AcDbBlockBegin
62
2
6
CONTINUOUS
2
*D1
70
65
10
0.0000000000
20
0.0000000000
3
*D1
1

0
TEXT
5
223
100
AcDbEntity
8
0
100
AcDbText
62
2
6
CONTINUOUS
10
125.7114596181
20
262.7358702931
7
TEXTSTYLE_0
40
3.5000000000
1
75.7
72
5
11
137.6114594979
21
262.7358702931
100
AcDbText
0
LINE
5
224
100
AcDbEntity
8
0
100
AcDbLine
62
2
6
CONTINUOUS
10
96.0624293775
20
244.9083074769
11
96.0624293775
21
263.3608702931
0
LINE
5
225
100
AcDbEntity
8
0
100
AcDbLine
62
2
6
CONTINUOUS
10
171.7623549400
20
244.9083074769
11
171.7623549400
21
263.3608702931
0
LINE
5
226
100
AcDbEntity
8
0
100
AcDbLine
62
2
6
CONTINUOUS
10
96.0624293775
20
261.8608702931
11
133.9123921587
21
261.8608702931
0
LINE
5
227
100
AcDbEntity
8
0
100
AcDbLine
62
2
6
CONTINUOUS
10
171.7623549400
20
261.8608702931
11
133.9123921587
21
261.8608702931
0
SOLID
5
228
100
AcDbEntity
8
0
100
AcDbTrace
62
2
6
CONTINUOUS
10
99.5624293775
20
262.6108702931
11
96.0624293775
21
261.8608702931
12
99.5624293775
22
261.1108702931
13
99.5624293775
23
261.1108702931
0
SOLID
5
229
100
AcDbEntity
8
0
100
AcDbTrace
62
2
6
CONTINUOUS
10
168.2623549400
20
261.1108702931
11
171.7623549400
21
261.8608702931
12
168.2623549400
22
262.6108702931
13
168.2623549400
23
262.6108702931
0
ENDBLK
5
22A
100
AcDbEntity
8
0
100
AcDbBlockEnd
0
BLOCK
5
22B
100
AcDbEntity
8
0
100
AcDbBlockBegin
62
2
6
CONTINUOUS
2
*D2
70
65
10
0.0000000000
20
0.0000000000
3
*D2
1

0
TEXT
5
22C
100
AcDbEntity
8
0
100
AcDbText
62
2
6
CONTINUOUS
10
126.8252971322
20
257.1666827227
7
TEXTSTYLE_0
40
3.5000000000
1
74.7
72
5
11
138.7252971322
21
257.1666827227
100
AcDbText
0
LINE
5
22D
100
AcDbEntity
8
0
100
AcDbLine
62
2
6
CONTINUOUS
10
96.5480740749
20
244.4226627795
11
96.5480740749
21
257.7916827227
0
LINE
5
22E
100
AcDbEntity
8
0
100
AcDbLine
62
2
6
CONTINUOUS
10
171.2767102425
20
244.4226627795
11
171.2767102425
21
257.7916827227
0
LINE
5
22F
100
AcDbEntity
8
0
100
AcDbLine
62
2
6
CONTINUOUS
10
96.5480740749
20
256.2916827227
11
133.9123921587
21
256.2916827227
0
LINE
5
230
100
AcDbEntity
8
0
100
AcDbLine
62
2
6
CONTINUOUS
10
171.2767102425
20
256.2916827227
11
133.9123921587
21
256.2916827227
0
SOLID
5
231
100
AcDbEntity
8
0
100
AcDbTrace
62
2
6
CONTINUOUS
10
100.0480740749
20
257.0416827227
11
96.5480740749
21
256.2916827227
12
100.0480740749
22
255.5416827227
13
100.0480740749
23
255.5416827227
0
SOLID
5
232
100
AcDbEntity
8
0
100
AcDbTrace
62
2
6
CONTINUOUS
10
167.7767102425
20
255.5416827227
11
171.2767102425
21
256.2916827227
12
167.7767102425
22
257.0416827227
13
167.7767102425
23
257.0416827227
0
ENDBLK
5
233
100
AcDbEntity
8
0
100
AcDbBlockEnd
0
BLOCK
5
234
100
AcDbEntity
8
0
100
AcDbBlockBegin
62
2
6
CONTINUOUS
2
*D3
70
65
10
0.0000000000
20
0.0000000000
3
*D3
1

0
TEXT
5
235
100
AcDbEntity
8
0
100
AcDbText
62
2
6
CONTINUOUS
10
199.4731063199
20
221.9388261136
7
TEXTSTYLE_0
40
3.5000000000
1
35.8
50
90.0000000000
72
5
11
199.4731063199
21
233.8388261136
100
AcDbText
0
LINE
5
236
100
AcDbEntity
8
0
100
AcDbLine
62
2
6
CONTINUOUS
10
174.0623991371
20
245.5083446957
11
201.8481063199
21
245.5083446957
0
LINE
5
237
100
AcDbEntity
8
0
100
AcDbLine
62
2
6
CONTINUOUS
10
174.0623991371
20
209.7083446957
11
201.8481063199
21
209.7083446957
0
LINE
5
238
100
AcDbEntity
8
0
100
AcDbLine
62
2
6
CONTINUOUS
10
200.3481063199
20
245.5083446957
11
200.3481063199
21
227.6083446957
0
LINE
5
239
100
AcDbEntity
8
0
100
AcDbLine
62
2
6
CONTINUOUS
10
200.3481063199
20
209.7083446957
11
200.3481063199
21
227.6083446957
0
SOLID
5
23A
100
AcDbEntity
8
0
100
AcDbTrace
62
2
6
CONTINUOUS
10
201.0981063199
20
242.0083446957
11
200.3481063199
21
245.5083446957
12
199.5981063199
22
242.0083446957
13
199.5981063199
23
242.0083446957
0
SOLID
5
23B
100
AcDbEntity
8
0
100
AcDbTrace
62
2
6
CONTINUOUS
10
199.5981063199
20
213.2083446957
11
200.3481063199
21
209.7083446957
12
201.0981063199
22
213.2083446957
13
201.0981063199
23
213.2083446957
0
ENDBLK
5
23C
100
AcDbEntity
8
0
100
AcDbBlockEnd
0
BLOCK
5
23D
100
AcDbEntity
8
0
100
AcDbBlockBegin
62
2
6
CONTINUOUS
2
*D4
70
65
10
0.0000000000
20
0.0000000000
3
*D4
1

0
TEXT
5
23E
100
AcDbEntity
8
0
100
AcDbText
62
2
6
CONTINUOUS
10
189.0772895218
20
221.3819073565
7
TEXTSTYLE_0
40
3.5000000000
1
32.6
50
90.0000000000
72
5
11
189.0772895218
21
233.2819073565
100
AcDbText
0
LINE
5
23F
100
AcDbEntity
8
0
100
AcDbLine
62
2
6
CONTINUOUS
10
172.7623549400
20
243.9083074769
11
191.4522895218
21
243.9083074769
0
LINE
5
240
100
AcDbEntity
8
0
100
AcDbLine
62
2
6
CONTINUOUS
10
172.7623549400
20
211.3083819145
11
191.4522895218
21
211.3083819145
0
LINE
5
241
100
AcDbEntity
8
0
100
AcDbLine
62
2
6
CONTINUOUS
10
189.9522895218
20
243.9083074769
11
189.9522895218
21
227.6083446957
0
LINE
5
242
100
AcDbEntity
8
0
100
AcDbLine
62
2
6
CONTINUOUS
10
189.9522895218
20
211.3083819145
11
189.9522895218
21
227.6083446957
0
SOLID
5
243
100
AcDbEntity
8
0
100
AcDbTrace
62
2
6
CONTINUOUS
10
190.7022895218
20
240.4083074769
11
189.9522895218
21
243.9083074769
12
189.2022895218
22
240.4083074769
13
189.2022895218
23
240.4083074769
0
SOLID
5
244
100
AcDbEntity
8
0
100
AcDbTrace
62
2
6
CONTINUOUS
10
189.2022895218
20
214.8083819145
11
189.9522895218
21
211.3083819145
12
190.7022895218
22
214.8083819145
13
190.7022895218
23
214.8083819145
0
ENDBLK
5
245
100
AcDbEntity
8
0
100
AcDbBlockEnd
0
BLOCK
5
246
100
AcDbEntity
8
0
100
AcDbBlockBegin
62
2
6
CONTINUOUS
2
*D5
70
65
10
0.0000000000
20
0.0000000000
3
*D5
1

0
TEXT
5
247
100
AcDbEntity
8
0
100
AcDbText
62
2
6
CONTINUOUS
10
180.9091477519
20
221.7531865279
7
TEXTSTYLE_0
40
3.5000000000
1
31.6
50
90.0000000000
72
5
11
180.9091477519
21
233.6531865279
100
AcDbText
0
LINE
5
248
100
AcDbEntity
8
0
100
AcDbLine
62
2
6
CONTINUOUS
10
172.2767102425
20
243.4226627795
11
183.2841477519
21
243.4226627795
0
LINE
5
249
100
AcDbEntity
8
0
100
AcDbLine
62
2
6
CONTINUOUS
10
172.2767102425
20
211.7940266119
11
183.2841477519
21
211.7940266119
0
LINE
5
24A
100
AcDbEntity
8
0
100
AcDbLine
62
2
6
CONTINUOUS
10
181.7841477519
20
243.4226627795
11
181.7841477519
21
227.6083446957
0
LINE
5
24B
100
AcDbEntity
8
0
100
AcDbLine
62
2
6
CONTINUOUS
10
181.7841477519
20
211.7940266119
11
181.7841477519
21
227.6083446957
0
SOLID
5
24C
100
AcDbEntity
8
0
100
AcDbTrace
62
2
6
CONTINUOUS
10
182.5341477519
20
239.9226627795
11
181.7841477519
21
243.4226627795
12
181.0341477519
22
239.9226627795
13
181.0341477519
23
239.9226627795
0
SOLID
5
24D
100
AcDbEntity
8
0
100
AcDbTrace
62
2
6
CONTINUOUS
10
181.0341477519
20
215.2940266119
11
181.7841477519
21
211.7940266119
12
182.5341477519
22
215.2940266119
13
182.5341477519
23
215.2940266119
0
ENDBLK
5
24E
100
AcDbEntity
8
0
100
AcDbBlockEnd
0
BLOCK
5
24F
100
AcDbEntity
8
0
100
AcDbBlockBegin
62
2
6
CONTINUOUS
2
*D6
70
65
10
0.0000000000
20
0.0000000000
3
*D6
1

0
TEXT
5
250
100
AcDbEntity
8
0
100
AcDbText
62
2
6
CONTINUOUS
10
125.1505711452
20
201.1597343576
7
TEXTSTYLE_0
40
3.5000000000
1
72.44
72
5
11
140.0255711452
21
201.1597343576
100
AcDbText
0
LINE
5
251
100
AcDbEntity
8
0
100
AcDbLine
62
2
6
CONTINUOUS
10
97.6931604325
20
213.7083446957
11
97.6931604325
21
198.7847343576
0
LINE
5
252
100
AcDbEntity
8
0
100
AcDbLine
62
2
6
CONTINUOUS
10
170.1316238849
20
213.7083446957
11
170.1316238849
21
198.7847343576
0
LINE
5
253
100
AcDbEntity
8
0
100
AcDbLine
62
2
6
CONTINUOUS
10
97.6931604325
20
200.2847343576
11
133.9123921587
21
200.2847343576
0
LINE
5
254
100
AcDbEntity
8
0
100
AcDbLine
62
2
6
CONTINUOUS
10
170.1316238849
20
200.2847343576
11
133.9123921587
21
200.2847343576
0
SOLID
5
255
100
AcDbEntity
8
0
100
AcDbTrace
62
2
6
CONTINUOUS
10
101.1931604325
20
201.0347343576
11
97.6931604325
21
200.2847343576
12
101.1931604325
22
199.5347343576
13
101.1931604325
23
199.5347343576
0
SOLID
5
256
100
AcDbEntity
8
0
100
AcDbTrace
62
2
6
CONTINUOUS
10
166.6316238849
20
199.5347343576
11
170.1316238849
21
200.2847343576
12
166.6316238849
22
201.0347343576
13
166.6316238849
23
201.0347343576
0
ENDBLK
5
257
100
AcDbEntity
8
0
100
AcDbBlockEnd
0
BLOCK
5
258
100
AcDbEntity
8
0
100
AcDbBlockBegin
62
2
6
CONTINUOUS
2
*D7
70
65
10
0.0000000000
20
0.0000000000
3
*D7
1

0
TEXT
5
259
100
AcDbEntity
8
0
100
AcDbText
62
2
6
CONTINUOUS
10
127.4437760871
20
41.9830634896
7
TEXTSTYLE_0
40
3.5000000000
1
74.4
72
5
11
139.3437760871
21
41.9830634896
100
AcDbText
0
LINE
5
25A
100
AcDbEntity
8
0
100
AcDbLine
62
2
6
CONTINUOUS
10
96.7123921587
20
55.5450345092
11
96.7123921587
21
39.6080634896
0
LINE
5
25B
100
AcDbEntity
8
0
100
AcDbLine
62
2
6
CONTINUOUS
10
171.1123921587
20
55.5450345092
11
171.1123921587
21
39.6080634896
0
LINE
5
25C
100
AcDbEntity
8
0
100
AcDbLine
62
2
6
CONTINUOUS
10
96.7123921587
20
41.1080634896
11
133.9123921587
21
41.1080634896
0
LINE
5
25D
100
AcDbEntity
8
0
100
AcDbLine
62
2
6
CONTINUOUS
10
171.1123921587
20
41.1080634896
11
133.9123921587
21
41.1080634896
0
SOLID
5
25E
100
AcDbEntity
8
0
100
AcDbTrace
62
2
6
CONTINUOUS
10
100.2123921587
20
41.8580634896
11
96.7123921587
21
41.1080634896
12
100.2123921587
22
40.3580634896
13
100.2123921587
23
40.3580634896
0
SOLID
5
25F
100
AcDbEntity
8
0
100
AcDbTrace
62
2
6
CONTINUOUS
10
167.6123921587
20
40.3580634896
11
171.1123921587
21
41.1080634896
12
167.6123921587
22
41.8580634896
13
167.6123921587
23
41.8580634896
0
ENDBLK
5
260
100
AcDbEntity
8
0
100
AcDbBlockEnd
0
BLOCK
5
261
100
AcDbEntity
8
0
100
AcDbBlockBegin
62
2
6
CONTINUOUS
2
*D8
70
65
10
0.0000000000
20
0.0000000000
3
*D8
1

0
TEXT
5
262
100
AcDbEntity
8
0
100
AcDbText
62
2
6
CONTINUOUS
10
186.6170292663
20
67.0176761490
7
TEXTSTYLE_0
40
3.5000000000
1
31.3
50
90.0000000000
72
5
11
186.6170292663
21
78.9176761490
100
AcDbText
0
LINE
5
263
100
AcDbEntity
8
0
100
AcDbLine
62
2
6
CONTINUOUS
10
172.1123921587
20
56.5450345092
11
188.9920292663
21
56.5450345092
0
LINE
5
264
100
AcDbEntity
8
0
100
AcDbLine
62
2
6
CONTINUOUS
10
172.1123921587
20
87.8450345092
11
188.9920292663
21
87.8450345092
0
LINE
5
265
100
AcDbEntity
8
0
100
AcDbLine
62
2
6
CONTINUOUS
10
187.4920292663
20
56.5450345092
11
187.4920292663
21
72.1950345092
0
LINE
5
266
100
AcDbEntity
8
0
100
AcDbLine
62
2
6
CONTINUOUS
10
187.4920292663
20
87.8450345092
11
187.4920292663
21
72.1950345092
0
SOLID
5
267
100
AcDbEntity
8
0
100
AcDbTrace
62
2
6
CONTINUOUS
10
186.7420292663
20
60.0450345092
11
187.4920292663
21
56.5450345092
12
188.2420292663
22
60.0450345092
13
188.2420292663
23
60.0450345092
0
SOLID
5
268
100
AcDbEntity
8
0
100
AcDbTrace
62
2
6
CONTINUOUS
10
188.2420292663
20
84.3450345092
11
187.4920292663
21
87.8450345092
12
186.7420292663
22
84.3450345092
13
186.7420292663
23
84.3450345092
0
ENDBLK
5
269
100
AcDbEntity
8
0
100
AcDbBlockEnd
0
BLOCK
5
26A
100
AcDbEntity
8
0
100
AcDbBlockBegin
62
2
6
CONTINUOUS
2
*D9
70
65
10
0.0000000000
20
0.0000000000
3
*D9
1

0
TEXT
5
26B
100
AcDbEntity
8
0
100
AcDbText
62
2
6
CONTINUOUS
10
118.5338880354
20
106.0567077987
7
TEXTSTYLE_0
40
3.5000000000
1
4.4
50
90.0000000000
72
5
11
118.5338880354
21
114.9817077987
100
AcDbText
0
LINE
5
26C
100
AcDbEntity
8
0
100
AcDbLine
62
2
6
CONTINUOUS
10
95.7623851804
20
118.6379601227
11
120.9088880354
21
118.6379601227
0
LINE
5
26D
100
AcDbEntity
8
0
100
AcDbLine
62
2
6
CONTINUOUS
10
128.7623921587
20
123.0379601227
11
117.9088880354
21
123.0379601227
0
LINE
5
26E
100
AcDbEntity
8
0
100
AcDbLine
62
2
6
CONTINUOUS
10
119.4088880354
20
118.6379601227
11
119.4088880354
21
106.0567077987
0
LINE
5
26F
100
AcDbEntity
8
0
100
AcDbLine
62
2
6
CONTINUOUS
10
119.4088880354
20
106.0567077987
11
119.4088880354
21
120.8379601227
0
LINE
5
270
100
AcDbEntity
8
0
100
AcDbLine
62
2
6
CONTINUOUS
10
119.4088880354
20
123.0379601227
11
119.4088880354
21
131.0379601227
0
LINE
5
271
100
AcDbEntity
8
0
100
AcDbLine
62
2
6
CONTINUOUS
10
119.4088880354
20
131.0379601227
11
119.4088880354
21
120.8379601227
0
SOLID
5
272
100
AcDbEntity
8
0
100
AcDbTrace
62
2
6
CONTINUOUS
10
120.1588880354
20
115.1379601227
11
119.4088880354
21
118.6379601227
12
118.6588880354
22
115.1379601227
13
118.6588880354
23
115.1379601227
0
SOLID
5
273
100
AcDbEntity
8
0
100
AcDbTrace
62
2
6
CONTINUOUS
10
118.6588880354
20
126.5379601227
11
119.4088880354
21
123.0379601227
12
120.1588880354
22
126.5379601227
13
120.1588880354
23
126.5379601227
0
ENDBLK
5
274
100
AcDbEntity
8
0
100
AcDbBlockEnd
0
BLOCK
5
275
100
AcDbEntity
8
0
100
AcDbBlockBegin
62
2
6
CONTINUOUS
2
*D10
70
65
10
0.0000000000
20
0.0000000000
3
*D10
1

0
TEXT
5
276
100
AcDbEntity
8
0
100
AcDbText
62
2
6
CONTINUOUS
10
109.6120220122
20
113.5401535214
7
TEXTSTYLE_0
40
3.5000000000
1
2
50
90.0000000000
72
5
11
109.6120220122
21
116.5151535214
100
AcDbText
0
LINE
5
277
100
AcDbEntity
8
0
100
AcDbLine
62
2
6
CONTINUOUS
10
128.2264937739
20
121.0379601227
11
108.9870220122
21
121.0379601227
0
LINE
5
278
100
AcDbEntity
8
0
100
AcDbLine
62
2
6
CONTINUOUS
10
128.7623921587
20
123.0379601227
11
108.9870220122
21
123.0379601227
0
LINE
5
279
100
AcDbEntity
8
0
100
AcDbLine
62
2
6
CONTINUOUS
10
110.4870220122
20
121.0379601227
11
110.4870220122
21
113.5401535214
0
LINE
5
27A
100
AcDbEntity
8
0
100
AcDbLine
62
2
6
CONTINUOUS
10
110.4870220122
20
113.5401535214
11
110.4870220122
21
122.0379601227
0
LINE
5
27B
100
AcDbEntity
8
0
100
AcDbLine
62
2
6
CONTINUOUS
10
110.4870220122
20
123.0379601227
11
110.4870220122
21
131.0379601227
0
LINE
5
27C
100
AcDbEntity
8
0
100
AcDbLine
62
2
6
CONTINUOUS
10
110.4870220122
20
131.0379601227
11
110.4870220122
21
122.0379601227
0
SOLID
5
27D
100
AcDbEntity
8
0
100
AcDbTrace
62
2
6
CONTINUOUS
10
111.2370220122
20
117.5379601227
11
110.4870220122
21
121.0379601227
12
109.7370220122
22
117.5379601227
13
109.7370220122
23
117.5379601227
0
SOLID
5
27E
100
AcDbEntity
8
0
100
AcDbTrace
62
2
6
CONTINUOUS
10
109.7370220122
20
126.5379601227
11
110.4870220122
21
123.0379601227
12
111.2370220122
22
126.5379601227
13
111.2370220122
23
126.5379601227
0
ENDBLK
5
27F
100
AcDbEntity
8
0
100
AcDbBlockEnd
0
BLOCK
5
280
100
AcDbEntity
8
0
100
AcDbBlockBegin
62
2
6
CONTINUOUS
2
*D11
70
65
10
0.0000000000
20
0.0000000000
3
*D11
1

0
TEXT
5
281
100
AcDbEntity
8
0
100
AcDbText
62
2
6
CONTINUOUS
10
129.9908037033
20
108.9370793422
7
TEXTSTYLE_0
40
3.5000000000
1
9.4
72
5
11
138.9158037033
21
108.9370793422
100
AcDbText
0
LINE
5
282
100
AcDbEntity
8
0
100
AcDbLine
62
2
6
CONTINUOUS
10
138.5982905436
20
120.0379601227
11
138.5982905436
21
106.5620793422
0
LINE
5
283
100
AcDbEntity
8
0
100
AcDbLine
62
2
6
CONTINUOUS
10
129.2264937739
20
120.0379601227
11
129.2264937739
21
106.5620793422
0
LINE
5
284
100
AcDbEntity
8
0
100
AcDbLine
62
2
6
CONTINUOUS
10
138.5982905436
20
108.0620793422
11
146.5982905436
21
108.0620793422
0
LINE
5
285
100
AcDbEntity
8
0
100
AcDbLine
62
2
6
CONTINUOUS
10
146.5982905436
20
108.0620793422
11
133.9123921587
21
108.0620793422
0
LINE
5
286
100
AcDbEntity
8
0
100
AcDbLine
62
2
6
CONTINUOUS
10
129.2264937739
20
108.0620793422
11
121.2264937739
21
108.0620793422
0
LINE
5
287
100
AcDbEntity
8
0
100
AcDbLine
62
2
6
CONTINUOUS
10
121.2264937739
20
108.0620793422
11
133.9123921587
21
108.0620793422
0
SOLID
5
288
100
AcDbEntity
8
0
100
AcDbTrace
62
2
6
CONTINUOUS
10
142.0982905436
20
108.8120793422
11
138.5982905436
21
108.0620793422
12
142.0982905436
22
107.3120793422
13
142.0982905436
23
107.3120793422
0
SOLID
5
289
100
AcDbEntity
8
0
100
AcDbTrace
62
2
6
CONTINUOUS
10
125.7264937739
20
107.3120793422
11
129.2264937739
21
108.0620793422
12
125.7264937739
22
108.8120793422
13
125.7264937739
23
108.8120793422
0
ENDBLK
5
28A
100
AcDbEntity
8
0
100
AcDbBlockEnd
0
BLOCK
5
28B
100
AcDbEntity
8
0
100
AcDbBlockBegin
62
2
6
CONTINUOUS
2
*D12
70
65
10
0.0000000000
20
0.0000000000
3
*D12
1

0
TEXT
5
28C
100
AcDbEntity
8
0
100
AcDbText
62
2
6
CONTINUOUS
10
140.7041391711
20
128.4479581048
7
TEXTSTYLE_0
40
3.5000000000
1
15%%d
72
5
11
148.9874725045
21
128.4479581048
100
AcDbText
0
LINE
5
28D
100
AcDbEntity
8
0
100
AcDbLine
62
2
6
CONTINUOUS
10
138.5982905436
20
122.0379601227
11
138.5982905436
21
133.6256564742
0
LINE
5
28E
100
AcDbEntity
8
0
100
AcDbLine
62
2
6
CONTINUOUS
10
138.3394714985
20
122.0038859490
11
135.3403549939
21
133.1967411221
0
ARC
5
28F
100
AcDbEntity
8
0
100
AcDbCircle
62
2
6
CONTINUOUS
10
138.5982905436
20
121.0379601227
40
11.0876963515
100
AcDbArc
50
55.7043187038
51
90.0000000000
0
ARC
5
290
100
AcDbEntity
8
0
100
AcDbCircle
62
2
6
CONTINUOUS
10
138.5982905436
20
121.0379601227
40
11.0876963515
100
AcDbArc
50
105.0000000000
51
146.3400783692
0
SOLID
5
291
100
AcDbEntity
8
0
100
AcDbTrace
62
2
6
CONTINUOUS
10
138.5982905436
20
132.1256564742
11
142.1726700798
21
132.3162107470
12
141.9369028958
22
130.8348553423
13
141.9369028958
23
130.8348553423
0
SOLID
5
292
100
AcDbEntity
8
0
100
AcDbTrace
62
2
6
CONTINUOUS
10
135.7285835615
20
131.7478523827
11
132.8378155830
21
129.6369377718
12
132.2266789796
22
131.0067961776
13
132.2266789796
23
131.0067961776
0
ENDBLK
5
293
100
AcDbEntity
8
0
100
AcDbBlockEnd
0
BLOCK
5
294
100
AcDbEntity
8
0
100
AcDbBlockBegin
62
2
6
CONTINUOUS
2
*D13
70
65
10
0.0000000000
20
0.0000000000
3
*D13
1

0
TEXT
5
295
100
AcDbEntity
8
0
100
AcDbText
62
2
6
CONTINUOUS
10
102.4218518441
20
127.0755038585
7
TEXTSTYLE_0
40
3.5000000000
1
4.5
50
90.0000000000
72
5
11
102.4218518441
21
136.0005038585
100
AcDbText
0
LINE
5
296
100
AcDbEntity
8
0
100
AcDbLine
62
2
6
CONTINUOUS
10
95.7623851804
20
118.6379601227
11
104.7968518441
21
118.6379601227
0
LINE
5
297
100
AcDbEntity
8
0
100
AcDbLine
62
2
6
CONTINUOUS
10
98.6931604325
20
123.1379601227
11
104.7968518441
21
123.1379601227
0
LINE
5
298
100
AcDbEntity
8
0
100
AcDbLine
62
2
6
CONTINUOUS
10
103.2968518441
20
118.6379601227
11
103.2968518441
21
110.6379601227
0
LINE
5
299
100
AcDbEntity
8
0
100
AcDbLine
62
2
6
CONTINUOUS
10
103.2968518441
20
110.6379601227
11
103.2968518441
21
120.8879601227
0
LINE
5
29A
100
AcDbEntity
8
0
100
AcDbLine
62
2
6
CONTINUOUS
10
103.2968518441
20
123.1379601227
11
103.2968518441
21
136.0005038585
0
LINE
5
29B
100
AcDbEntity
8
0
100
AcDbLine
62
2
6
CONTINUOUS
10
103.2968518441
20
136.0005038585
11
103.2968518441
21
120.8879601227
0
SOLID
5
29C
100
AcDbEntity
8
0
100
AcDbTrace
62
2
6
CONTINUOUS
10
104.0468518441
20
115.1379601227
11
103.2968518441
21
118.6379601227
12
102.5468518441
22
115.1379601227
13
102.5468518441
23
115.1379601227
0
SOLID
5
29D
100
AcDbEntity
8
0
100
AcDbTrace
62
2
6
CONTINUOUS
10
102.5468518441
20
126.6379601227
11
103.2968518441
21
123.1379601227
12
104.0468518441
22
126.6379601227
13
104.0468518441
23
126.6379601227
0
ENDBLK
5
29E
100
AcDbEntity
8
0
100
AcDbBlockEnd
0
BLOCK
5
29F
100
AcDbEntity
8
0
100
AcDbBlockBegin
62
2
6
CONTINUOUS
2
*D14
70
65
10
0.0000000000
20
0.0000000000
3
*D14
1

0
TEXT
5
2A0
100
AcDbEntity
8
0
100
AcDbText
62
2
6
CONTINUOUS
10
84.6581942489
20
196.3267436404
7
TEXTSTYLE_0
40
3.5000000000
1
0.9
50
90.0000000000
72
5
11
84.6581942489
21
205.2517436404
100
AcDbText
0
LINE
5
2A1
100
AcDbEntity
8
0
100
AcDbLine
62
2
6
CONTINUOUS
10
95.7123921587
20
191.0379601227
11
84.0331942489
21
191.0379601227
0
LINE
5
2A2
100
AcDbEntity
8
0
100
AcDbLine
62
2
6
CONTINUOUS
10
95.7123921587
20
191.9379601227
11
84.0331942489
21
191.9379601227
0
LINE
5
2A3
100
AcDbEntity
8
0
100
AcDbLine
62
2
6
CONTINUOUS
10
85.5331942489
20
191.0379601227
11
85.5331942489
21
183.0379601227
0
LINE
5
2A4
100
AcDbEntity
8
0
100
AcDbLine
62
2
6
CONTINUOUS
10
85.5331942489
20
183.0379601227
11
85.5331942489
21
191.4879601227
0
LINE
5
2A5
100
AcDbEntity
8
0
100
AcDbLine
62
2
6
CONTINUOUS
10
85.5331942489
20
191.9379601227
11
85.5331942489
21
205.2517436404
0
LINE
5
2A6
100
AcDbEntity
8
0
100
AcDbLine
62
2
6
CONTINUOUS
10
85.5331942489
20
205.2517436404
11
85.5331942489
21
191.4879601227
0
SOLID
5
2A7
100
AcDbEntity
8
0
100
AcDbTrace
62
2
6
CONTINUOUS
10
86.2831942489
20
187.5379601227
11
85.5331942489
21
191.0379601227
12
84.7831942489
22
187.5379601227
13
84.7831942489
23
187.5379601227
0
SOLID
5
2A8
100
AcDbEntity
8
0
100
AcDbTrace
62
2
6
CONTINUOUS
10
84.7831942489
20
195.4379601227
11
85.5331942489
21
191.9379601227
12
86.2831942489
22
195.4379601227
13
86.2831942489
23
195.4379601227
0
ENDBLK
5
2A9
100
AcDbEntity
8
0
100
AcDbBlockEnd
0
BLOCK
5
2AA
100
AcDbEntity
8
0
100
AcDbBlockBegin
62
2
6
CONTINUOUS
2
*D15
70
65
10
0.0000000000
20
0.0000000000
3
*D15
1

0
TEXT
5
2AB
100
AcDbEntity
8
0
100
AcDbText
62
2
6
CONTINUOUS
10
76.0502457526
20
177.1839789884
7
TEXTSTYLE_0
40
3.5000000000
1
1.2
50
90.0000000000
72
5
11
76.0502457526
21
186.1089789884
100
AcDbText
0
LINE
5
2AC
100
AcDbEntity
8
0
100
AcDbLine
62
2
6
CONTINUOUS
10
95.5480740749
20
189.8379601227
11
75.4252457526
21
189.8379601227
0
LINE
5
2AD
100
AcDbEntity
8
0
100
AcDbLine
62
2
6
CONTINUOUS
10
95.7123921587
20
191.0379601227
11
75.4252457526
21
191.0379601227
0
LINE
5
2AE
100
AcDbEntity
8
0
100
AcDbLine
62
2
6
CONTINUOUS
10
76.9252457526
20
189.8379601227
11
76.9252457526
21
177.1839789884
0
LINE
5
2AF
100
AcDbEntity
8
0
100
AcDbLine
62
2
6
CONTINUOUS
10
76.9252457526
20
177.1839789884
11
76.9252457526
21
190.4379601227
0
LINE
5
2B0
100
AcDbEntity
8
0
100
AcDbLine
62
2
6
CONTINUOUS
10
76.9252457526
20
191.0379601227
11
76.9252457526
21
199.0379601227
0
LINE
5
2B1
100
AcDbEntity
8
0
100
AcDbLine
62
2
6
CONTINUOUS
10
76.9252457526
20
199.0379601227
11
76.9252457526
21
190.4379601227
0
SOLID
5
2B2
100
AcDbEntity
8
0
100
AcDbTrace
62
2
6
CONTINUOUS
10
77.6752457526
20
186.3379601227
11
76.9252457526
21
189.8379601227
12
76.1752457526
22
186.3379601227
13
76.1752457526
23
186.3379601227
0
SOLID
5
2B3
100
AcDbEntity
8
0
100
AcDbTrace
62
2
6
CONTINUOUS
10
76.1752457526
20
194.5379601227
11
76.9252457526
21
191.0379601227
12
77.6752457526
22
194.5379601227
13
77.6752457526
23
194.5379601227
0
ENDBLK
5
2B4
100
AcDbEntity
8
0
100
AcDbBlockEnd
0
BLOCK
5
2B5
100
AcDbEntity
8
0
100
AcDbBlockBegin
62
2
6
CONTINUOUS
2
*D16
70
65
10
0.0000000000
20
0.0000000000
3
*D16
1

0
TEXT
5
2B6
100
AcDbEntity
8
0
100
AcDbText
62
2
6
CONTINUOUS
10
190.3902872558
20
149.6187091323
7
TEXTSTYLE_0
40
3.5000000000
1
73.3
50
90.0000000000
72
5
11
190.3902872558
21
161.5187091323
100
AcDbText
0
LINE
5
2B7
100
AcDbEntity
8
0
100
AcDbLine
62
2
6
CONTINUOUS
10
172.1123921587
20
191.9379601227
11
192.7652872558
21
191.9379601227
0
LINE
5
2B8
100
AcDbEntity
8
0
100
AcDbLine
62
2
6
CONTINUOUS
10
174.0623991371
20
118.6379601227
11
192.7652872558
21
118.6379601227
0
LINE
5
2B9
100
AcDbEntity
8
0
100
AcDbLine
62
2
6
CONTINUOUS
10
191.2652872558
20
191.9379601227
11
191.2652872558
21
155.2879601227
0
LINE
5
2BA
100
AcDbEntity
8
0
100
AcDbLine
62
2
6
CONTINUOUS
10
191.2652872558
20
118.6379601227
11
191.2652872558
21
155.2879601227
0
SOLID
5
2BB
100
AcDbEntity
8
0
100
AcDbTrace
62
2
6
CONTINUOUS
10
192.0152872558
20
188.4379601227
11
191.2652872558
21
191.9379601227
12
190.5152872558
22
188.4379601227
13
190.5152872558
23
188.4379601227
0
SOLID
5
2BC
100
AcDbEntity
8
0
100
AcDbTrace
62
2
6
CONTINUOUS
10
190.5152872558
20
122.1379601227
11
191.2652872558
21
118.6379601227
12
192.0152872558
22
122.1379601227
13
192.0152872558
23
122.1379601227
0
ENDBLK
5
2BD
100
AcDbEntity
8
0
100
AcDbBlockEnd
0
BLOCK
5
2BE
100
AcDbEntity
8
0
100
AcDbBlockBegin
62
2
6
CONTINUOUS
2
*D17
70
65
10
0.0000000000
20
0.0000000000
3
*D17
1

0
TEXT
5
2BF
100
AcDbEntity
8
0
100
AcDbText
62
2
6
CONTINUOUS
10
85.8135996415
20
251.9435891080
7
TEXTSTYLE_0
40
3.5000000000
1
 (4 X)
50
90.0000000000
72
5
11
85.8135996415
21
269.7935891080
100
AcDbText
0
TEXT
5
2C0
100
AcDbEntity
8
0
100
AcDbText
62
2
6
CONTINUOUS
10
85.8135996415
20
243.0185891080
7
TEXTSTYLE_0
40
3.5000000000
1
2.2
50
90.0000000000
72
5
11
85.8135996415
21
251.9435891080
100
AcDbText
0
LINE
5
2C1
100
AcDbEntity
8
0
100
AcDbLine
62
2
6
CONTINUOUS
10
96.6931604325
20
239.6083446957
11
85.1885996415
21
239.6083446957
0
LINE
5
2C2
100
AcDbEntity
8
0
100
AcDbLine
62
2
6
CONTINUOUS
10
96.6931604325
20
237.4083446957
11
85.1885996415
21
237.4083446957
0
LINE
5
2C3
100
AcDbEntity
8
0
100
AcDbLine
62
2
6
CONTINUOUS
10
86.6885996415
20
239.6083446957
11
86.6885996415
21
269.7935891080
0
LINE
5
2C4
100
AcDbEntity
8
0
100
AcDbLine
62
2
6
CONTINUOUS
10
86.6885996415
20
269.7935891080
11
86.6885996415
21
238.5083446957
0
LINE
5
2C5
100
AcDbEntity
8
0
100
AcDbLine
62
2
6
CONTINUOUS
10
86.6885996415
20
237.4083446957
11
86.6885996415
21
229.4083446957
0
LINE
5
2C6
100
AcDbEntity
8
0
100
AcDbLine
62
2
6
CONTINUOUS
10
86.6885996415
20
229.4083446957
11
86.6885996415
21
238.5083446957
0
SOLID
5
2C7
100
AcDbEntity
8
0
100
AcDbTrace
62
2
6
CONTINUOUS
10
85.9385996415
20
243.1083446957
11
86.6885996415
21
239.6083446957
12
87.4385996415
22
243.1083446957
13
87.4385996415
23
243.1083446957
0
SOLID
5
2C8
100
AcDbEntity
8
0
100
AcDbTrace
62
2
6
CONTINUOUS
10
87.4385996415
20
233.9083446957
11
86.6885996415
21
237.4083446957
12
85.9385996415
22
233.9083446957
13
85.9385996415
23
233.9083446957
0
ENDBLK
5
2C9
100
AcDbEntity
8
0
100
AcDbBlockEnd
0
BLOCK
5
2CA
100
AcDbEntity
8
0
100
AcDbBlockBegin
62
2
6
CONTINUOUS
2
*D18
70
65
10
0.0000000000
20
0.0000000000
3
*D18
1

0
TEXT
5
2CB
100
AcDbEntity
8
0
100
AcDbText
62
2
6
CONTINUOUS
10
77.8646074203
20
249.2939250342
7
TEXTSTYLE_0
40
3.5000000000
1
 (8 X)
50
90.0000000000
72
5
11
77.8646074203
21
267.1439250342
100
AcDbText
0
TEXT
5
2CC
100
AcDbEntity
8
0
100
AcDbText
62
2
6
CONTINUOUS
10
77.8646074203
20
240.3689250342
7
TEXTSTYLE_0
40
3.5000000000
1
0.9
50
90.0000000000
72
5
11
77.8646074203
21
249.2939250342
100
AcDbText
0
LINE
5
2CD
100
AcDbEntity
8
0
100
AcDbLine
62
2
6
CONTINUOUS
10
96.6931604325
20
237.4083446957
11
77.2396074203
21
237.4083446957
0
LINE
5
2CE
100
AcDbEntity
8
0
100
AcDbLine
62
2
6
CONTINUOUS
10
96.6931604325
20
236.5083446957
11
77.2396074203
21
236.5083446957
0
LINE
5
2CF
100
AcDbEntity
8
0
100
AcDbLine
62
2
6
CONTINUOUS
10
78.7396074203
20
237.4083446957
11
78.7396074203
21
267.1439250342
0
LINE
5
2D0
100
AcDbEntity
8
0
100
AcDbLine
62
2
6
CONTINUOUS
10
78.7396074203
20
267.1439250342
11
78.7396074203
21
236.9583446957
0
LINE
5
2D1
100
AcDbEntity
8
0
100
AcDbLine
62
2
6
CONTINUOUS
10
78.7396074203
20
236.5083446957
11
78.7396074203
21
228.5083446957
0
LINE
5
2D2
100
AcDbEntity
8
0
100
AcDbLine
62
2
6
CONTINUOUS
10
78.7396074203
20
228.5083446957
11
78.7396074203
21
236.9583446957
0
SOLID
5
2D3
100
AcDbEntity
8
0
100
AcDbTrace
62
2
6
CONTINUOUS
10
77.9896074203
20
240.9083446957
11
78.7396074203
21
237.4083446957
12
79.4896074203
22
240.9083446957
13
79.4896074203
23
240.9083446957
0
SOLID
5
2D4
100
AcDbEntity
8
0
100
AcDbTrace
62
2
6
CONTINUOUS
10
79.4896074203
20
233.0083446957
11
78.7396074203
21
236.5083446957
12
77.9896074203
22
233.0083446957
13
77.9896074203
23
233.0083446957
0
ENDBLK
5
2D5
100
AcDbEntity
8
0
100
AcDbBlockEnd
0
BLOCK
5
2D6
100
AcDbEntity
8
0
100
AcDbBlockBegin
62
2
6
CONTINUOUS
2
*D19
70
65
10
0.0000000000
20
0.0000000000
3
*D19
1

0
TEXT
5
2D7
100
AcDbEntity
8
0
100
AcDbText
62
2
6
CONTINUOUS
10
69.7310430806
20
250.4582711784
7
TEXTSTYLE_0
40
3.5000000000
1
 (4 X)
50
90.0000000000
72
5
11
69.7310430806
21
268.3082711784
100
AcDbText
0
TEXT
5
2D8
100
AcDbEntity
8
0
100
AcDbText
62
2
6
CONTINUOUS
10
69.7310430806
20
241.5332711784
7
TEXTSTYLE_0
40
3.5000000000
1
8.9
50
90.0000000000
72
5
11
69.7310430806
21
250.4582711784
100
AcDbText
0
LINE
5
2D9
100
AcDbEntity
8
0
100
AcDbLine
62
2
6
CONTINUOUS
10
65.1576352960
20
227.6083446957
11
72.1060430806
21
227.6083446957
0
LINE
5
2DA
100
AcDbEntity
8
0
100
AcDbLine
62
2
6
CONTINUOUS
10
96.6931604325
20
236.5083446957
11
69.1060430806
21
236.5083446957
0
LINE
5
2DB
100
AcDbEntity
8
0
100
AcDbLine
62
2
6
CONTINUOUS
10
70.6060430806
20
227.6083446957
11
70.6060430806
21
219.6083446957
0
LINE
5
2DC
100
AcDbEntity
8
0
100
AcDbLine
62
2
6
CONTINUOUS
10
70.6060430806
20
219.6083446957
11
70.6060430806
21
232.0583446957
0
LINE
5
2DD
100
AcDbEntity
8
0
100
AcDbLine
62
2
6
CONTINUOUS
10
70.6060430806
20
236.5083446957
11
70.6060430806
21
268.3082711784
0
LINE
5
2DE
100
AcDbEntity
8
0
100
AcDbLine
62
2
6
CONTINUOUS
10
70.6060430806
20
268.3082711784
11
70.6060430806
21
232.0583446957
0
SOLID
5
2DF
100
AcDbEntity
8
0
100
AcDbTrace
62
2
6
CONTINUOUS
10
71.3560430806
20
224.1083446957
11
70.6060430806
21
227.6083446957
12
69.8560430806
22
224.1083446957
13
69.8560430806
23
224.1083446957
0
SOLID
5
2E0
100
AcDbEntity
8
0
100
AcDbTrace
62
2
6
CONTINUOUS
10
69.8560430806
20
240.0083446957
11
70.6060430806
21
236.5083446957
12
71.3560430806
22
240.0083446957
13
71.3560430806
23
240.0083446957
0
ENDBLK
5
2E1
100
AcDbEntity
8
0
100
AcDbBlockEnd
0
ENDSEC
0
SECTION
2
ENTITIES
0
SOLID
5
2E2
100
AcDbEntity
8
0
100
AcDbTrace
62
7
6
CONTINUOUS
10
69.4611297763
20
72.1950345092
11
70.9611297763
21
68.1950345092
12
67.9611297763
22
68.1950345092
13
67.9611297763
23
68.1950345092
0
TEXT
5
2E3
100
AcDbEntity
8
0
100
AcDbText
62
7
6
CONTINUOUS
10
64.9986297913
20
62.6267167658
7
TEXTSTYLE_0
40
3.5000000000
1
A
72
5
11
67.9736297613
21
62.6267167658
100
AcDbText
0
SOLID
5
2E4
100
AcDbEntity
8
0
100
AcDbTrace
62
7
6
CONTINUOUS
10
205.8109101694
20
48.4800513317
11
207.3109101694
21
44.4800513317
12
204.3109101694
22
44.4800513317
13
204.3109101694
23
44.4800513317
0
TEXT
5
2E5
100
AcDbEntity
8
0
100
AcDbText
62
7
6
CONTINUOUS
10
207.2984101544
20
38.9117335883
7
TEXTSTYLE_0
40
3.5000000000
1
A
72
5
11
210.2734101244
21
38.9117335883
100
AcDbText
0
DIMENSION
5
2E6
100
AcDbEntity
8
0
100
AcDbDimension
62
2
6
CONTINUOUS
2
*D0
10
173.3623921587
20
268.5438953777
11
131.4758199723
21
271.1688953777
70
160
3
DIMSTYLE_1
100
AcDbAlignedDimension
13
94.4623921587
23
246.2083516741
14
173.3623921587
24
246.2083516741
100
AcDbRotatedDimension
0
DIMENSION
5
2E7
100
AcDbEntity
8
0
100
AcDbDimension
62
2
6
CONTINUOUS
2
*D1
10
171.7623549400
20
261.8608702931
11
131.6614595580
21
264.4858702931
70
160
3
DIMSTYLE_1
100
AcDbAlignedDimension
13
96.0624293775
23
244.9083074769
14
171.7623549400
24
244.9083074769
100
AcDbRotatedDimension
0
DIMENSION
5
2E8
100
AcDbEntity
8
0
100
AcDbDimension
62
2
6
CONTINUOUS
2
*D2
10
171.2767102425
20
256.2916827227
11
132.7752971322
21
258.9166827227
70
160
3
DIMSTYLE_2
100
AcDbAlignedDimension
13
96.5480740749
23
244.4226627795
14
171.2767102425
24
244.4226627795
100
AcDbRotatedDimension
0
DIMENSION
5
2E9
100
AcDbEntity
8
0
100
AcDbDimension
62
2
6
CONTINUOUS
2
*D3
10
200.3481063199
20
209.7083446957
11
197.7231063199
21
227.8888261136
70
160
3
DIMSTYLE_1
100
AcDbAlignedDimension
13
174.0623991371
23
245.5083446957
14
174.0623991371
24
209.7083446957
50
270.000000
100
AcDbRotatedDimension
0
DIMENSION
5
2EA
100
AcDbEntity
8
0
100
AcDbDimension
62
2
6
CONTINUOUS
2
*D4
10
189.9522895218
20
211.3083819145
11
187.3272895218
21
227.3319073565
70
160
3
DIMSTYLE_1
100
AcDbAlignedDimension
13
172.7623549400
23
243.9083074769
14
172.7623549400
24
211.3083819145
50
270.000000
100
AcDbRotatedDimension
0
DIMENSION
5
2EB
100
AcDbEntity
8
0
100
AcDbDimension
62
2
6
CONTINUOUS
2
*D5
10
181.7841477519
20
211.7940266119
11
179.1591477519
21
227.7031865279
70
160
3
DIMSTYLE_2
100
AcDbAlignedDimension
13
172.2767102425
23
243.4226627795
14
172.2767102425
24
211.7940266119
50
270.000000
100
AcDbRotatedDimension
0
DIMENSION
5
2EC
100
AcDbEntity
8
0
100
AcDbDimension
62
2
6
CONTINUOUS
2
*D6
10
170.1316238849
20
200.2847343576
11
132.5880711452
21
202.9097343576
70
160
3
DIMSTYLE_1
100
AcDbAlignedDimension
13
97.6931604325
23
213.7083446957
14
170.1316238849
24
213.7083446957
100
AcDbRotatedDimension
0
DIMENSION
5
2ED
100
AcDbEntity
8
0
100
AcDbDimension
62
2
6
CONTINUOUS
2
*D7
10
171.1123921587
20
41.1080634896
11
133.3937760871
21
43.7330634896
70
160
3
DIMSTYLE_1
100
AcDbAlignedDimension
13
96.7123921587
23
55.5450345092
14
171.1123921587
24
55.5450345092
100
AcDbRotatedDimension
0
DIMENSION
5
2EE
100
AcDbEntity
8
0
100
AcDbDimension
62
2
6
CONTINUOUS
2
*D8
10
187.4920292663
20
87.8450345092
11
184.8670292663
21
72.9676761490
70
160
3
DIMSTYLE_1
100
AcDbAlignedDimension
13
172.1123921587
23
56.5450345092
14
172.1123921587
24
87.8450345092
50
90.000000
100
AcDbRotatedDimension
0
DIMENSION
5
2EF
100
AcDbEntity
8
0
100
AcDbDimension
62
2
6
CONTINUOUS
2
*D9
10
119.4088880354
20
123.0379601227
11
116.7838880354
21
110.5192077987
70
160
3
DIMSTYLE_1
100
AcDbAlignedDimension
13
95.7623851804
23
118.6379601227
14
128.7623921587
24
123.0379601227
50
90.000000
100
AcDbRotatedDimension
0
DIMENSION
5
2F0
100
AcDbEntity
8
0
100
AcDbDimension
62
2
6
CONTINUOUS
2
*D10
10
110.4870220122
20
123.0379601227
11
107.8620220122
21
115.0276535214
70
160
3
DIMSTYLE_1
100
AcDbAlignedDimension
13
128.2264937739
23
121.0379601227
14
128.7623921587
24
123.0379601227
50
90.000000
100
AcDbRotatedDimension
0
DIMENSION
5
2F1
100
AcDbEntity
8
0
100
AcDbDimension
62
2
6
CONTINUOUS
2
*D11
10
129.2264937739
20
108.0620793422
11
134.4533037033
21
110.6870793422
70
160
3
DIMSTYLE_2
100
AcDbAlignedDimension
13
138.5982905436
23
120.0379601227
14
129.2264937739
24
120.0379601227
50
180.000000
100
AcDbRotatedDimension
0
DIMENSION
5
2F2
100
AcDbEntity
8
0
100
AcDbDimension
62
2
6
CONTINUOUS
2
*D12
10
138.3394714985
20
122.0038859490
11
144.8458058378
21
130.1979581048
70
162
3
DIMSTYLE_3
100
AcDb2LineAngularDimension
13
138.5982905436
23
122.0379601227
14
138.5982905436
24
133.6256564742
15
135.3403549939
25
133.1967411221
16
144.8458058378
26
130.1979581048
0
DIMENSION
5
2F3
100
AcDbEntity
8
0
100
AcDbDimension
62
2
6
CONTINUOUS
2
*D13
10
103.2968518441
20
123.1379601227
11
100.6718518441
21
131.5380038585
70
160
3
DIMSTYLE_1
100
AcDbAlignedDimension
13
95.7623851804
23
118.6379601227
14
98.6931604325
24
123.1379601227
50
90.000000
100
AcDbRotatedDimension
0
DIMENSION
5
2F4
100
AcDbEntity
8
0
100
AcDbDimension
62
2
6
CONTINUOUS
2
*D14
10
85.5331942489
20
191.9379601227
11
82.9081942489
21
200.7892436404
70
160
3
DIMSTYLE_1
100
AcDbAlignedDimension
13
95.7123921587
23
191.0379601227
14
95.7123921587
24
191.9379601227
50
90.000000
100
AcDbRotatedDimension
0
DIMENSION
5
2F5
100
AcDbEntity
8
0
100
AcDbDimension
62
2
6
CONTINUOUS
2
*D15
10
76.9252457526
20
191.0379601227
11
74.3002457526
21
181.6464789884
70
160
3
DIMSTYLE_1
100
AcDbAlignedDimension
13
95.5480740749
23
189.8379601227
14
95.7123921587
24
191.0379601227
50
90.000000
100
AcDbRotatedDimension
0
DIMENSION
5
2F6
100
AcDbEntity
8
0
100
AcDbDimension
62
2
6
CONTINUOUS
2
*D16
10
191.2652872558
20
118.6379601227
11
188.6402872558
21
155.5687091323
70
160
3
DIMSTYLE_1
100
AcDbAlignedDimension
13
172.1123921587
23
191.9379601227
14
174.0623991371
24
118.6379601227
50
270.000000
100
AcDbRotatedDimension
0
DIMENSION
5
2F7
100
AcDbEntity
8
0
100
AcDbDimension
62
2
6
CONTINUOUS
2
*D17
10
86.6885996415
20
237.4083446957
11
84.0635996415
21
256.4060891080
70
160
1
<> (4 X)
3
DIMSTYLE_1
100
AcDbAlignedDimension
13
96.6931604325
23
239.6083446957
14
96.6931604325
24
237.4083446957
50
270.000000
100
AcDbRotatedDimension
0
DIMENSION
5
2F8
100
AcDbEntity
8
0
100
AcDbDimension
62
2
6
CONTINUOUS
2
*D18
10
78.7396074203
20
236.5083446957
11
76.1146074203
21
253.7564250342
70
160
1
<> (8 X)
3
DIMSTYLE_1
100
AcDbAlignedDimension
13
96.6931604325
23
237.4083446957
14
96.6931604325
24
236.5083446957
50
270.000000
100
AcDbRotatedDimension
0
DIMENSION
5
2F9
100
AcDbEntity
8
0
100
AcDbDimension
62
2
6
CONTINUOUS
2
*D19
10
70.6060430806
20
236.5083446957
11
67.9810430806
21
254.9207711784
70
160
1
<> (4 X)
3
DIMSTYLE_1
100
AcDbAlignedDimension
13
65.1576352960
23
227.6083446957
14
96.6931604325
24
236.5083446957
50
90.000000
100
AcDbRotatedDimension
0
LINE
5
2FA
100
AcDbEntity
8
0
100
AcDbLine
62
7
6
CONTINUOUS
10
272.5000000000
20
78.5000000000
11
412.5000000000
21
78.5000000000
0
LINE
5
2FB
100
AcDbEntity
8
0
100
AcDbLine
62
7
6
CONTINUOUS
10
272.5000000000
20
78.5000000000
11
272.5000000000
21
24.5000000000
0
LINE
5
2FC
100
AcDbEntity
8
0
100
AcDbLine
62
7
6
CONTINUOUS
10
272.5000000000
20
64.5000000000
11
412.5000000000
21
64.5000000000
0
LINE
5
2FD
100
AcDbEntity
8
0
100
AcDbLine
62
7
6
CONTINUOUS
10
272.5000000000
20
54.5000000000
11
412.5000000000
21
54.5000000000
0
LINE
5
2FE
100
AcDbEntity
8
0
100
AcDbLine
62
7
6
CONTINUOUS
10
272.5000000000
20
44.5000000000
11
412.5000000000
21
44.5000000000
0
LINE
5
2FF
100
AcDbEntity
8
0
100
AcDbLine
62
7
6
CONTINUOUS
10
272.5000000000
20
34.5000000000
11
412.5000000000
21
34.5000000000
0
LINE
5
300
100
AcDbEntity
8
0
100
AcDbLine
62
7
6
CONTINUOUS
10
272.5000000000
20
24.5000000000
11
412.5000000000
21
24.5000000000
0
LINE
5
301
100
AcDbEntity
8
0
100
AcDbLine
62
7
6
CONTINUOUS
10
293.5000000000
20
78.5000000000
11
293.5000000000
21
54.5000000000
0
LINE
5
302
100
AcDbEntity
8
0
100
AcDbLine
62
7
6
CONTINUOUS
10
314.5000000000
20
54.5000000000
11
314.5000000000
21
34.5000000000
0
LINE
5
303
100
AcDbEntity
8
0
100
AcDbLine
62
7
6
CONTINUOUS
10
377.5000000000
20
64.5000000000
11
377.5000000000
21
24.5000000000
0
LINE
5
304
100
AcDbEntity
8
0
100
AcDbLine
62
7
6
CONTINUOUS
10
412.5000000000
20
78.5000000000
11
412.5000000000
21
24.5000000000
0
TEXT
5
305
100
AcDbEntity
8
0
100
AcDbText
62
7
6
CONTINUOUS
10
272.5625000000
20
78.2656250000
7
TEXTSTYLE_0
40
0.1562500000
1
 
72
5
11
272.6875000000
21
78.2656250000
100
AcDbText
0
TEXT
5
306
100
AcDbEntity
8
0
100
AcDbText
62
7
6
CONTINUOUS
10
272.5625000000
20
75.7265625000
7
TEXTSTYLE_0
40
2.0000000000
1
 Dato:
72
5
11
282.1625000000
21
75.7265625000
100
AcDbText
0
TEXT
5
307
100
AcDbEntity
8
0
100
AcDbText
62
7
6
CONTINUOUS
10
272.5625000000
20
73.3515625000
7
TEXTSTYLE_0
40
1.5000000000
1
 
72
5
11
273.7625000000
21
73.3515625000
100
AcDbText
0
TEXT
5
308
100
AcDbEntity
8
0
100
AcDbText
62
7
6
CONTINUOUS
10
272.5625000000
20
69.7265625000
7
TEXTSTYLE_0
40
0.2000000000
1
 
72
5
11
272.7225000000
21
69.7265625000
100
AcDbText
0
TEXT
5
309
100
AcDbEntity
8
0
100
AcDbText
62
7
6
CONTINUOUS
10
272.7225000000
20
69.7265625000
7
TEXTSTYLE_0
40
2.6000000000
1
04-Feb-09
72
5
11
291.4425000000
21
69.7265625000
100
AcDbText
0
TEXT
5
30A
100
AcDbEntity
8
0
100
AcDbText
62
7
6
CONTINUOUS
10
293.5625000000
20
69.0000000000
7
TEXTSTYLE_1
40
5.0000000000
1
             Bernic A/S
72
5
11
368.7977941176
21
69.0000000000
100
AcDbText
0
TEXT
5
30B
100
AcDbEntity
8
0
100
AcDbText
62
7
6
CONTINUOUS
10
272.5625000000
20
64.2656250000
7
TEXTSTYLE_0
40
0.1562500000
1
 
72
5
11
272.6875000000
21
64.2656250000
100
AcDbText
0
TEXT
5
30C
100
AcDbEntity
8
0
100
AcDbText
62
7
6
CONTINUOUS
10
272.5625000000
20
61.7265625000
7
TEXTSTYLE_0
40
2.0000000000
1
 Skala:
72
5
11
283.7625000000
21
61.7265625000
100
AcDbText
0
TEXT
5
30D
100
AcDbEntity
8
0
100
AcDbText
62
7
6
CONTINUOUS
10
272.5625000000
20
61.0312500000
7
TEXTSTYLE_0
40
0.1562500000
1
 
72
5
11
272.6875000000
21
61.0312500000
100
AcDbText
0
TEXT
5
30E
100
AcDbEntity
8
0
100
AcDbText
62
7
6
CONTINUOUS
10
272.5625000000
20
57.2421875000
7
TEXTSTYLE_0
40
0.1562500000
1
 
72
5
11
272.6875000000
21
57.2421875000
100
AcDbText
0
TEXT
5
30F
100
AcDbEntity
8
0
100
AcDbText
62
7
6
CONTINUOUS
10
272.6875000000
20
57.2421875000
7
TEXTSTYLE_0
40
3.0000000000
1
 
72
5
11
275.0875000000
21
57.2421875000
100
AcDbText
0
TEXT
5
310
100
AcDbEntity
8
0
100
AcDbText
62
7
6
CONTINUOUS
10
275.0875000000
20
57.2421875000
7
TEXTSTYLE_0
40
2.6000000000
1
1.000
72
5
11
285.4875000000
21
57.2421875000
100
AcDbText
0
TEXT
5
311
100
AcDbEntity
8
0
100
AcDbText
62
7
6
CONTINUOUS
10
293.5625000000
20
64.2656250000
7
TEXTSTYLE_0
40
0.1562500000
1
 
72
5
11
293.6875000000
21
64.2656250000
100
AcDbText
0
TEXT
5
312
100
AcDbEntity
8
0
100
AcDbText
62
7
6
CONTINUOUS
10
293.5625000000
20
61.7265625000
7
TEXTSTYLE_0
40
2.0000000000
1
 Kunde:
72
5
11
304.7625000000
21
61.7265625000
100
AcDbText
0
TEXT
5
313
100
AcDbEntity
8
0
100
AcDbText
62
7
6
CONTINUOUS
10
293.5625000000
20
61.0312500000
7
TEXTSTYLE_0
40
0.1562500000
1
 
72
5
11
293.6875000000
21
61.0312500000
100
AcDbText
0
TEXT
5
314
100
AcDbEntity
8
0
100
AcDbText
62
7
6
CONTINUOUS
10
293.5625000000
20
60.7968750000
7
TEXTSTYLE_0
40
0.1562500000
1
 
72
5
11
293.6875000000
21
60.7968750000
100
AcDbText
0
TEXT
5
315
100
AcDbEntity
8
0
100
AcDbText
62
7
6
CONTINUOUS
10
345.1875000000
20
57.5000000000
7
TEXTSTYLE_2
40
4.0000000000
1
 
72
5
11
346.8125000000
21
57.5000000000
100
AcDbText
0
TEXT
5
316
100
AcDbEntity
8
0
100
AcDbText
62
7
6
CONTINUOUS
10
377.5625000000
20
58.2000000000
7
TEXTSTYLE_0
40
2.6000000000
1
Sheet 
72
5
11
390.0425000000
21
58.2000000000
100
AcDbText
0
TEXT
5
317
100
AcDbEntity
8
0
100
AcDbText
62
7
6
CONTINUOUS
10
390.0425000000
20
58.2000000000
7
TEXTSTYLE_0
40
2.6000000000
1
1
72
5
11
392.1225000000
21
58.2000000000
100
AcDbText
0
TEXT
5
318
100
AcDbEntity
8
0
100
AcDbText
62
7
6
CONTINUOUS
10
392.1225000000
20
58.2000000000
7
TEXTSTYLE_0
40
2.6000000000
1
 of 
72
5
11
400.4425000000
21
58.2000000000
100
AcDbText
0
TEXT
5
319
100
AcDbEntity
8
0
100
AcDbText
62
7
6
CONTINUOUS
10
400.4425000000
20
58.2000000000
7
TEXTSTYLE_0
40
2.6000000000
1
1
72
5
11
402.5225000000
21
58.2000000000
100
AcDbText
0
TEXT
5
31A
100
AcDbEntity
8
0
100
AcDbText
6
CONTINUOUS
10
272.5625000000
20
51.8750000000
7
TEXTSTYLE_0
40
2.0000000000
1
 Tol.:
72
5
11
282.1625000000
21
51.8750000000
100
AcDbText
0
TEXT
5
31B
100
AcDbEntity
8
0
100
AcDbText
6
CONTINUOUS
10
272.5625000000
20
48.8750000000
7
TEXTSTYLE_0
40
2.0000000000
1
 
72
5
11
274.1625000000
21
48.8750000000
100
AcDbText
0
TEXT
5
31C
100
AcDbEntity
8
0
100
AcDbText
6
CONTINUOUS
10
272.5625000000
20
45.1250000000
7
TEXTSTYLE_0
40
2.6000000000
1
 
72
5
11
274.6425000000
21
45.1250000000
100
AcDbText
0
TEXT
5
31D
100
AcDbEntity
8
0
100
AcDbText
6
CONTINUOUS
10
274.6425000000
20
45.1250000000
7
TEXTSTYLE_0
40
2.6000000000
1
DS/ISO 2768 - m
72
5
11
305.8425000000
21
45.1250000000
100
AcDbText
0
TEXT
5
31E
100
AcDbEntity
8
0
100
AcDbText
6
CONTINUOUS
10
314.5625000000
20
51.8750000000
7
TEXTSTYLE_0
40
2.0000000000
1
 Materiale:
72
5
11
332.1625000000
21
51.8750000000
100
AcDbText
0
TEXT
5
31F
100
AcDbEntity
8
0
100
AcDbText
6
CONTINUOUS
10
314.5625000000
20
48.8750000000
7
TEXTSTYLE_0
40
2.0000000000
1
 
72
5
11
316.1625000000
21
48.8750000000
100
AcDbText
0
TEXT
5
320
100
AcDbEntity
8
0
100
AcDbText
6
CONTINUOUS
10
314.5625000000
20
45.1250000000
7
TEXTSTYLE_0
40
2.6000000000
1
 
72
5
11
316.6425000000
21
45.1250000000
100
AcDbText
0
TEXT
5
321
100
AcDbEntity
8
0
100
AcDbText
6
CONTINUOUS
10
316.6425000000
20
45.1250000000
7
TEXTSTYLE_0
40
2.6000000000
1
PC (Lexan 940)
72
5
11
345.7625000000
21
45.1250000000
100
AcDbText
0
TEXT
5
322
100
AcDbEntity
8
0
100
AcDbText
6
CONTINUOUS
10
377.5625000000
20
51.8750000000
7
TEXTSTYLE_0
40
2.0000000000
1
 Farve:
72
5
11
388.7625000000
21
51.8750000000
100
AcDbText
0
TEXT
5
323
100
AcDbEntity
8
0
100
AcDbText
6
CONTINUOUS
10
377.5625000000
20
48.8750000000
7
TEXTSTYLE_0
40
2.0000000000
1
 
72
5
11
379.1625000000
21
48.8750000000
100
AcDbText
0
TEXT
5
324
100
AcDbEntity
8
0
100
AcDbText
6
CONTINUOUS
10
377.5625000000
20
45.1250000000
7
TEXTSTYLE_0
40
2.6000000000
1
 
72
5
11
379.6425000000
21
45.1250000000
100
AcDbText
0
TEXT
5
325
100
AcDbEntity
8
0
100
AcDbText
6
CONTINUOUS
10
379.6425000000
20
45.1250000000
7
TEXTSTYLE_0
40
2.6000000000
1
Grey RAL 7035
72
5
11
406.6825000000
21
45.1250000000
100
AcDbText
0
TEXT
5
326
100
AcDbEntity
8
0
100
AcDbText
62
7
6
CONTINUOUS
10
272.5625000000
20
44.2656250000
7
TEXTSTYLE_0
40
0.1562500000
1
 
72
5
11
272.6875000000
21
44.2656250000
100
AcDbText
0
TEXT
5
327
100
AcDbEntity
8
0
100
AcDbText
62
7
6
CONTINUOUS
10
272.5625000000
20
41.7265625000
7
TEXTSTYLE_0
40
2.0000000000
1
 Emne nr.:
72
5
11
288.5625000000
21
41.7265625000
100
AcDbText
0
TEXT
5
328
100
AcDbEntity
8
0
100
AcDbText
62
7
6
CONTINUOUS
10
272.5625000000
20
41.0312500000
7
TEXTSTYLE_0
40
0.1562500000
1
 
72
5
11
272.6875000000
21
41.0312500000
100
AcDbText
0
TEXT
5
329
100
AcDbEntity
8
0
100
AcDbText
62
7
6
CONTINUOUS
10
272.5625000000
20
37.2421875000
7
TEXTSTYLE_0
40
3.0000000000
1
 
72
5
11
274.9625000000
21
37.2421875000
100
AcDbText
0
TEXT
5
32A
100
AcDbEntity
8
0
100
AcDbText
62
7
6
CONTINUOUS
10
274.9625000000
20
37.2421875000
7
TEXTSTYLE_0
40
2.6000000000
1
2 069 020 500
72
5
11
302.0025000000
21
37.2421875000
100
AcDbText
0
TEXT
5
32B
100
AcDbEntity
8
0
100
AcDbText
62
7
6
CONTINUOUS
10
314.5625000000
20
44.2656250000
7
TEXTSTYLE_0
40
0.1562500000
1
 
72
5
11
314.6875000000
21
44.2656250000
100
AcDbText
0
TEXT
5
32C
100
AcDbEntity
8
0
100
AcDbText
62
7
6
CONTINUOUS
10
314.5625000000
20
41.7265625000
7
TEXTSTYLE_0
40
2.0000000000
1
 3D model:
72
5
11
330.5625000000
21
41.7265625000
100
AcDbText
0
TEXT
5
32D
100
AcDbEntity
8
0
100
AcDbText
62
7
6
CONTINUOUS
10
314.5625000000
20
41.0312500000
7
TEXTSTYLE_0
40
0.1562500000
1
 
72
5
11
314.6875000000
21
41.0312500000
100
AcDbText
0
TEXT
5
32E
100
AcDbEntity
8
0
100
AcDbText
62
7
6
CONTINUOUS
10
314.5625000000
20
37.2421875000
7
TEXTSTYLE_0
40
3.0000000000
1
 
72
5
11
316.9625000000
21
37.2421875000
100
AcDbText
0
TEXT
5
32F
100
AcDbEntity
8
0
100
AcDbText
62
7
6
CONTINUOUS
10
316.9625000000
20
37.2421875000
7
TEXTSTYLE_0
40
2.6000000000
1
TOP_500
72
5
11
331.5225000000
21
37.2421875000
100
AcDbText
0
TEXT
5
330
100
AcDbEntity
8
0
100
AcDbText
62
7
6
CONTINUOUS
10
377.5625000000
20
44.2656250000
7
TEXTSTYLE_0
40
0.1562500000
1
 
72
5
11
377.6875000000
21
44.2656250000
100
AcDbText
0
TEXT
5
331
100
AcDbEntity
8
0
100
AcDbText
62
7
6
CONTINUOUS
10
377.5625000000
20
41.7265625000
7
TEXTSTYLE_0
40
2.0000000000
1
 Tegn. nr.:
72
5
11
395.1625000000
21
41.7265625000
100
AcDbText
0
TEXT
5
332
100
AcDbEntity
8
0
100
AcDbText
62
7
6
CONTINUOUS
10
377.5625000000
20
41.0312500000
7
TEXTSTYLE_0
40
0.1562500000
1
 
72
5
11
377.6875000000
21
41.0312500000
100
AcDbText
0
TEXT
5
333
100
AcDbEntity
8
0
100
AcDbText
62
7
6
CONTINUOUS
10
377.5625000000
20
37.2421875000
7
TEXTSTYLE_0
40
3.0000000000
1
 
72
5
11
379.9625000000
21
37.2421875000
100
AcDbText
0
TEXT
5
334
100
AcDbEntity
8
0
100
AcDbText
62
7
6
CONTINUOUS
10
379.9625000000
20
37.2421875000
7
TEXTSTYLE_0
40
2.6000000000
1
BC 290
72
5
11
392.4425000000
21
37.2421875000
100
AcDbText
0
TEXT
5
335
100
AcDbEntity
8
0
100
AcDbText
62
7
6
CONTINUOUS
10
272.5625000000
20
34.2656250000
7
TEXTSTYLE_0
40
0.1562500000
1
 
72
5
11
272.6875000000
21
34.2656250000
100
AcDbText
0
TEXT
5
336
100
AcDbEntity
8
0
100
AcDbText
62
7
6
CONTINUOUS
10
272.5625000000
20
31.7265625000
7
TEXTSTYLE_0
40
2.0000000000
1
 Betegnelse:
72
5
11
291.7625000000
21
31.7265625000
100
AcDbText
0
TEXT
5
337
100
AcDbEntity
8
0
100
AcDbText
62
7
6
CONTINUOUS
10
293.5625000000
20
27.9000000000
7
TEXTSTYLE_2
40
3.2000000000
1
Top part, Series 500
72
5
11
333.6750000000
21
27.9000000000
100
AcDbText
0
TEXT
5
338
100
AcDbEntity
8
0
100
AcDbText
62
7
6
CONTINUOUS
10
377.5625000000
20
30.3750000000
7
TEXTSTYLE_0
40
2.0000000000
1
   Fil:
72
5
11
388.7625000000
21
30.3750000000
100
AcDbText
0
TEXT
5
339
100
AcDbEntity
8
0
100
AcDbText
62
7
6
CONTINUOUS
10
377.5625000000
20
26.6250000000
7
TEXTSTYLE_0
40
0.1562500000
1
   
72
5
11
377.9375000000
21
26.6250000000
100
AcDbText
0
TEXT
5
33A
100
AcDbEntity
8
0
100
AcDbText
62
7
6
CONTINUOUS
10
377.9375000000
20
26.6250000000
7
TEXTSTYLE_0
40
2.6000000000
1
TOP_500
72
5
11
392.4975000000
21
26.6250000000
100
AcDbText
0
TEXT
5
33B
100
AcDbEntity
8
0
100
AcDbText
62
2
6
CONTINUOUS
10
28.3435582822
20
158.1759969325
7
TEXTSTYLE_0
40
3.5000000000
1
SECTION  
72
5
11
55.1185582822
21
158.1759969325
100
AcDbText
0
TEXT
5
33C
100
AcDbEntity
8
0
100
AcDbText
62
2
6
CONTINUOUS
10
55.1185582822
20
158.1759969325
7
TEXTSTYLE_0
40
3.5000000000
1
A-A
72
5
11
64.0435582822
21
158.1759969325
100
AcDbText
0
TEXT
5
33D
100
AcDbEntity
8
0
100
AcDbText
62
2
6
CONTINUOUS
10
346.8220858896
20
124.1637269939
7
TEXTSTYLE_0
40
3.5000000000
1
SCALE  
72
5
11
367.6470858896
21
124.1637269939
100
AcDbText
0
TEXT
5
33E
100
AcDbEntity
8
0
100
AcDbText
62
2
6
CONTINUOUS
10
367.6470858896
20
124.1637269939
7
TEXTSTYLE_0
40
3.5000000000
1
0.500
72
5
11
382.5220858896
21
124.1637269939
100
AcDbText
0
LINE
5
33F
100
AcDbEntity
8
0
100
AcDbLine
62
7
6
CONTINUOUS
10
-2.3437500000
20
9.3437500000
11
-2.6562500000
21
9.6562500000
0
LINE
5
340
100
AcDbEntity
8
0
100
AcDbLine
62
7
6
CONTINUOUS
10
12.5000000000
20
14.5000000000
11
12.5000000000
21
287.5000000000
0
LINE
5
341
100
AcDbEntity
8
0
100
AcDbLine
62
7
6
CONTINUOUS
10
22.5000000000
20
24.5000000000
11
22.5000000000
21
277.5000000000
0
LINE
5
342
100
AcDbEntity
8
0
100
AcDbLine
62
7
6
CONTINUOUS
10
422.5000000000
20
14.5000000000
11
12.5000000000
21
14.5000000000
0
LINE
5
343
100
AcDbEntity
8
0
100
AcDbLine
62
7
6
CONTINUOUS
10
412.5000000000
20
24.5000000000
11
22.5000000000
21
24.5000000000
0
LINE
5
344
100
AcDbEntity
8
0
100
AcDbLine
62
7
6
CONTINUOUS
10
-2.3437500000
20
9.6562500000
11
-2.6562500000
21
9.3437500000
0
LINE
5
345
100
AcDbEntity
8
0
100
AcDbLine
62
7
6
CONTINUOUS
10
217.5000000000
20
24.5000000000
11
217.5000000000
21
19.5000000000
0
LINE
5
346
100
AcDbEntity
8
0
100
AcDbLine
62
7
6
CONTINUOUS
10
217.5000000000
20
277.5000000000
11
217.5000000000
21
282.5000000000
0
LINE
5
347
100
AcDbEntity
8
0
100
AcDbLine
62
7
6
CONTINUOUS
10
22.5000000000
20
277.5000000000
11
412.5000000000
21
277.5000000000
0
LINE
5
348
100
AcDbEntity
8
0
100
AcDbLine
62
7
6
CONTINUOUS
10
12.5000000000
20
287.5000000000
11
422.5000000000
21
287.5000000000
0
LINE
5
349
100
AcDbEntity
8
0
100
AcDbLine
62
7
6
CONTINUOUS
10
412.5000000000
20
277.5000000000
11
412.5000000000
21
24.5000000000
0
LINE
5
34A
100
AcDbEntity
8
0
100
AcDbLine
62
7
6
CONTINUOUS
10
422.5000000000
20
287.5000000000
11
422.5000000000
21
14.5000000000
0
LINE
5
34B
100
AcDbEntity
8
0
100
AcDbLine
62
7
6
CONTINUOUS
10
69.4611297763
20
72.1950345092
11
69.4611297763
21
60.8767167658
0
POLYLINE
5
34C
100
AcDbEntity
8
0
100
AcDb2dPolyline
62
7
6
CONTINUOUS
66
1
70
0
0
VERTEX
5
34D
100
AcDbEntity
8
0
100
AcDbVertex
62
7
6
CONTINUOUS
100
AcDb2dVertex
10
94.9603283475
20
89.2971052988
0
VERTEX
5
34E
100
AcDbEntity
8
0
100
AcDbVertex
62
7
6
CONTINUOUS
100
AcDb2dVertex
10
94.9824948891
20
89.4102659580
0
VERTEX
5
34F
100
AcDbEntity
8
0
100
AcDbVertex
62
7
6
CONTINUOUS
100
AcDb2dVertex
10
95.0473925497
20
89.5084177320
0
VERTEX
5
350
100
AcDbEntity
8
0
100
AcDbVertex
62
7
6
CONTINUOUS
100
AcDb2dVertex
10
95.1450233457
20
89.5740515171
0
VERTEX
5
351
100
AcDbEntity
8
0
100
AcDbVertex
62
7
6
CONTINUOUS
100
AcDb2dVertex
10
95.2603213692
20
89.5970983204
0
SEQEND
5
352
100
AcDbEntity
8
0
0
LINE
5
353
100
AcDbEntity
8
0
100
AcDbLine
62
7
6
CONTINUOUS
10
94.4787622047
20
76.8809328941
11
94.4924039097
21
76.3450345092
0
LINE
5
354
100
AcDbEntity
8
0
100
AcDbLine
62
7
6
CONTINUOUS
10
94.4623921587
20
89.7950414876
11
94.4623921587
21
54.5950275308
0
LINE
5
355
100
AcDbEntity
8
0
100
AcDbLine
62
7
6
CONTINUOUS
10
94.4787622047
20
67.3251582904
11
94.4787622047
21
76.8809328941
0
LINE
5
356
100
AcDbEntity
8
0
100
AcDbLine
62
7
6
CONTINUOUS
10
94.4924039097
20
76.3450345092
11
94.4924039097
21
68.0450345092
0
LINE
5
357
100
AcDbEntity
8
0
100
AcDbLine
62
7
6
CONTINUOUS
10
94.9603283475
20
89.2971052988
11
94.9603283475
21
55.0929637196
0
LINE
5
358
100
AcDbEntity
8
0
100
AcDbLine
62
9
6
CONTINUOUS
10
95.2603213692
20
54.7929706980
11
95.2603213692
21
89.5970983204
0
LINE
5
359
100
AcDbEntity
8
0
100
AcDbLine
62
7
6
CONTINUOUS
10
96.7123921587
20
87.8450345092
11
96.7123921587
21
56.5450345092
0
LINE
5
35A
100
AcDbEntity
8
0
100
AcDbLine
62
7
6
CONTINUOUS
10
94.4924039097
20
68.0450345092
11
94.4787622047
21
67.3251582904
0
LINE
5
35B
100
AcDbEntity
8
DEFAULT_1
100
AcDbLine
62
7
6
CENTER
10
133.9123921587
20
48.4800513317
11
143.9123921587
21
48.4800513317
0
LINE
5
35C
100
AcDbEntity
8
DEFAULT_1
100
AcDbLine
62
9
6
CENTER
10
143.9123921587
20
48.4800513317
11
195.8109101694
21
48.4800513317
0
LINE
5
35D
100
AcDbEntity
8
DEFAULT_1
100
AcDbLine
62
7
6
CENTER
10
195.8109101694
20
48.4800513317
11
205.8109101694
21
48.4800513317
0
POLYLINE
5
35E
100
AcDbEntity
8
0
100
AcDb2dPolyline
62
7
6
CONTINUOUS
66
1
70
0
0
VERTEX
5
35F
100
AcDbEntity
8
0
100
AcDbVertex
62
7
6
CONTINUOUS
100
AcDb2dVertex
10
95.2603213692
20
54.7929706980
0
VERTEX
5
360
100
AcDbEntity
8
0
100
AcDbVertex
62
7
6
CONTINUOUS
100
AcDb2dVertex
10
95.1450233457
20
54.8160175013
0
VERTEX
5
361
100
AcDbEntity
8
0
100
AcDbVertex
62
7
6
CONTINUOUS
100
AcDb2dVertex
10
95.0473925497
20
54.8816512864
0
VERTEX
5
362
100
AcDbEntity
8
0
100
AcDbVertex
62
7
6
CONTINUOUS
100
AcDb2dVertex
10
94.9824948891
20
54.9798030604
0
VERTEX
5
363
100
AcDbEntity
8
0
100
AcDbVertex
62
7
6
CONTINUOUS
100
AcDb2dVertex
10
94.9603283475
20
55.0929637196
0
SEQEND
5
364
100
AcDbEntity
8
0
0
LINE
5
365
100
AcDbEntity
8
0
100
AcDbLine
62
7
6
CONTINUOUS
10
129.2264937739
20
54.3114045552
11
129.7623921587
21
54.3250462602
0
LINE
5
366
100
AcDbEntity
8
0
100
AcDbLine
62
7
6
CONTINUOUS
10
94.7623851804
20
54.2950345092
11
173.0623991371
21
54.2950345092
0
LINE
5
367
100
AcDbEntity
8
0
100
AcDbLine
62
7
6
CONTINUOUS
10
138.5982905436
20
54.3114045552
11
129.2264937739
21
54.3114045552
0
LINE
5
368
100
AcDbEntity
8
0
100
AcDbLine
62
7
6
CONTINUOUS
10
129.7623921587
20
54.3250462602
11
138.0623921587
21
54.3250462602
0
LINE
5
369
100
AcDbEntity
8
0
100
AcDbLine
62
7
6
CONTINUOUS
10
95.2603213692
20
54.7929706980
11
172.5644629483
21
54.7929706980
0
LINE
5
36A
100
AcDbEntity
8
0
100
AcDbLine
62
9
6
CONTINUOUS
10
94.9603283475
20
55.0929637196
11
172.8644559700
21
55.0929637196
0
LINE
5
36B
100
AcDbEntity
8
0
100
AcDbLine
62
7
6
CONTINUOUS
10
138.0623921587
20
54.3250462602
11
138.5982905436
21
54.3114045552
0
LINE
5
36C
100
AcDbEntity
8
0
100
AcDbLine
62
9
6
CONTINUOUS
10
94.9603283475
20
55.0929637196
11
94.4623921587
21
54.5950275308
0
LINE
5
36D
100
AcDbEntity
8
0
100
AcDbLine
62
9
6
CONTINUOUS
10
95.2603213692
20
54.7929706980
11
94.7623851804
21
54.2950345092
0
LINE
5
36E
100
AcDbEntity
8
0
100
AcDbLine
62
7
6
CONTINUOUS
10
96.7123921587
20
56.5450345092
11
171.1123921587
21
56.5450345092
0
LINE
5
36F
100
AcDbEntity
8
0
100
AcDbLine
62
9
6
CONTINUOUS
10
94.9603283475
20
89.2971052988
11
94.4623921587
21
89.7950414876
0
LINE
5
370
100
AcDbEntity
8
0
100
AcDbLine
62
9
6
CONTINUOUS
10
95.2603213692
20
89.5970983204
11
94.7623851804
21
90.0950345092
0
LINE
5
371
100
AcDbEntity
8
DEFAULT_1
100
AcDbLine
62
7
6
CENTER
10
133.9123921587
20
72.1950345092
11
133.9123921587
21
62.1950345092
0
LINE
5
372
100
AcDbEntity
8
DEFAULT_1
100
AcDbLine
62
2
6
CENTER
10
133.9123921587
20
62.1950345092
11
133.9123921587
21
58.4800513317
0
LINE
5
373
100
AcDbEntity
8
DEFAULT_1
100
AcDbLine
62
7
6
CENTER
10
133.9123921587
20
58.4800513317
11
133.9123921587
21
48.4800513317
0
LINE
5
374
100
AcDbEntity
8
DEFAULT_1
100
AcDbLine
62
2
6
CENTER
10
133.9123921587
20
72.1950345092
11
133.9123921587
21
98.7077901492
0
LINE
5
375
100
AcDbEntity
8
DEFAULT_1
100
AcDbLine
62
2
6
CENTER
10
123.9123921587
20
72.1950345092
11
84.2936881912
21
72.1950345092
0
LINE
5
376
100
AcDbEntity
8
DEFAULT_1
100
AcDbLine
62
7
6
CENTER
10
69.4611297763
20
72.1950345092
11
79.4611297763
21
72.1950345092
0
LINE
5
377
100
AcDbEntity
8
DEFAULT_1
100
AcDbLine
62
9
6
CENTER
10
79.4611297763
20
72.1950345092
11
84.2936881912
21
72.1950345092
0
LINE
5
378
100
AcDbEntity
8
DEFAULT_1
100
AcDbLine
62
7
6
CENTER
10
123.9123921587
20
72.1950345092
11
133.9123921587
21
72.1950345092
0
LINE
5
379
100
AcDbEntity
8
DEFAULT_1
100
AcDbLine
62
2
6
CENTER
10
133.9123921587
20
72.1950345092
11
179.5610352220
21
72.1950345092
0
LINE
5
37A
100
AcDbEntity
8
0
100
AcDbLine
62
9
6
CONTINUOUS
10
172.5644629483
20
89.5970983204
11
173.0623991371
21
90.0950345092
0
LINE
5
37B
100
AcDbEntity
8
0
100
AcDbLine
62
9
6
CONTINUOUS
10
172.8644559700
20
89.2971052988
11
173.3623921587
21
89.7950414876
0
LINE
5
37C
100
AcDbEntity
8
0
100
AcDbLine
62
7
6
CONTINUOUS
10
171.1123921587
20
87.8450345092
11
96.7123921587
21
87.8450345092
0
LINE
5
37D
100
AcDbEntity
8
0
100
AcDbLine
62
9
6
CONTINUOUS
10
94.9603283475
20
89.2971052988
11
172.8644559700
21
89.2971052988
0
LINE
5
37E
100
AcDbEntity
8
0
100
AcDbLine
62
7
6
CONTINUOUS
10
172.5644629483
20
89.5970983204
11
95.2603213692
21
89.5970983204
0
LINE
5
37F
100
AcDbEntity
8
0
100
AcDbLine
62
9
6
CONTINUOUS
10
172.5644629483
20
54.7929706980
11
173.0623991371
21
54.2950345092
0
LINE
5
380
100
AcDbEntity
8
0
100
AcDbLine
62
9
6
CONTINUOUS
10
172.8644559700
20
55.0929637196
11
173.3623921587
21
54.5950275308
0
LINE
5
381
100
AcDbEntity
8
0
100
AcDbLine
62
7
6
CONTINUOUS
10
138.0623921587
20
90.0650227582
11
138.5982905436
21
90.0786644632
0
LINE
5
382
100
AcDbEntity
8
0
100
AcDbLine
62
7
6
CONTINUOUS
10
129.7623921587
20
90.0650227582
11
138.0623921587
21
90.0650227582
0
LINE
5
383
100
AcDbEntity
8
0
100
AcDbLine
62
7
6
CONTINUOUS
10
138.5982905436
20
90.0786644632
11
129.2264937739
21
90.0786644632
0
LINE
5
384
100
AcDbEntity
8
0
100
AcDbLine
62
7
6
CONTINUOUS
10
173.0623991371
20
90.0950345092
11
94.7623851804
21
90.0950345092
0
LINE
5
385
100
AcDbEntity
8
0
100
AcDbLine
62
7
6
CONTINUOUS
10
129.2264937739
20
90.0786644632
11
129.7623921587
21
90.0650227582
0
POLYLINE
5
386
100
AcDbEntity
8
0
100
AcDb2dPolyline
62
7
6
CONTINUOUS
66
1
70
0
0
VERTEX
5
387
100
AcDbEntity
8
0
100
AcDbVertex
62
7
6
CONTINUOUS
100
AcDb2dVertex
10
172.5644629483
20
89.5970983204
0
VERTEX
5
388
100
AcDbEntity
8
0
100
AcDbVertex
62
7
6
CONTINUOUS
100
AcDb2dVertex
10
172.6792620842
20
89.5742587059
0
VERTEX
5
389
100
AcDbEntity
8
0
100
AcDbVertex
62
7
6
CONTINUOUS
100
AcDb2dVertex
10
172.7765851141
20
89.5092274646
0
VERTEX
5
38A
100
AcDbEntity
8
0
100
AcDbVertex
62
7
6
CONTINUOUS
100
AcDb2dVertex
10
172.8416163554
20
89.4119044346
0
VERTEX
5
38B
100
AcDbEntity
8
0
100
AcDbVertex
62
7
6
CONTINUOUS
100
AcDb2dVertex
10
172.8644559700
20
89.2971052988
0
SEQEND
5
38C
100
AcDbEntity
8
0
0
LINE
5
38D
100
AcDbEntity
8
0
100
AcDbLine
62
7
6
CONTINUOUS
10
171.1123921587
20
56.5450345092
11
171.1123921587
21
87.8450345092
0
LINE
5
38E
100
AcDbEntity
8
0
100
AcDbLine
62
7
6
CONTINUOUS
10
173.3323804078
20
68.0450345092
11
173.3460221128
21
67.3251582904
0
LINE
5
38F
100
AcDbEntity
8
0
100
AcDbLine
62
9
6
CONTINUOUS
10
172.5644629483
20
54.7929706980
11
172.5644629483
21
89.5970983204
0
LINE
5
390
100
AcDbEntity
8
0
100
AcDbLine
62
7
6
CONTINUOUS
10
172.8644559700
20
55.0929637196
11
172.8644559700
21
89.2971052988
0
LINE
5
391
100
AcDbEntity
8
0
100
AcDbLine
62
7
6
CONTINUOUS
10
173.3323804078
20
76.3450345092
11
173.3323804078
21
68.0450345092
0
LINE
5
392
100
AcDbEntity
8
0
100
AcDbLine
62
7
6
CONTINUOUS
10
173.3460221128
20
67.3251582904
11
173.3460221128
21
76.8809328941
0
LINE
5
393
100
AcDbEntity
8
0
100
AcDbLine
62
7
6
CONTINUOUS
10
173.3623921587
20
54.5950275308
11
173.3623921587
21
89.7950414876
0
LINE
5
394
100
AcDbEntity
8
0
100
AcDbLine
62
7
6
CONTINUOUS
10
205.8109101694
20
48.4800513317
11
205.8109101694
21
37.1617335883
0
LINE
5
395
100
AcDbEntity
8
0
100
AcDbLine
62
7
6
CONTINUOUS
10
173.3460221128
20
76.8809328941
11
173.3323804078
21
76.3450345092
0
POLYLINE
5
396
100
AcDbEntity
8
0
100
AcDb2dPolyline
62
7
6
CONTINUOUS
66
1
70
0
0
VERTEX
5
397
100
AcDbEntity
8
0
100
AcDbVertex
62
7
6
CONTINUOUS
100
AcDb2dVertex
10
172.8644559700
20
55.0929637196
0
VERTEX
5
398
100
AcDbEntity
8
0
100
AcDbVertex
62
7
6
CONTINUOUS
100
AcDb2dVertex
10
172.8422894284
20
54.9798030604
0
VERTEX
5
399
100
AcDbEntity
8
0
100
AcDbVertex
62
7
6
CONTINUOUS
100
AcDb2dVertex
10
172.7773917677
20
54.8816512864
0
VERTEX
5
39A
100
AcDbEntity
8
0
100
AcDbVertex
62
7
6
CONTINUOUS
100
AcDb2dVertex
10
172.6797609718
20
54.8160175013
0
VERTEX
5
39B
100
AcDbEntity
8
0
100
AcDbVertex
62
7
6
CONTINUOUS
100
AcDb2dVertex
10
172.5644629483
20
54.7929706980
0
SEQEND
5
39C
100
AcDbEntity
8
0
0
LINE
5
39D
100
AcDbEntity
8
0
100
AcDbLine
62
2
6
CONTINUOUS
10
94.9778345948
20
191.7253509921
11
95.1731892922
21
191.9207056894
0
LINE
5
39E
100
AcDbEntity
8
0
100
AcDbLine
62
2
6
CONTINUOUS
10
94.9462256578
20
189.5724217115
11
96.7123921587
21
191.3385882125
0
LINE
5
39F
100
AcDbEntity
8
0
100
AcDbLine
62
2
6
CONTINUOUS
10
94.9316570745
20
187.4365327847
11
96.5426828626
21
189.0475585727
0
LINE
5
3A0
100
AcDbEntity
8
0
100
AcDbLine
62
2
6
CONTINUOUS
10
97.3330844125
20
189.8379601227
11
98.5330844125
21
191.0379601227
0
LINE
5
3A1
100
AcDbEntity
8
0
100
AcDbLine
62
2
6
CONTINUOUS
10
94.9170884912
20
185.3006438578
11
96.5281142793
21
186.9116696458
0
LINE
5
3A2
100
AcDbEntity
8
0
100
AcDbLine
62
2
6
CONTINUOUS
10
99.4544047561
20
189.8379601227
11
100.6544047561
21
191.0379601227
0
LINE
5
3A3
100
AcDbEntity
8
0
100
AcDbLine
62
2
6
CONTINUOUS
10
94.9025199079
20
183.1647549309
11
96.5135456959
21
184.7757807190
0
LINE
5
3A4
100
AcDbEntity
8
0
100
AcDbLine
62
2
6
CONTINUOUS
10
101.5757250997
20
189.8379601227
11
102.7757250997
21
191.0379601227
0
LINE
5
3A5
100
AcDbEntity
8
0
100
AcDbLine
62
2
6
CONTINUOUS
10
94.8879513246
20
181.0288660041
11
96.4989771126
21
182.6398917921
0
LINE
5
3A6
100
AcDbEntity
8
0
100
AcDbLine
62
2
6
CONTINUOUS
10
103.6970454432
20
189.8379601227
11
104.8970454432
21
191.0379601227
0
LINE
5
3A7
100
AcDbEntity
8
0
100
AcDbLine
62
2
6
CONTINUOUS
10
94.8733827413
20
178.8929770772
11
96.4844085293
21
180.5040028652
0
LINE
5
3A8
100
AcDbEntity
8
0
100
AcDbLine
62
2
6
CONTINUOUS
10
105.8183657868
20
189.8379601227
11
107.0183657868
21
191.0379601227
0
LINE
5
3A9
100
AcDbEntity
8
0
100
AcDbLine
62
2
6
CONTINUOUS
10
94.8588141580
20
176.7570881503
11
96.4698399460
21
178.3681139384
0
LINE
5
3AA
100
AcDbEntity
8
0
100
AcDbLine
62
2
6
CONTINUOUS
10
107.9396861303
20
189.8379601227
11
109.1396861303
21
191.0379601227
0
LINE
5
3AB
100
AcDbEntity
8
0
100
AcDbLine
62
7
6
CONTINUOUS
10
94.4623921587
20
118.6379601227
11
94.9603283475
21
191.6400063308
0
LINE
5
3AC
100
AcDbEntity
8
0
100
AcDbLine
62
2
6
CONTINUOUS
10
94.8442455747
20
174.6211992234
11
96.4552713627
21
176.2322250115
0
LINE
5
3AD
100
AcDbEntity
8
0
100
AcDbLine
62
2
6
CONTINUOUS
10
110.0610064739
20
189.8379601227
11
111.2610064739
21
191.0379601227
0
LINE
5
3AE
100
AcDbEntity
8
0
100
AcDbLine
62
2
6
CONTINUOUS
10
94.8296769913
20
172.4853102966
11
96.4407027794
21
174.0963360846
0
LINE
5
3AF
100
AcDbEntity
8
0
100
AcDbLine
62
2
6
CONTINUOUS
10
112.1823268175
20
189.8379601227
11
113.3823268175
21
191.0379601227
0
LINE
5
3B0
100
AcDbEntity
8
0
100
AcDbLine
62
7
6
CONTINUOUS
10
96.7123921587
20
191.0379601227
11
96.7123921587
21
191.9379601227
0
LINE
5
3B1
100
AcDbEntity
8
0
100
AcDbLine
62
7
6
CONTINUOUS
10
96.0624293775
20
118.6379601227
11
96.5480740749
21
189.8379601227
0
LINE
5
3B2
100
AcDbEntity
8
0
100
AcDbLine
62
7
6
CONTINUOUS
10
97.6931604325
20
123.1379601227
11
98.1481112937
21
189.8379601227
0
LINE
5
3B3
100
AcDbEntity
8
0
100
AcDbLine
62
2
6
CONTINUOUS
10
94.8151084080
20
170.3494213697
11
96.4261341961
21
171.9604471578
0
LINE
5
3B4
100
AcDbEntity
8
0
100
AcDbLine
62
2
6
CONTINUOUS
10
114.3036471610
20
189.8379601227
11
115.5036471610
21
191.0379601227
0
LINE
5
3B5
100
AcDbEntity
8
0
100
AcDbLine
62
2
6
CONTINUOUS
10
94.8005398247
20
168.2135324428
11
96.4115656128
21
169.8245582309
0
LINE
5
3B6
100
AcDbEntity
8
0
100
AcDbLine
62
2
6
CONTINUOUS
10
116.4249675046
20
189.8379601227
11
117.6249675046
21
191.0379601227
0
LINE
5
3B7
100
AcDbEntity
8
0
100
AcDbLine
62
7
6
CONTINUOUS
10
94.4623921587
20
118.6379601227
11
173.3623921587
21
118.6379601227
0
LINE
5
3B8
100
AcDbEntity
8
0
100
AcDbLine
62
2
6
CONTINUOUS
10
94.7859712414
20
166.0776435160
11
96.3969970295
21
167.6886693040
0
LINE
5
3B9
100
AcDbEntity
8
0
100
AcDbLine
62
2
6
CONTINUOUS
10
118.5462878481
20
189.8379601227
11
119.7462878481
21
191.0379601227
0
LINE
5
3BA
100
AcDbEntity
8
0
100
AcDbLine
62
2
6
CONTINUOUS
10
94.7714026581
20
163.9417545891
11
96.3824284462
21
165.5527803772
0
LINE
5
3BB
100
AcDbEntity
8
0
100
AcDbLine
62
2
6
CONTINUOUS
10
120.6676081917
20
189.8379601227
11
121.8676081917
21
191.0379601227
0
LINE
5
3BC
100
AcDbEntity
8
0
100
AcDbLine
62
2
6
CONTINUOUS
10
94.7568340748
20
161.8058656622
11
96.3678598629
21
163.4168914503
0
LINE
5
3BD
100
AcDbEntity
8
0
100
AcDbLine
62
2
6
CONTINUOUS
10
122.7889285353
20
189.8379601227
11
123.9889285353
21
191.0379601227
0
LINE
5
3BE
100
AcDbEntity
8
0
100
AcDbLine
62
7
6
CONTINUOUS
10
94.4787622047
20
121.0379601227
11
96.0787994235
21
121.0379601227
0
LINE
5
3BF
100
AcDbEntity
8
0
100
AcDbLine
62
7
6
CONTINUOUS
10
129.2264937739
20
121.0379601227
11
138.5982905436
21
121.0379601227
0
LINE
5
3C0
100
AcDbEntity
8
0
100
AcDbLine
62
7
6
CONTINUOUS
10
94.4924039097
20
123.0379601227
11
96.0924411285
21
123.0379601227
0
LINE
5
3C1
100
AcDbEntity
8
0
100
AcDbLine
62
7
6
CONTINUOUS
10
129.7623921587
20
123.0379601227
11
138.0623921587
21
123.0379601227
0
LINE
5
3C2
100
AcDbEntity
8
0
100
AcDbLine
62
7
6
CONTINUOUS
10
96.0931232137
20
123.1379601227
11
97.6931604325
21
123.1379601227
0
LINE
5
3C3
100
AcDbEntity
8
0
100
AcDbLine
62
2
6
CONTINUOUS
10
94.7422654915
20
159.6699767354
11
96.3532912795
21
161.2810025234
0
LINE
5
3C4
100
AcDbEntity
8
0
100
AcDbLine
62
2
6
CONTINUOUS
10
124.9102488788
20
189.8379601227
11
126.1102488788
21
191.0379601227
0
LINE
5
3C5
100
AcDbEntity
8
0
100
AcDbLine
62
2
6
CONTINUOUS
10
94.7276969082
20
157.5340878085
11
96.3387226962
21
159.1451135966
0
LINE
5
3C6
100
AcDbEntity
8
0
100
AcDbLine
62
2
6
CONTINUOUS
10
127.0315692224
20
189.8379601227
11
128.2315692224
21
191.0379601227
0
LINE
5
3C7
100
AcDbEntity
8
0
100
AcDbLine
62
2
6
CONTINUOUS
10
94.7131283249
20
155.3981988816
11
96.3241541129
21
157.0092246697
0
LINE
5
3C8
100
AcDbEntity
8
0
100
AcDbLine
62
2
6
CONTINUOUS
10
129.1528895659
20
189.8379601227
11
130.3528895659
21
191.0379601227
0
LINE
5
3C9
100
AcDbEntity
8
0
100
AcDbLine
62
2
6
CONTINUOUS
10
94.6985597416
20
153.2623099548
11
96.3095855296
21
154.8733357428
0
LINE
5
3CA
100
AcDbEntity
8
0
100
AcDbLine
62
2
6
CONTINUOUS
10
131.2742099095
20
189.8379601227
11
132.4742099095
21
191.0379601227
0
LINE
5
3CB
100
AcDbEntity
8
0
100
AcDbLine
62
2
6
CONTINUOUS
10
94.6839911583
20
151.1264210279
11
96.2950169463
21
152.7374468159
0
LINE
5
3CC
100
AcDbEntity
8
0
100
AcDbLine
62
2
6
CONTINUOUS
10
133.3955302531
20
189.8379601227
11
133.9123921587
21
190.3548220284
0
LINE
5
3CD
100
AcDbEntity
8
0
100
AcDbLine
62
2
6
CONTINUOUS
10
94.6694225749
20
148.9905321010
11
96.2804483630
21
150.6015578891
0
LINE
5
3CE
100
AcDbEntity
8
0
100
AcDbLine
62
2
6
CONTINUOUS
10
94.6548539916
20
146.8546431742
11
96.2658797797
21
148.4656689622
0
LINE
5
3CF
100
AcDbEntity
8
0
100
AcDbLine
62
2
6
CONTINUOUS
10
94.6402854083
20
144.7187542473
11
96.2513111964
21
146.3297800353
0
LINE
5
3D0
100
AcDbEntity
8
0
100
AcDbLine
62
2
6
CONTINUOUS
10
94.6257168250
20
142.5828653204
11
96.2367426131
21
144.1938911085
0
LINE
5
3D1
100
AcDbEntity
8
0
100
AcDbLine
62
2
6
CONTINUOUS
10
94.6111482417
20
140.4469763936
11
96.2221740298
21
142.0580021816
0
LINE
5
3D2
100
AcDbEntity
8
0
100
AcDbLine
62
2
6
CONTINUOUS
10
94.5965796584
20
138.3110874667
11
96.2076054465
21
139.9221132547
0
LINE
5
3D3
100
AcDbEntity
8
0
100
AcDbLine
62
2
6
CONTINUOUS
10
94.5820110751
20
136.1751985398
11
96.1930368631
21
137.7862243279
0
LINE
5
3D4
100
AcDbEntity
8
0
100
AcDbLine
62
2
6
CONTINUOUS
10
94.5674424918
20
134.0393096129
11
96.1784682798
21
135.6503354010
0
LINE
5
3D5
100
AcDbEntity
8
0
100
AcDbLine
62
2
6
CONTINUOUS
10
94.5528739085
20
131.9034206861
11
96.1638996965
21
133.5144464741
0
LINE
5
3D6
100
AcDbEntity
8
0
100
AcDbLine
62
2
6
CONTINUOUS
10
94.5383053252
20
129.7675317592
11
96.1493311132
21
131.3785575473
0
LINE
5
3D7
100
AcDbEntity
8
0
100
AcDbLine
62
2
6
CONTINUOUS
10
94.5237367419
20
127.6316428323
11
96.1347625299
21
129.2426686204
0
LINE
5
3D8
100
AcDbEntity
8
0
100
AcDbLine
62
2
6
CONTINUOUS
10
94.5091681586
20
125.4957539055
11
96.1201939466
21
127.1067796935
0
LINE
5
3D9
100
AcDbEntity
8
0
100
AcDbLine
62
2
6
CONTINUOUS
10
94.4945995752
20
123.3598649786
11
96.1056253633
21
124.9708907667
0
LINE
5
3DA
100
AcDbEntity
8
0
100
AcDbLine
62
7
6
CONTINUOUS
10
138.0623921587
20
123.0379601227
11
138.5982905436
21
121.0379601227
0
LINE
5
3DB
100
AcDbEntity
8
DEFAULT_1
100
AcDbLine
62
2
6
CENTER
10
133.9123921587
20
196.9379601227
11
133.9123921587
21
191.9379601227
0
LINE
5
3DC
100
AcDbEntity
8
DEFAULT_1
100
AcDbLine
62
2
6
CENTER
10
133.9123921587
20
123.0379601227
11
133.9123921587
21
121.0379601227
0
LINE
5
3DD
100
AcDbEntity
8
DEFAULT_1
100
AcDbLine
62
2
6
CENTER
10
133.9123921587
20
118.6379601227
11
133.9123921587
21
102.6050907096
0
LINE
5
3DE
100
AcDbEntity
8
0
100
AcDbLine
62
7
6
CONTINUOUS
10
133.9123921587
20
118.6379601227
11
133.9123921587
21
121.0379601227
0
LINE
5
3DF
100
AcDbEntity
8
0
100
AcDbLine
62
7
6
CONTINUOUS
10
133.9123921587
20
123.0379601227
11
133.9123921587
21
191.9379601227
0
LINE
5
3E0
100
AcDbEntity
8
0
100
AcDbLine
62
2
6
CONTINUOUS
10
94.4654624086
20
119.0880871249
11
96.0764881967
21
120.6991129129
0
LINE
5
3E1
100
AcDbEntity
8
0
100
AcDbLine
62
7
6
CONTINUOUS
10
129.2264937739
20
121.0379601227
11
129.7623921587
21
123.0379601227
0
LINE
5
3E2
100
AcDbEntity
8
0
100
AcDbLine
62
7
6
CONTINUOUS
10
96.5480740749
20
189.8379601227
11
133.9123921587
21
189.8379601227
0
LINE
5
3E3
100
AcDbEntity
8
0
100
AcDbLine
62
7
6
CONTINUOUS
10
96.7123921587
20
191.0379601227
11
133.9123921587
21
191.0379601227
0
LINE
5
3E4
100
AcDbEntity
8
0
100
AcDbLine
62
9
6
CONTINUOUS
10
172.5644629483
20
191.6400063308
11
133.9123921587
21
191.6400063308
0
LINE
5
3E5
100
AcDbEntity
8
0
100
AcDbLine
62
9
6
CONTINUOUS
10
172.5644629483
20
191.6400063308
11
173.0623991371
21
118.6379601227
0
LINE
5
3E6
100
AcDbEntity
8
0
100
AcDbLine
62
7
6
CONTINUOUS
10
172.8644559700
20
191.6400063308
11
173.3623921587
21
118.6379601227
0
LINE
5
3E7
100
AcDbEntity
8
0
100
AcDbLine
62
9
6
CONTINUOUS
10
172.5644629483
20
191.9379601227
11
172.5644629483
21
191.6400063308
0
LINE
5
3E8
100
AcDbEntity
8
0
100
AcDbLine
62
7
6
CONTINUOUS
10
172.5644629483
20
191.9379601227
11
95.2603213692
21
191.9379601227
0
POLYLINE
5
3E9
100
AcDbEntity
8
0
100
AcDb2dPolyline
62
9
6
CONTINUOUS
66
1
70
0
0
VERTEX
5
3EA
100
AcDbEntity
8
0
100
AcDbVertex
62
9
6
CONTINUOUS
100
AcDb2dVertex
10
172.8644559700
20
191.6400063308
0
VERTEX
5
3EB
100
AcDbEntity
8
0
100
AcDbVertex
62
9
6
CONTINUOUS
100
AcDb2dVertex
10
172.8422894284
20
191.6406269883
0
VERTEX
5
3EC
100
AcDbEntity
8
0
100
AcDbVertex
62
9
6
CONTINUOUS
100
AcDb2dVertex
10
172.7773917677
20
191.6408538097
0
VERTEX
5
3ED
100
AcDbEntity
8
0
100
AcDbVertex
62
9
6
CONTINUOUS
100
AcDb2dVertex
10
172.5644629483
20
191.6400063308
0
SEQEND
5
3EE
100
AcDbEntity
8
0
0
LINE
5
3EF
100
AcDbEntity
8
0
100
AcDbLine
62
7
6
CONTINUOUS
10
96.0924411285
20
231.7583446957
11
96.0787994235
21
232.4782209146
0
LINE
5
3F0
100
AcDbEntity
8
0
100
AcDbLine
62
7
6
CONTINUOUS
10
94.4623921587
20
210.0083377174
11
94.4623921587
21
245.2083516741
0
LINE
5
3F1
100
AcDbEntity
8
0
100
AcDbLine
62
7
6
CONTINUOUS
10
96.0624293775
20
211.3083819145
11
96.0624293775
21
243.9083074769
0
LINE
5
3F2
100
AcDbEntity
8
0
100
AcDbLine
62
7
6
CONTINUOUS
10
96.0787994235
20
232.4782209146
11
96.0787994235
21
222.9224463109
0
LINE
5
3F3
100
AcDbEntity
8
0
100
AcDbLine
62
7
6
CONTINUOUS
10
96.0924411285
20
223.4583446957
11
96.0924411285
21
231.7583446957
0
LINE
5
3F4
100
AcDbEntity
8
0
100
AcDbLine
62
7
6
CONTINUOUS
10
96.0931232137
20
240.5083446957
11
96.0931232137
21
239.6083446957
0
LINE
5
3F5
100
AcDbEntity
8
0
100
AcDbLine
62
7
6
CONTINUOUS
10
96.0931232137
20
237.4083446957
11
96.0931232137
21
236.5083446957
0
LINE
5
3F6
100
AcDbEntity
8
0
100
AcDbLine
62
7
6
CONTINUOUS
10
96.0931232137
20
218.7083446957
11
96.0931232137
21
217.8083446957
0
LINE
5
3F7
100
AcDbEntity
8
0
100
AcDbLine
62
7
6
CONTINUOUS
10
96.0931232137
20
215.6083446957
11
96.0931232137
21
214.7083446957
0
LINE
5
3F8
100
AcDbEntity
8
0
100
AcDbLine
62
7
6
CONTINUOUS
10
96.5480740749
20
243.4226627795
11
96.5480740749
21
240.5083446957
0
LINE
5
3F9
100
AcDbEntity
8
0
100
AcDbLine
62
7
6
CONTINUOUS
10
96.5480740749
20
239.6083446957
11
96.5480740749
21
237.4083446957
0
LINE
5
3FA
100
AcDbEntity
8
0
100
AcDbLine
62
7
6
CONTINUOUS
10
96.5480740749
20
236.5083446957
11
96.5480740749
21
218.7083446957
0
LINE
5
3FB
100
AcDbEntity
8
0
100
AcDbLine
62
7
6
CONTINUOUS
10
96.5480740749
20
217.8083446957
11
96.5480740749
21
215.6083446957
0
LINE
5
3FC
100
AcDbEntity
8
0
100
AcDbLine
62
7
6
CONTINUOUS
10
96.5480740749
20
214.7083446957
11
96.5480740749
21
211.7940266119
0
LINE
5
3FD
100
AcDbEntity
8
0
100
AcDbLine
62
7
6
CONTINUOUS
10
96.0787994235
20
222.9224463109
11
96.0924411285
21
223.4583446957
0
LINE
5
3FE
100
AcDbEntity
8
0
100
AcDbLine
62
7
6
CONTINUOUS
10
97.6931604325
20
240.5083446957
11
97.6931604325
21
239.6083446957
0
LINE
5
3FF
100
AcDbEntity
8
0
100
AcDbLine
62
7
6
CONTINUOUS
10
97.6931604325
20
237.4083446957
11
97.6931604325
21
236.5083446957
0
LINE
5
400
100
AcDbEntity
8
0
100
AcDbLine
62
7
6
CONTINUOUS
10
97.6931604325
20
218.7083446957
11
97.6931604325
21
217.8083446957
0
LINE
5
401
100
AcDbEntity
8
0
100
AcDbLine
62
7
6
CONTINUOUS
10
97.6931604325
20
215.6083446957
11
97.6931604325
21
214.7083446957
0
LINE
5
402
100
AcDbEntity
8
0
100
AcDbLine
62
7
6
CONTINUOUS
10
98.1481112937
20
214.9062481604
11
98.1481112937
21
215.4104412311
0
LINE
5
403
100
AcDbEntity
8
0
100
AcDbLine
62
7
6
CONTINUOUS
10
98.1481112937
20
218.0062481604
11
98.1481112937
21
218.5104412311
0
LINE
5
404
100
AcDbEntity
8
0
100
AcDbLine
62
7
6
CONTINUOUS
10
98.1481112937
20
236.7062481604
11
98.1481112937
21
237.2104412311
0
LINE
5
405
100
AcDbEntity
8
0
100
AcDbLine
62
7
6
CONTINUOUS
10
98.1481112937
20
239.8062481604
11
98.1481112937
21
240.3104412311
0
LINE
5
406
100
AcDbEntity
8
0
100
AcDbLine
62
7
6
CONTINUOUS
10
97.6931604325
20
239.6083446957
11
98.1481112937
21
239.8062481604
0
LINE
5
407
100
AcDbEntity
8
0
100
AcDbLine
62
7
6
CONTINUOUS
10
97.6931604325
20
215.6083446957
11
98.1481112937
21
215.4104412311
0
LINE
5
408
100
AcDbEntity
8
0
100
AcDbLine
62
7
6
CONTINUOUS
10
97.6931604325
20
236.5083446957
11
98.1481112937
21
236.7062481604
0
LINE
5
409
100
AcDbEntity
8
0
100
AcDbLine
62
7
6
CONTINUOUS
10
97.6931604325
20
218.7083446957
11
98.1481112937
21
218.5104412311
0
LINE
5
40A
100
AcDbEntity
8
0
100
AcDbLine
62
7
6
CONTINUOUS
10
173.0623991371
20
209.7083446957
11
94.7623851804
21
209.7083446957
0
LINE
5
40B
100
AcDbEntity
8
0
100
AcDbLine
62
7
6
CONTINUOUS
10
96.0624293775
20
211.3083819145
11
96.5480740749
21
211.7940266119
0
LINE
5
40C
100
AcDbEntity
8
0
100
AcDbLine
62
7
6
CONTINUOUS
10
129.2264937739
20
211.3247519605
11
129.7623921587
21
211.3383936655
0
LINE
5
40D
100
AcDbEntity
8
0
100
AcDbLine
62
7
6
CONTINUOUS
10
171.7623549400
20
211.3083819145
11
96.0624293775
21
211.3083819145
0
LINE
5
40E
100
AcDbEntity
8
0
100
AcDbLine
62
7
6
CONTINUOUS
10
138.5982905436
20
211.3247519605
11
129.2264937739
21
211.3247519605
0
LINE
5
40F
100
AcDbEntity
8
0
100
AcDbLine
62
7
6
CONTINUOUS
10
129.7623921587
20
211.3383936655
11
138.0623921587
21
211.3383936655
0
LINE
5
410
100
AcDbEntity
8
0
100
AcDbLine
62
7
6
CONTINUOUS
10
171.2767102425
20
211.7940266119
11
96.5480740749
21
211.7940266119
0
LINE
5
411
100
AcDbEntity
8
0
100
AcDbLine
62
7
6
CONTINUOUS
10
138.0623921587
20
211.3383936655
11
138.5982905436
21
211.3247519605
0
LINE
5
412
100
AcDbEntity
8
0
100
AcDbLine
62
7
6
CONTINUOUS
10
96.0624293775
20
243.9083074769
11
96.5480740749
21
243.4226627795
0
LINE
5
413
100
AcDbEntity
8
0
100
AcDbLine
62
7
6
CONTINUOUS
10
96.0931232137
20
214.7083446957
11
97.6931604325
21
214.7083446957
0
LINE
5
414
100
AcDbEntity
8
0
100
AcDbLine
62
7
6
CONTINUOUS
10
170.1316238849
20
214.7083446957
11
171.7316611037
21
214.7083446957
0
LINE
5
415
100
AcDbEntity
8
0
100
AcDbLine
62
7
6
CONTINUOUS
10
96.0931232137
20
215.6083446957
11
97.6931604325
21
215.6083446957
0
LINE
5
416
100
AcDbEntity
8
0
100
AcDbLine
62
7
6
CONTINUOUS
10
170.1316238849
20
215.6083446957
11
171.7316611037
21
215.6083446957
0
LINE
5
417
100
AcDbEntity
8
0
100
AcDbLine
62
7
6
CONTINUOUS
10
96.0931232137
20
217.8083446957
11
97.6931604325
21
217.8083446957
0
LINE
5
418
100
AcDbEntity
8
0
100
AcDbLine
62
7
6
CONTINUOUS
10
170.1316238849
20
217.8083446957
11
171.7316611037
21
217.8083446957
0
LINE
5
419
100
AcDbEntity
8
0
100
AcDbLine
62
7
6
CONTINUOUS
10
96.0931232137
20
218.7083446957
11
97.6931604325
21
218.7083446957
0
LINE
5
41A
100
AcDbEntity
8
0
100
AcDbLine
62
7
6
CONTINUOUS
10
170.1316238849
20
218.7083446957
11
171.7316611037
21
218.7083446957
0
LINE
5
41B
100
AcDbEntity
8
0
100
AcDbLine
62
7
6
CONTINUOUS
10
97.6931604325
20
217.8083446957
11
98.1481112937
21
218.0062481604
0
LINE
5
41C
100
AcDbEntity
8
0
100
AcDbLine
62
7
6
CONTINUOUS
10
97.6931604325
20
237.4083446957
11
98.1481112937
21
237.2104412311
0
LINE
5
41D
100
AcDbEntity
8
0
100
AcDbLine
62
7
6
CONTINUOUS
10
129.7623921587
20
211.3247519605
11
129.7623921587
21
211.3383936655
0
LINE
5
41E
100
AcDbEntity
8
0
100
AcDbLine
62
7
6
CONTINUOUS
10
129.7623921587
20
243.8782957260
11
129.7623921587
21
243.8919374310
0
LINE
5
41F
100
AcDbEntity
8
0
100
AcDbLine
62
7
6
CONTINUOUS
10
97.6931604325
20
214.7083446957
11
98.1481112937
21
214.9062481604
0
LINE
5
420
100
AcDbEntity
8
0
100
AcDbLine
62
7
6
CONTINUOUS
10
171.7459848940
20
223.4583446957
11
171.7323431890
21
223.4583446957
0
LINE
5
421
100
AcDbEntity
8
0
100
AcDbLine
62
7
6
CONTINUOUS
10
96.0924411285
20
223.4583446957
11
96.0787994235
21
223.4583446957
0
LINE
5
422
100
AcDbEntity
8
0
100
AcDbLine
62
7
6
CONTINUOUS
10
97.6931604325
20
240.5083446957
11
98.1481112937
21
240.3104412311
0
LINE
5
423
100
AcDbEntity
8
DEFAULT_1
100
AcDbLine
62
2
6
CENTER
10
133.9123921587
20
227.6083446957
11
133.9123921587
21
203.5018718831
0
LINE
5
424
100
AcDbEntity
8
DEFAULT_1
100
AcDbLine
62
2
6
CENTER
10
133.9123921587
20
227.6083446957
11
133.9123921587
21
253.0841956786
0
LINE
5
425
100
AcDbEntity
8
DEFAULT_1
100
AcDbLine
62
2
6
CENTER
10
133.9123921587
20
227.6083446957
11
64.1576352960
21
227.6083446957
0
LINE
5
426
100
AcDbEntity
8
DEFAULT_1
100
AcDbLine
62
2
6
CENTER
10
133.9123921587
20
227.6083446957
11
177.1793515462
21
227.6083446957
0
LINE
5
427
100
AcDbEntity
8
0
100
AcDbLine
62
7
6
CONTINUOUS
10
169.6766730238
20
240.3104412311
11
170.1316238849
21
240.5083446957
0
LINE
5
428
100
AcDbEntity
8
0
100
AcDbLine
62
7
6
CONTINUOUS
10
169.6766730238
20
214.9062481604
11
170.1316238849
21
214.7083446957
0
LINE
5
429
100
AcDbEntity
8
0
100
AcDbLine
62
7
6
CONTINUOUS
10
138.0623921587
20
211.3247519605
11
138.0623921587
21
211.3383936655
0
LINE
5
42A
100
AcDbEntity
8
0
100
AcDbLine
62
7
6
CONTINUOUS
10
138.0623921587
20
243.8782957260
11
138.0623921587
21
243.8919374310
0
LINE
5
42B
100
AcDbEntity
8
0
100
AcDbLine
62
7
6
CONTINUOUS
10
169.6766730238
20
237.2104412311
11
170.1316238849
21
237.4083446957
0
LINE
5
42C
100
AcDbEntity
8
0
100
AcDbLine
62
7
6
CONTINUOUS
10
171.7459848940
20
231.7583446957
11
171.7323431890
21
231.7583446957
0
LINE
5
42D
100
AcDbEntity
8
0
100
AcDbLine
62
7
6
CONTINUOUS
10
96.0924411285
20
231.7583446957
11
96.0787994235
21
231.7583446957
0
LINE
5
42E
100
AcDbEntity
8
0
100
AcDbLine
62
7
6
CONTINUOUS
10
169.6766730238
20
218.0062481604
11
170.1316238849
21
217.8083446957
0
LINE
5
42F
100
AcDbEntity
8
0
100
AcDbLine
62
7
6
CONTINUOUS
10
96.0931232137
20
236.5083446957
11
97.6931604325
21
236.5083446957
0
LINE
5
430
100
AcDbEntity
8
0
100
AcDbLine
62
7
6
CONTINUOUS
10
170.1316238849
20
236.5083446957
11
171.7316611037
21
236.5083446957
0
LINE
5
431
100
AcDbEntity
8
0
100
AcDbLine
62
7
6
CONTINUOUS
10
96.0931232137
20
237.4083446957
11
97.6931604325
21
237.4083446957
0
LINE
5
432
100
AcDbEntity
8
0
100
AcDbLine
62
7
6
CONTINUOUS
10
170.1316238849
20
237.4083446957
11
171.7316611037
21
237.4083446957
0
LINE
5
433
100
AcDbEntity
8
0
100
AcDbLine
62
7
6
CONTINUOUS
10
96.0931232137
20
239.6083446957
11
97.6931604325
21
239.6083446957
0
LINE
5
434
100
AcDbEntity
8
0
100
AcDbLine
62
7
6
CONTINUOUS
10
170.1316238849
20
239.6083446957
11
171.7316611037
21
239.6083446957
0
LINE
5
435
100
AcDbEntity
8
0
100
AcDbLine
62
7
6
CONTINUOUS
10
96.0931232137
20
240.5083446957
11
97.6931604325
21
240.5083446957
0
LINE
5
436
100
AcDbEntity
8
0
100
AcDbLine
62
7
6
CONTINUOUS
10
170.1316238849
20
240.5083446957
11
171.7316611037
21
240.5083446957
0
LINE
5
437
100
AcDbEntity
8
0
100
AcDbLine
62
7
6
CONTINUOUS
10
171.7623549400
20
243.9083074769
11
171.2767102425
21
243.4226627795
0
LINE
5
438
100
AcDbEntity
8
0
100
AcDbLine
62
7
6
CONTINUOUS
10
138.0623921587
20
243.8782957260
11
138.5982905436
21
243.8919374310
0
LINE
5
439
100
AcDbEntity
8
0
100
AcDbLine
62
7
6
CONTINUOUS
10
171.2767102425
20
243.4226627795
11
96.5480740749
21
243.4226627795
0
LINE
5
43A
100
AcDbEntity
8
0
100
AcDbLine
62
7
6
CONTINUOUS
10
129.7623921587
20
243.8782957260
11
138.0623921587
21
243.8782957260
0
LINE
5
43B
100
AcDbEntity
8
0
100
AcDbLine
62
7
6
CONTINUOUS
10
138.5982905436
20
243.8919374310
11
129.2264937739
21
243.8919374310
0
LINE
5
43C
100
AcDbEntity
8
0
100
AcDbLine
62
7
6
CONTINUOUS
10
96.0624293775
20
243.9083074769
11
171.7623549400
21
243.9083074769
0
LINE
5
43D
100
AcDbEntity
8
0
100
AcDbLine
62
7
6
CONTINUOUS
10
129.2264937739
20
243.8919374310
11
129.7623921587
21
243.8782957260
0
LINE
5
43E
100
AcDbEntity
8
0
100
AcDbLine
62
7
6
CONTINUOUS
10
171.7623549400
20
211.3083819145
11
171.2767102425
21
211.7940266119
0
LINE
5
43F
100
AcDbEntity
8
0
100
AcDbLine
62
7
6
CONTINUOUS
10
94.7623851804
20
245.5083446957
11
173.0623991371
21
245.5083446957
0
LINE
5
440
100
AcDbEntity
8
0
100
AcDbLine
62
7
6
CONTINUOUS
10
169.6766730238
20
218.5104412311
11
170.1316238849
21
218.7083446957
0
LINE
5
441
100
AcDbEntity
8
0
100
AcDbLine
62
7
6
CONTINUOUS
10
169.6766730238
20
236.7062481604
11
170.1316238849
21
236.5083446957
0
LINE
5
442
100
AcDbEntity
8
0
100
AcDbLine
62
7
6
CONTINUOUS
10
169.6766730238
20
215.4104412311
11
170.1316238849
21
215.6083446957
0
LINE
5
443
100
AcDbEntity
8
0
100
AcDbLine
62
7
6
CONTINUOUS
10
169.6766730238
20
239.8062481604
11
170.1316238849
21
239.6083446957
0
LINE
5
444
100
AcDbEntity
8
0
100
AcDbLine
62
7
6
CONTINUOUS
10
171.7459848940
20
222.9224463109
11
171.7323431890
21
223.4583446957
0
LINE
5
445
100
AcDbEntity
8
0
100
AcDbLine
62
7
6
CONTINUOUS
10
169.6766730238
20
214.9062481604
11
169.6766730238
21
215.4104412311
0
LINE
5
446
100
AcDbEntity
8
0
100
AcDbLine
62
7
6
CONTINUOUS
10
169.6766730238
20
218.0062481604
11
169.6766730238
21
218.5104412311
0
LINE
5
447
100
AcDbEntity
8
0
100
AcDbLine
62
7
6
CONTINUOUS
10
169.6766730238
20
236.7062481604
11
169.6766730238
21
237.2104412311
0
LINE
5
448
100
AcDbEntity
8
0
100
AcDbLine
62
7
6
CONTINUOUS
10
169.6766730238
20
239.8062481604
11
169.6766730238
21
240.3104412311
0
LINE
5
449
100
AcDbEntity
8
0
100
AcDbLine
62
7
6
CONTINUOUS
10
170.1316238849
20
240.5083446957
11
170.1316238849
21
239.6083446957
0
LINE
5
44A
100
AcDbEntity
8
0
100
AcDbLine
62
7
6
CONTINUOUS
10
170.1316238849
20
237.4083446957
11
170.1316238849
21
236.5083446957
0
LINE
5
44B
100
AcDbEntity
8
0
100
AcDbLine
62
7
6
CONTINUOUS
10
170.1316238849
20
218.7083446957
11
170.1316238849
21
217.8083446957
0
LINE
5
44C
100
AcDbEntity
8
0
100
AcDbLine
62
7
6
CONTINUOUS
10
170.1316238849
20
215.6083446957
11
170.1316238849
21
214.7083446957
0
LINE
5
44D
100
AcDbEntity
8
0
100
AcDbLine
62
7
6
CONTINUOUS
10
171.2767102425
20
243.4226627795
11
171.2767102425
21
240.5083446957
0
LINE
5
44E
100
AcDbEntity
8
0
100
AcDbLine
62
7
6
CONTINUOUS
10
171.2767102425
20
239.6083446957
11
171.2767102425
21
237.4083446957
0
LINE
5
44F
100
AcDbEntity
8
0
100
AcDbLine
62
7
6
CONTINUOUS
10
171.2767102425
20
236.5083446957
11
171.2767102425
21
218.7083446957
0
LINE
5
450
100
AcDbEntity
8
0
100
AcDbLine
62
7
6
CONTINUOUS
10
171.2767102425
20
217.8083446957
11
171.2767102425
21
215.6083446957
0
LINE
5
451
100
AcDbEntity
8
0
100
AcDbLine
62
7
6
CONTINUOUS
10
171.2767102425
20
214.7083446957
11
171.2767102425
21
211.7940266119
0
LINE
5
452
100
AcDbEntity
8
0
100
AcDbLine
62
7
6
CONTINUOUS
10
171.7316611037
20
240.5083446957
11
171.7316611037
21
239.6083446957
0
LINE
5
453
100
AcDbEntity
8
0
100
AcDbLine
62
7
6
CONTINUOUS
10
171.7316611037
20
237.4083446957
11
171.7316611037
21
236.5083446957
0
LINE
5
454
100
AcDbEntity
8
0
100
AcDbLine
62
7
6
CONTINUOUS
10
171.7316611037
20
218.7083446957
11
171.7316611037
21
217.8083446957
0
LINE
5
455
100
AcDbEntity
8
0
100
AcDbLine
62
7
6
CONTINUOUS
10
171.7316611037
20
215.6083446957
11
171.7316611037
21
214.7083446957
0
LINE
5
456
100
AcDbEntity
8
0
100
AcDbLine
62
7
6
CONTINUOUS
10
171.7323431890
20
223.4583446957
11
171.7323431890
21
231.7583446957
0
LINE
5
457
100
AcDbEntity
8
0
100
AcDbLine
62
7
6
CONTINUOUS
10
171.7459848940
20
232.4782209146
11
171.7459848940
21
222.9224463109
0
LINE
5
458
100
AcDbEntity
8
0
100
AcDbLine
62
7
6
CONTINUOUS
10
171.7623549400
20
243.9083074769
11
171.7623549400
21
211.3083819145
0
LINE
5
459
100
AcDbEntity
8
0
100
AcDbLine
62
7
6
CONTINUOUS
10
171.7323431890
20
231.7583446957
11
171.7459848940
21
232.4782209146
0
LINE
5
45A
100
AcDbEntity
8
0
100
AcDbLine
62
7
6
CONTINUOUS
10
173.3623921587
20
245.2083516741
11
173.3623921587
21
210.0083377174
0
LINE
5
45B
100
AcDbEntity
8
0
100
AcDbLine
62
7
6
CONTINUOUS
10
225.8546012270
20
118.6379601227
11
261.6546012270
21
118.6379601227
0
LINE
5
45C
100
AcDbEntity
8
0
100
AcDbLine
62
7
6
CONTINUOUS
10
248.6244774458
20
121.0379601227
11
239.0687028421
21
121.0379601227
0
LINE
5
45D
100
AcDbEntity
8
0
100
AcDbLine
62
7
6
CONTINUOUS
10
239.6046012270
20
123.0379601227
11
247.9046012270
21
123.0379601227
0
LINE
5
45E
100
AcDbEntity
8
0
100
AcDbLine
62
9
6
CONTINUOUS
10
226.6525304374
20
191.9379601227
11
226.6525304374
21
191.6400063308
0
LINE
5
45F
100
AcDbEntity
8
0
100
AcDbLine
62
7
6
CONTINUOUS
10
226.3525374158
20
191.6400063308
11
225.8546012270
21
118.6379601227
0
LINE
5
460
100
AcDbEntity
8
0
100
AcDbLine
62
9
6
CONTINUOUS
10
226.6525304374
20
191.6400063308
11
226.1545942486
21
118.6379601227
0
LINE
5
461
100
AcDbEntity
8
0
100
AcDbLine
62
7
6
CONTINUOUS
10
247.9046012270
20
123.0379601227
11
248.6244774458
21
121.0379601227
0
LINE
5
462
100
AcDbEntity
8
DEFAULT_1
100
AcDbLine
62
2
6
CENTER
10
243.7546012270
20
196.9379601227
11
243.7546012270
21
113.6371126270
0
LINE
5
463
100
AcDbEntity
8
0
100
AcDbLine
62
7
6
CONTINUOUS
10
239.0687028421
20
121.0379601227
11
239.6046012270
21
123.0379601227
0
LINE
5
464
100
AcDbEntity
8
0
100
AcDbLine
62
9
6
CONTINUOUS
10
260.8566720166
20
191.6400063308
11
261.3546082054
21
118.6379601227
0
LINE
5
465
100
AcDbEntity
8
0
100
AcDbLine
62
7
6
CONTINUOUS
10
261.1566650382
20
191.6400063308
11
261.6546012270
21
118.6379601227
0
LINE
5
466
100
AcDbEntity
8
0
100
AcDbLine
62
9
6
CONTINUOUS
10
260.8566720166
20
191.9379601227
11
260.8566720166
21
191.6400063308
0
POLYLINE
5
467
100
AcDbEntity
8
0
100
AcDb2dPolyline
62
9
6
CONTINUOUS
66
1
70
0
0
VERTEX
5
468
100
AcDbEntity
8
0
100
AcDbVertex
62
9
6
CONTINUOUS
100
AcDb2dVertex
10
226.4412180042
20
191.6408538097
0
VERTEX
5
469
100
AcDbEntity
8
0
100
AcDbVertex
62
9
6
CONTINUOUS
100
AcDb2dVertex
10
226.3755842191
20
191.6406355628
0
VERTEX
5
46A
100
AcDbEntity
8
0
100
AcDbVertex
62
9
6
CONTINUOUS
100
AcDb2dVertex
10
226.3525374158
20
191.6400063308
0
SEQEND
5
46B
100
AcDbEntity
8
0
0
LINE
5
46C
100
AcDbEntity
8
0
100
AcDbLine
62
9
6
CONTINUOUS
10
226.6525304374
20
191.6400063308
11
260.8566720166
21
191.6400063308
0
LINE
5
46D
100
AcDbEntity
8
0
100
AcDbLine
62
7
6
CONTINUOUS
10
226.6525304374
20
191.9379601227
11
260.8566720166
21
191.9379601227
0
LINE
5
46E
100
AcDbEntity
8
0
100
AcDbLine
62
9
6
CONTINUOUS
10
226.6525304374
20
191.6400063308
11
226.4412180042
21
191.6408538097
0
POLYLINE
5
46F
100
AcDbEntity
8
0
100
AcDb2dPolyline
62
9
6
CONTINUOUS
66
1
70
0
0
VERTEX
5
470
100
AcDbEntity
8
0
100
AcDbVertex
62
9
6
CONTINUOUS
100
AcDb2dVertex
10
261.1566650382
20
191.6400063308
0
VERTEX
5
471
100
AcDbEntity
8
0
100
AcDbVertex
62
9
6
CONTINUOUS
100
AcDb2dVertex
10
261.1336182348
20
191.6406355628
0
VERTEX
5
472
100
AcDbEntity
8
0
100
AcDbVertex
62
9
6
CONTINUOUS
100
AcDb2dVertex
10
261.0679844498
20
191.6408538097
0
VERTEX
5
473
100
AcDbEntity
8
0
100
AcDbVertex
62
9
6
CONTINUOUS
100
AcDb2dVertex
10
260.8566720166
20
191.6400063308
0
SEQEND
5
474
100
AcDbEntity
8
0
0
LINE
5
475
100
AcDbEntity
8
0
100
AcDbLine
62
7
6
CONTINUOUS
10
331.8365593868
20
134.6293095152
11
316.4672379958
21
135.7415595795
0
LINE
5
476
100
AcDbEntity
8
0
100
AcDbLine
62
7
6
CONTINUOUS
10
330.9466871180
20
135.0418888826
11
316.7126378388
21
136.0719813521
0
LINE
5
477
100
AcDbEntity
8
0
100
AcDbLine
62
7
6
CONTINUOUS
10
322.0290819318
20
136.7746779621
11
326.2014033179
21
136.4727345898
0
LINE
5
478
100
AcDbEntity
8
0
100
AcDbLine
62
7
6
CONTINUOUS
10
326.2244739946
20
137.0290824889
11
322.9370907139
21
137.2669844868
0
LINE
5
479
100
AcDbEntity
8
0
100
AcDbLine
62
7
6
CONTINUOUS
10
326.2388691875
20
137.3762216513
11
322.6148545010
21
137.6384850568
0
LINE
5
47A
100
AcDbEntity
8
0
100
AcDbLine
62
7
6
CONTINUOUS
10
318.8079298034
20
137.9592952498
11
319.2008952513
21
137.9308570492
0
LINE
5
47B
100
AcDbEntity
8
0
100
AcDbLine
62
7
6
CONTINUOUS
10
320.1614774574
20
137.8613414477
11
320.5544429053
21
137.8329032471
0
LINE
5
47C
100
AcDbEntity
8
0
100
AcDbLine
62
7
6
CONTINUOUS
10
328.3264262089
20
137.2704588353
11
328.7193916569
21
137.2420206347
0
LINE
5
47D
100
AcDbEntity
8
0
100
AcDbLine
62
7
6
CONTINUOUS
10
318.4856935905
20
138.3307958197
11
318.8786590384
21
138.3023576191
0
LINE
5
47E
100
AcDbEntity
8
0
100
AcDbLine
62
7
6
CONTINUOUS
10
319.8392412445
20
138.2328420177
11
320.2322066924
21
138.2044038171
0
LINE
5
47F
100
AcDbEntity
8
0
100
AcDbLine
62
7
6
CONTINUOUS
10
328.0041899960
20
137.6419594053
11
328.3971554440
21
137.6135212047
0
LINE
5
480
100
AcDbEntity
8
0
100
AcDbLine
62
7
6
CONTINUOUS
10
316.2758360810
20
135.8206918756
11
300.5067654171
21
154.0005813636
0
LINE
5
481
100
AcDbEntity
8
0
100
AcDbLine
62
7
6
CONTINUOUS
10
310.8210043409
20
186.1492776836
11
300.4945701722
21
154.0358016609
0
LINE
5
482
100
AcDbEntity
8
0
100
AcDbLine
62
9
6
CONTINUOUS
10
310.9036671820
20
186.1739161090
11
300.5773343737
21
154.0607553002
0
LINE
5
483
100
AcDbEntity
8
0
100
AcDbLine
62
7
6
CONTINUOUS
10
316.7126378388
20
136.0719813521
11
301.4672066424
21
153.6481759329
0
LINE
5
484
100
AcDbEntity
8
0
100
AcDbLine
62
7
6
CONTINUOUS
10
308.4824048948
20
147.0076084292
11
310.3698186773
21
144.8316416449
0
LINE
5
485
100
AcDbEntity
8
0
100
AcDbLine
62
7
6
CONTINUOUS
10
309.8434289846
20
145.8895811535
11
308.6275646464
21
147.2913301704
0
LINE
5
486
100
AcDbEntity
8
0
100
AcDbLine
62
7
6
CONTINUOUS
10
310.5420504761
20
145.8390231764
11
308.8704890051
21
147.7661375552
0
LINE
5
487
100
AcDbEntity
8
0
100
AcDbLine
62
7
6
CONTINUOUS
10
325.4485132887
20
144.7602693525
11
324.7498917972
21
144.8108273296
0
LINE
5
488
100
AcDbEntity
8
0
100
AcDbLine
62
7
6
CONTINUOUS
10
310.5420504761
20
145.8390231764
11
309.8434289846
21
145.8895811535
0
LINE
5
489
100
AcDbEntity
8
0
100
AcDbLine
62
7
6
CONTINUOUS
10
318.8079298034
20
137.9592952498
11
318.4856935905
21
138.3307958197
0
LINE
5
48A
100
AcDbEntity
8
0
100
AcDbLine
62
7
6
CONTINUOUS
10
319.2008952513
20
137.9308570492
11
318.8786590384
21
138.3023576191
0
LINE
5
48B
100
AcDbEntity
8
0
100
AcDbLine
62
7
6
CONTINUOUS
10
320.1614774574
20
137.8613414477
11
319.8392412445
21
138.2328420177
0
LINE
5
48C
100
AcDbEntity
8
0
100
AcDbLine
62
7
6
CONTINUOUS
10
320.5544429053
20
137.8329032471
11
320.2322066924
21
138.2044038171
0
LINE
5
48D
100
AcDbEntity
8
0
100
AcDbLine
62
7
6
CONTINUOUS
10
307.0592754018
20
155.5722438034
11
307.3815116147
21
155.2007432335
0
LINE
5
48E
100
AcDbEntity
8
0
100
AcDbLine
62
7
6
CONTINUOUS
10
322.6148545010
20
137.6384850568
11
322.9370907139
21
137.2669844868
0
LINE
5
48F
100
AcDbEntity
8
0
100
AcDbLine
62
7
6
CONTINUOUS
10
310.6403295323
20
154.4128280656
11
310.6832900883
21
155.3099803979
0
LINE
5
490
100
AcDbEntity
8
0
100
AcDbLine
62
7
6
CONTINUOUS
10
309.7790070604
20
145.5127781641
11
309.8434289846
21
145.8895811535
0
LINE
5
491
100
AcDbEntity
8
0
100
AcDbLine
62
7
6
CONTINUOUS
10
307.0592754018
20
155.5722438034
11
306.4680081462
21
154.7147714379
0
LINE
5
492
100
AcDbEntity
8
0
100
AcDbLine
62
7
6
CONTINUOUS
10
328.3264262089
20
137.2704588353
11
328.0041899960
21
137.6419594053
0
LINE
5
493
100
AcDbEntity
8
0
100
AcDbLine
62
7
6
CONTINUOUS
10
328.7193916569
20
137.2420206347
11
328.3971554440
21
137.6135212047
0
LINE
5
494
100
AcDbEntity
8
0
100
AcDbLine
62
7
6
CONTINUOUS
10
315.7012559216
20
152.6180834633
11
330.9466871180
21
135.0418888826
0
LINE
5
495
100
AcDbEntity
8
0
100
AcDbLine
62
7
6
CONTINUOUS
10
316.1380576794
20
152.8693729399
11
331.9071283433
21
134.6894834518
0
LINE
5
496
100
AcDbEntity
8
0
100
AcDbLine
62
7
6
CONTINUOUS
10
310.3698186773
20
144.8316416449
11
310.5420504761
21
145.8390231764
0
LINE
5
497
100
AcDbEntity
8
0
100
AcDbLine
62
7
6
CONTINUOUS
10
307.3815116147
20
155.2007432335
11
307.0189201587
21
154.6749029293
0
LINE
5
498
100
AcDbEntity
8
0
100
AcDbLine
62
7
6
CONTINUOUS
10
301.4672066424
20
153.6481759329
11
315.7012559216
21
152.6180834633
0
LINE
5
499
100
AcDbEntity
8
0
100
AcDbLine
62
7
6
CONTINUOUS
10
300.5773343737
20
154.0607553002
11
315.9466557646
21
152.9485052359
0
LINE
5
49A
100
AcDbEntity
8
0
100
AcDbLine
62
7
6
CONTINUOUS
10
306.4680081462
20
154.7147714379
11
310.6403295323
21
154.4128280656
0
LINE
5
49B
100
AcDbEntity
8
0
100
AcDbLine
62
7
6
CONTINUOUS
10
323.4007804157
20
145.9279925040
11
325.2881941981
21
143.7520257197
0
LINE
5
49C
100
AcDbEntity
8
0
100
AcDbLine
62
7
6
CONTINUOUS
10
324.7498917972
20
144.8108273296
11
323.5389438962
21
146.2069082708
0
LINE
5
49D
100
AcDbEntity
8
0
100
AcDbLine
62
7
6
CONTINUOUS
10
325.4485132887
20
144.7602693525
11
323.7769518177
21
146.6873837312
0
LINE
5
49E
100
AcDbEntity
8
0
100
AcDbLine
62
7
6
CONTINUOUS
10
308.8704890051
20
147.7661375552
11
308.4824048948
21
147.0076084292
0
LINE
5
49F
100
AcDbEntity
8
0
100
AcDbLine
62
7
6
CONTINUOUS
10
310.6666748616
20
154.9630018954
11
307.3815116147
21
155.2007432335
0
LINE
5
4A0
100
AcDbEntity
8
0
100
AcDbLine
62
7
6
CONTINUOUS
10
310.6832900883
20
155.3099803979
11
307.0592754018
21
155.5722438034
0
LINE
5
4A1
100
AcDbEntity
8
0
100
AcDbLine
62
9
6
CONTINUOUS
10
325.8381625341
20
185.0931336207
11
315.9466557646
21
152.9485052359
0
LINE
5
4A2
100
AcDbEntity
8
0
100
AcDbLine
62
9
6
CONTINUOUS
10
326.0295644489
20
185.0140013247
11
316.1380576794
21
152.8693729399
0
LINE
5
4A3
100
AcDbEntity
8
0
100
AcDbLine
62
7
6
CONTINUOUS
10
318.8786590384
20
138.3023576191
11
321.2719557823
21
146.1957197111
0
LINE
5
4A4
100
AcDbEntity
8
0
100
AcDbLine
62
7
6
CONTINUOUS
10
318.4856935905
20
138.3307958197
11
321.0105390145
21
146.4971025923
0
LINE
5
4A5
100
AcDbEntity
8
0
100
AcDbLine
62
7
6
CONTINUOUS
10
316.7126378388
20
136.0719813521
11
320.2506131370
21
147.3732080246
0
LINE
5
4A6
100
AcDbEntity
8
0
100
AcDbLine
62
7
6
CONTINUOUS
10
326.2014033179
20
136.4727345898
11
326.2388691875
21
137.3762216513
0
LINE
5
4A7
100
AcDbEntity
8
0
100
AcDbLine
62
7
6
CONTINUOUS
10
324.6910084173
20
144.4405109025
11
324.7498917972
21
144.8108273296
0
LINE
5
4A8
100
AcDbEntity
8
0
100
AcDbLine
62
7
6
CONTINUOUS
10
325.2881941981
20
143.7520257197
11
325.4485132887
21
144.7602693525
0
LINE
5
4A9
100
AcDbEntity
8
0
100
AcDbLine
62
7
6
CONTINUOUS
10
321.5941919952
20
145.8242191412
11
319.2008952513
21
137.9308570492
0
LINE
5
4AA
100
AcDbEntity
8
0
100
AcDbLine
62
7
6
CONTINUOUS
10
320.2322066924
20
138.2044038171
11
322.2969189675
21
145.0140573397
0
LINE
5
4AB
100
AcDbEntity
8
0
100
AcDbLine
62
7
6
CONTINUOUS
10
322.6191551804
20
144.6425567697
11
320.5544429053
21
137.8329032471
0
LINE
5
4AC
100
AcDbEntity
8
0
100
AcDbLine
62
7
6
CONTINUOUS
10
319.8392412445
20
138.2328420177
11
322.0307288587
21
145.3209433233
0
LINE
5
4AD
100
AcDbEntity
8
0
100
AcDbLine
62
7
6
CONTINUOUS
10
323.7769518177
20
146.6873837312
11
323.4007804157
21
145.9279925040
0
LINE
5
4AE
100
AcDbEntity
8
0
100
AcDbLine
62
7
6
CONTINUOUS
10
328.0041899960
20
137.6419594053
11
328.1847772741
21
138.2260470875
0
LINE
5
4AF
100
AcDbEntity
8
0
100
AcDbLine
62
7
6
CONTINUOUS
10
328.3971554440
20
137.6135212047
11
328.4797614070
21
137.8859649703
0
LINE
5
4B0
100
AcDbEntity
8
0
100
AcDbLine
62
7
6
CONTINUOUS
10
328.8019976199
20
137.5144644003
11
328.7193916569
21
137.2420206347
0
LINE
5
4B1
100
AcDbEntity
8
0
100
AcDbLine
62
7
6
CONTINUOUS
10
322.6148545010
20
137.6384850568
11
322.0290819318
21
136.7746779621
0
LINE
5
4B2
100
AcDbEntity
8
0
100
AcDbLine
62
7
6
CONTINUOUS
10
322.9370907139
20
137.2669844868
11
322.5763845654
21
136.7350706577
0
LINE
5
4B3
100
AcDbEntity
8
0
100
AcDbLine
62
9
6
CONTINUOUS
10
341.5980734386
20
167.0653359304
11
331.9071283433
21
134.6894834518
0
LINE
5
4B4
100
AcDbEntity
8
0
100
AcDbLine
62
7
6
CONTINUOUS
10
341.6105080255
20
167.0308979528
11
331.9280010109
21
134.6832357128
0
LINE
5
4B5
100
AcDbEntity
8
0
100
AcDbLine
62
9
6
CONTINUOUS
10
341.6105083355
20
167.0308989885
11
341.6113170297
21
167.0395719126
0
LINE
5
4B6
100
AcDbEntity
8
0
100
AcDbLine
62
9
6
CONTINUOUS
10
326.0295644489
20
185.0140013247
11
341.5980734386
21
167.0653359304
0
LINE
5
4B7
100
AcDbEntity
8
0
100
AcDbLine
62
7
6
CONTINUOUS
10
326.0116112134
20
185.1208631448
11
341.5801202031
21
167.1721977505
0
POLYLINE
5
4B8
100
AcDbEntity
8
0
100
AcDb2dPolyline
62
9
6
CONTINUOUS
66
1
70
0
0
VERTEX
5
4B9
100
AcDbEntity
8
0
100
AcDbVertex
62
9
6
CONTINUOUS
100
AcDb2dVertex
10
326.0117356710
20
185.1207193641
0
VERTEX
5
4BA
100
AcDbEntity
8
0
100
AcDbVertex
62
9
6
CONTINUOUS
100
AcDb2dVertex
10
326.0200288907
20
185.1095329364
0
VERTEX
5
4BB
100
AcDbEntity
8
0
100
AcDbVertex
62
9
6
CONTINUOUS
100
AcDb2dVertex
10
326.0350652796
20
185.0644297241
0
VERTEX
5
4BC
100
AcDbEntity
8
0
100
AcDbVertex
62
9
6
CONTINUOUS
100
AcDb2dVertex
10
326.0295644489
20
185.0140013247
0
SEQEND
5
4BD
100
AcDbEntity
8
0
0
LINE
5
4BE
100
AcDbEntity
8
0
100
AcDbLine
62
9
6
CONTINUOUS
10
326.0295644489
20
185.0140013247
11
325.9965582864
21
185.0416544047
0
LINE
5
4BF
100
AcDbEntity
8
0
100
AcDbLine
62
9
6
CONTINUOUS
10
341.5801027622
20
167.1722178521
11
341.5880504073
21
167.1616305059
0
LINE
5
4C0
100
AcDbEntity
8
0
100
AcDbLine
62
9
6
CONTINUOUS
10
341.6113170297
20
167.0395719126
11
341.5980734386
21
167.0653359304
0
POLYLINE
5
4C1
100
AcDbEntity
8
0
100
AcDb2dPolyline
62
9
6
CONTINUOUS
66
1
70
0
0
VERTEX
5
4C2
100
AcDbEntity
8
0
100
AcDbVertex
62
9
6
CONTINUOUS
100
AcDb2dVertex
10
341.5880504073
20
167.1616305059
0
VERTEX
5
4C3
100
AcDbEntity
8
0
100
AcDbVertex
62
9
6
CONTINUOUS
100
AcDb2dVertex
10
341.6034773722
20
167.1167365672
0
VERTEX
5
4C4
100
AcDbEntity
8
0
100
AcDbVertex
62
9
6
CONTINUOUS
100
AcDb2dVertex
10
341.5980734386
20
167.0653359304
0
SEQEND
5
4C5
100
AcDbEntity
8
0
0
POLYLINE
5
4C6
100
AcDbEntity
8
0
100
AcDb2dPolyline
62
9
6
CONTINUOUS
66
1
70
0
0
VERTEX
5
4C7
100
AcDbEntity
8
0
100
AcDbVertex
62
9
6
CONTINUOUS
100
AcDb2dVertex
10
325.9090437161
20
185.1721912723
0
VERTEX
5
4C8
100
AcDbEntity
8
0
100
AcDbVertex
62
9
6
CONTINUOUS
100
AcDb2dVertex
10
325.8846328100
20
185.1655104472
0
VERTEX
5
4C9
100
AcDbEntity
8
0
100
AcDbVertex
62
9
6
CONTINUOUS
100
AcDb2dVertex
10
325.8581721060
20
185.1375635953
0
VERTEX
5
4CA
100
AcDbEntity
8
0
100
AcDbVertex
62
9
6
CONTINUOUS
100
AcDb2dVertex
10
325.8381625341
20
185.0931336207
0
SEQEND
5
4CB
100
AcDbEntity
8
0
0
POLYLINE
5
4CC
100
AcDbEntity
8
0
100
AcDb2dPolyline
62
9
6
CONTINUOUS
66
1
70
0
0
VERTEX
5
4CD
100
AcDbEntity
8
0
100
AcDbVertex
62
9
6
CONTINUOUS
100
AcDb2dVertex
10
325.9965582864
20
185.0416544047
0
VERTEX
5
4CE
100
AcDbEntity
8
0
100
AcDbVertex
62
9
6
CONTINUOUS
100
AcDb2dVertex
10
325.9485938332
20
185.0664032482
0
VERTEX
5
4CF
100
AcDbEntity
8
0
100
AcDbVertex
62
9
6
CONTINUOUS
100
AcDb2dVertex
10
325.8929728155
20
185.0844802884
0
SEQEND
5
4D0
100
AcDbEntity
8
0
0
POLYLINE
5
4D1
100
AcDbEntity
8
0
100
AcDb2dPolyline
62
9
6
CONTINUOUS
66
1
70
0
0
VERTEX
5
4D2
100
AcDbEntity
8
0
100
AcDbVertex
62
9
6
CONTINUOUS
100
AcDb2dVertex
10
310.9036671820
20
186.1739161090
0
VERTEX
5
4D3
100
AcDbEntity
8
0
100
AcDbVertex
62
9
6
CONTINUOUS
100
AcDb2dVertex
10
310.8588073163
20
186.1726192177
0
VERTEX
5
4D4
100
AcDbEntity
8
0
100
AcDbVertex
62
9
6
CONTINUOUS
100
AcDb2dVertex
10
310.8290525051
20
186.1607527048
0
VERTEX
5
4D5
100
AcDbEntity
8
0
100
AcDbVertex
62
9
6
CONTINUOUS
100
AcDb2dVertex
10
310.8210040055
20
186.1492766405
0
SEQEND
5
4D6
100
AcDbEntity
8
0
0
LINE
5
4D7
100
AcDbEntity
8
0
100
AcDbLine
62
9
6
CONTINUOUS
10
325.9091263542
20
185.1721853879
11
325.9090437161
21
185.1721912723
0
LINE
5
4D8
100
AcDbEntity
8
0
100
AcDbLine
62
9
6
CONTINUOUS
10
310.9036671820
20
186.1739161090
11
325.8381625341
21
185.0931336207
0
LINE
5
4D9
100
AcDbEntity
8
0
100
AcDbLine
62
7
6
CONTINUOUS
10
310.9746300396
20
186.2529679459
11
325.9091253917
21
185.1721854576
0
LINE
5
4DA
100
AcDbEntity
8
0
100
AcDbLine
62
9
6
CONTINUOUS
10
325.8929728155
20
185.0844802884
11
325.8381625341
21
185.0931336207
0
POLYLINE
5
4DB
100
AcDbEntity
8
0
100
AcDb2dPolyline
62
9
6
CONTINUOUS
66
1
70
0
0
VERTEX
5
4DC
100
AcDbEntity
8
0
100
AcDbVertex
62
9
6
CONTINUOUS
100
AcDb2dVertex
10
310.9746300396
20
186.2529679459
0
VERTEX
5
4DD
100
AcDbEntity
8
0
100
AcDbVertex
62
9
6
CONTINUOUS
100
AcDb2dVertex
10
310.9504096621
20
186.2464605468
0
VERTEX
5
4DE
100
AcDbEntity
8
0
100
AcDbVertex
62
9
6
CONTINUOUS
100
AcDb2dVertex
10
310.9240373266
20
186.2189087691
0
VERTEX
5
4DF
100
AcDbEntity
8
0
100
AcDbVertex
62
9
6
CONTINUOUS
100
AcDb2dVertex
10
310.9036671820
20
186.1739161090
0
SEQEND
5
4E0
100
AcDbEntity
8
0
0
LINE
5
4E1
100
AcDbEntity
8
0
100
AcDbLine
62
7
6
CONTINUOUS
10
352.6070435343
20
146.2167285114
11
364.9773033724
21
137.6957674087
0
LINE
5
4E2
100
AcDbEntity
8
0
100
AcDbLine
62
7
6
CONTINUOUS
10
357.3725954079
20
144.1575824898
11
360.7307592696
21
141.8443906881
0
LINE
5
4E3
100
AcDbEntity
8
0
100
AcDbLine
62
7
6
CONTINUOUS
10
357.9086997050
20
144.3214956737
11
360.7594504593
21
142.3578233977
0
LINE
5
4E4
100
AcDbEntity
8
0
100
AcDbLine
62
7
6
CONTINUOUS
10
360.7856225166
20
142.8261758927
11
357.8687726318
21
144.8353789924
0
LINE
5
4E5
100
AcDbEntity
8
0
100
AcDbLine
62
9
6
CONTINUOUS
10
361.7136504686
20
177.2959498894
11
361.6802868888
21
177.2481731797
0
LINE
5
4E6
100
AcDbEntity
8
0
100
AcDbLine
62
9
6
CONTINUOUS
10
361.7538723539
20
177.3333305325
11
361.7136504686
21
177.2959498894
0
LINE
5
4E7
100
AcDbEntity
8
0
100
AcDbLine
62
9
6
CONTINUOUS
10
361.7948815127
20
177.3546729296
11
361.7538723539
21
177.3333305325
0
LINE
5
4E8
100
AcDbEntity
8
0
100
AcDbLine
62
7
6
CONTINUOUS
10
361.6151079619
20
177.2691413933
11
352.5632401587
21
146.2883368659
0
LINE
5
4E9
100
AcDbEntity
8
0
100
AcDbLine
62
9
6
CONTINUOUS
10
361.6588174643
20
177.1972117495
11
352.6070435343
21
146.2167285114
0
LINE
5
4EA
100
AcDbEntity
8
0
100
AcDbLine
62
9
6
CONTINUOUS
10
361.6802868888
20
177.2481731797
11
361.6588174643
21
177.1972117495
0
LINE
5
4EB
100
AcDbEntity
8
0
100
AcDbLine
62
7
6
CONTINUOUS
10
387.6165541356
20
185.2898144844
11
361.7152300910
21
177.3705187179
0
LINE
5
4EC
100
AcDbEntity
8
0
100
AcDbLine
62
9
6
CONTINUOUS
10
387.6962055572
20
185.2739686961
11
361.7948815127
21
177.3546729296
0
LINE
5
4ED
100
AcDbEntity
8
0
100
AcDbLine
62
7
6
CONTINUOUS
10
387.7199763994
20
184.7737070476
11
362.7917064574
21
177.1519212935
0
LINE
5
4EE
100
AcDbEntity
8
0
100
AcDbLine
62
7
6
CONTINUOUS
10
387.6125964867
20
184.3909094385
11
363.1435817056
21
176.9095403458
0
LINE
5
4EF
100
AcDbEntity
8
0
100
AcDbLine
62
9
6
CONTINUOUS
10
361.7155443172
20
177.3706140537
11
361.7152346406
21
177.3705201088
0
LINE
5
4F0
100
AcDbEntity
8
0
100
AcDbLine
62
7
6
CONTINUOUS
10
360.7307592696
20
141.8443906881
11
360.7856225166
21
142.8261758927
0
LINE
5
4F1
100
AcDbEntity
8
0
100
AcDbLine
62
7
6
CONTINUOUS
10
380.1513817681
20
143.1693332550
11
379.5890843732
21
143.5566585249
0
POLYLINE
5
4F2
100
AcDbEntity
8
0
100
AcDb2dPolyline
62
9
6
CONTINUOUS
66
1
70
0
0
VERTEX
5
4F3
100
AcDbEntity
8
0
100
AcDbVertex
62
9
6
CONTINUOUS
100
AcDb2dVertex
10
373.8151642147
20
169.0747853050
0
VERTEX
5
4F4
100
AcDbEntity
8
0
100
AcDbVertex
62
9
6
CONTINUOUS
100
AcDb2dVertex
10
373.7739658517
20
169.0533059562
0
VERTEX
5
4F5
100
AcDbEntity
8
0
100
AcDbVertex
62
9
6
CONTINUOUS
100
AcDb2dVertex
10
373.7335676265
20
169.0156383639
0
VERTEX
5
4F6
100
AcDbEntity
8
0
100
AcDbVertex
62
9
6
CONTINUOUS
100
AcDb2dVertex
10
373.7001471655
20
168.9675220628
0
VERTEX
5
4F7
100
AcDbEntity
8
0
100
AcDbVertex
62
9
6
CONTINUOUS
100
AcDb2dVertex
10
373.6791001663
20
168.9173241249
0
SEQEND
5
4F8
100
AcDbEntity
8
0
0
LINE
5
4F9
100
AcDbEntity
8
0
100
AcDbLine
62
7
6
CONTINUOUS
10
373.7913933726
20
169.5750469535
11
398.7196633145
21
177.1968327077
0
LINE
5
4FA
100
AcDbEntity
8
0
100
AcDbLine
62
9
6
CONTINUOUS
10
373.8151642147
20
169.0747853050
11
399.7164882592
21
176.9940810715
0
LINE
5
4FB
100
AcDbEntity
8
0
100
AcDbLine
62
9
6
CONTINUOUS
10
373.8850409023
20
168.8754363076
11
399.7863649469
21
176.7947320741
0
LINE
5
4FC
100
AcDbEntity
8
0
100
AcDbLine
62
9
6
CONTINUOUS
10
373.6791001663
20
168.9173241249
11
364.9773033724
21
137.6957674087
0
LINE
5
4FD
100
AcDbEntity
8
0
100
AcDbLine
62
9
6
CONTINUOUS
10
373.8850409023
20
168.8754363076
11
365.1832441085
21
137.6538795914
0
LINE
5
4FE
100
AcDbEntity
8
0
100
AcDbLine
62
7
6
CONTINUOUS
10
357.8687726318
20
144.8353789924
11
357.3725954079
21
144.1575824898
0
LINE
5
4FF
100
AcDbEntity
8
0
100
AcDbLine
62
7
6
CONTINUOUS
10
358.1453969375
20
144.6448328778
11
357.9086997050
21
144.3214956737
0
POLYLINE
5
500
100
AcDbEntity
8
0
100
AcDb2dPolyline
62
9
6
CONTINUOUS
66
1
70
0
0
VERTEX
5
501
100
AcDbEntity
8
0
100
AcDbVertex
62
9
6
CONTINUOUS
100
AcDb2dVertex
10
361.6588174643
20
177.1972117495
0
VERTEX
5
502
100
AcDbEntity
8
0
100
AcDbVertex
62
9
6
CONTINUOUS
100
AcDb2dVertex
10
361.6265507893
20
177.2271396512
0
VERTEX
5
503
100
AcDbEntity
8
0
100
AcDbVertex
62
9
6
CONTINUOUS
100
AcDb2dVertex
10
361.6138290406
20
177.2576443208
0
VERTEX
5
504
100
AcDbEntity
8
0
100
AcDbVertex
62
9
6
CONTINUOUS
100
AcDb2dVertex
10
361.6151082869
20
177.2691425058
0
SEQEND
5
505
100
AcDbEntity
8
0
0
LINE
5
506
100
AcDbEntity
8
0
100
AcDbLine
62
7
6
CONTINUOUS
10
379.5890843732
20
143.5566585249
11
379.6045669245
21
143.7846163833
0
LINE
5
507
100
AcDbEntity
8
0
100
AcDbLine
62
9
6
CONTINUOUS
10
361.6588174643
20
177.1972117495
11
373.6791001663
21
168.9173241249
0
POLYLINE
5
508
100
AcDbEntity
8
0
100
AcDb2dPolyline
62
9
6
CONTINUOUS
66
1
70
0
0
VERTEX
5
509
100
AcDbEntity
8
0
100
AcDbVertex
62
9
6
CONTINUOUS
100
AcDb2dVertex
10
373.8151642147
20
169.0747853050
0
VERTEX
5
50A
100
AcDbEntity
8
0
100
AcDbVertex
62
9
6
CONTINUOUS
100
AcDb2dVertex
10
373.8527911590
20
169.0372730909
0
VERTEX
5
50B
100
AcDbEntity
8
0
100
AcDbVertex
62
9
6
CONTINUOUS
100
AcDb2dVertex
10
373.8792483453
20
168.9860072795
0
VERTEX
5
50C
100
AcDbEntity
8
0
100
AcDbVertex
62
9
6
CONTINUOUS
100
AcDb2dVertex
10
373.8904770816
20
168.9288094463
0
VERTEX
5
50D
100
AcDbEntity
8
0
100
AcDbVertex
62
9
6
CONTINUOUS
100
AcDb2dVertex
10
373.8850409023
20
168.8754363076
0
SEQEND
5
50E
100
AcDbEntity
8
0
0
LINE
5
50F
100
AcDbEntity
8
0
100
AcDbLine
62
7
6
CONTINUOUS
10
380.1513817681
20
143.1693332550
11
380.2056530082
21
143.9683976630
0
LINE
5
510
100
AcDbEntity
8
0
100
AcDbLine
62
7
6
CONTINUOUS
10
387.7199763994
20
184.7737070476
11
387.6125964867
21
184.3909094385
0
LINE
5
511
100
AcDbEntity
8
0
100
AcDbLine
62
9
6
CONTINUOUS
10
361.7948815127
20
177.3546729296
11
373.8151642147
21
169.0747853050
0
LINE
5
512
100
AcDbEntity
8
0
100
AcDbLine
62
7
6
CONTINUOUS
10
362.7917064574
20
177.1519212935
11
373.7913933726
21
169.5750469535
0
LINE
5
513
100
AcDbEntity
8
0
100
AcDbLine
62
7
6
CONTINUOUS
10
377.4246766572
20
143.1181178006
11
377.0112919870
21
142.2092549336
0
POLYLINE
5
514
100
AcDbEntity
8
0
100
AcDb2dPolyline
62
9
6
CONTINUOUS
66
1
70
0
0
VERTEX
5
515
100
AcDbEntity
8
0
100
AcDbVertex
62
9
6
CONTINUOUS
100
AcDb2dVertex
10
373.8850409023
20
168.8754363076
0
VERTEX
5
516
100
AcDbEntity
8
0
100
AcDbVertex
62
9
6
CONTINUOUS
100
AcDb2dVertex
10
373.8386249671
20
168.8694715304
0
VERTEX
5
517
100
AcDbEntity
8
0
100
AcDbVertex
62
9
6
CONTINUOUS
100
AcDb2dVertex
10
373.7831886663
20
168.8753374006
0
VERTEX
5
518
100
AcDbEntity
8
0
100
AcDbVertex
62
9
6
CONTINUOUS
100
AcDb2dVertex
10
373.7271711808
20
168.8921409446
0
VERTEX
5
519
100
AcDbEntity
8
0
100
AcDbVertex
62
9
6
CONTINUOUS
100
AcDb2dVertex
10
373.6791001663
20
168.9173241249
0
SEQEND
5
51A
100
AcDbEntity
8
0
0
POLYLINE
5
51B
100
AcDbEntity
8
0
100
AcDb2dPolyline
62
9
6
CONTINUOUS
66
1
70
0
0
VERTEX
5
51C
100
AcDbEntity
8
0
100
AcDbVertex
62
9
6
CONTINUOUS
100
AcDb2dVertex
10
361.7948815127
20
177.3546729296
0
VERTEX
5
51D
100
AcDbEntity
8
0
100
AcDbVertex
62
9
6
CONTINUOUS
100
AcDb2dVertex
10
361.7526585934
20
177.3726076827
0
VERTEX
5
51E
100
AcDbEntity
8
0
100
AcDbVertex
62
9
6
CONTINUOUS
100
AcDb2dVertex
10
361.7155443172
20
177.3706140537
0
SEQEND
5
51F
100
AcDbEntity
8
0
0
LINE
5
520
100
AcDbEntity
8
0
100
AcDbLine
62
7
6
CONTINUOUS
10
357.3725954079
20
144.1575824898
11
357.9086997050
21
144.3214956737
0
POLYLINE
5
521
100
AcDbEntity
8
0
100
AcDb2dPolyline
62
9
6
CONTINUOUS
66
1
70
0
0
VERTEX
5
522
100
AcDbEntity
8
0
100
AcDbVertex
62
9
6
CONTINUOUS
100
AcDb2dVertex
10
399.8255489580
20
176.8275291045
0
VERTEX
5
523
100
AcDbEntity
8
0
100
AcDbVertex
62
9
6
CONTINUOUS
100
AcDb2dVertex
10
399.8169721911
20
176.8123902234
0
VERTEX
5
524
100
AcDbEntity
8
0
100
AcDbVertex
62
9
6
CONTINUOUS
100
AcDb2dVertex
10
399.7863649469
20
176.7947320741
0
SEQEND
5
525
100
AcDbEntity
8
0
0
POLYLINE
5
526
100
AcDbEntity
8
0
100
AcDb2dPolyline
62
9
6
CONTINUOUS
66
1
70
0
0
VERTEX
5
527
100
AcDbEntity
8
0
100
AcDbVertex
62
9
6
CONTINUOUS
100
AcDb2dVertex
10
399.7164882592
20
176.9940810715
0
VERTEX
5
528
100
AcDbEntity
8
0
100
AcDbVertex
62
9
6
CONTINUOUS
100
AcDb2dVertex
10
399.7520948293
20
176.9961638327
0
VERTEX
5
529
100
AcDbEntity
8
0
100
AcDbVertex
62
9
6
CONTINUOUS
100
AcDb2dVertex
10
399.7657855024
20
176.9900116169
0
SEQEND
5
52A
100
AcDbEntity
8
0
0
LINE
5
52B
100
AcDbEntity
8
0
100
AcDbLine
62
7
6
CONTINUOUS
10
380.2056530082
20
143.9683976630
11
377.4246766572
21
143.1181178006
0
LINE
5
52C
100
AcDbEntity
8
0
100
AcDbLine
62
7
6
CONTINUOUS
10
377.3067458831
20
142.8588365328
11
379.5890843732
21
143.5566585249
0
LINE
5
52D
100
AcDbEntity
8
0
100
AcDbLine
62
9
6
CONTINUOUS
10
399.7863649469
20
176.7947320741
11
391.4182425543
21
145.6751958673
0
LINE
5
52E
100
AcDbEntity
8
0
100
AcDbLine
62
7
6
CONTINUOUS
10
399.8255492475
20
176.8275301810
11
391.4573394233
21
145.7076688321
0
LINE
5
52F
100
AcDbEntity
8
0
100
AcDbLine
62
7
6
CONTINUOUS
10
377.0112919870
20
142.2092549336
11
380.1513817681
21
143.1693332550
0
LINE
5
530
100
AcDbEntity
8
0
100
AcDbLine
62
7
6
CONTINUOUS
10
365.1832441085
20
137.6538795914
11
391.4182425543
21
145.6751958673
0
LINE
5
531
100
AcDbEntity
8
0
100
AcDbLine
62
9
6
CONTINUOUS
10
399.7917422935
20
176.8492304377
11
399.7863649469
21
176.7947320741
0
POLYLINE
5
532
100
AcDbEntity
8
0
100
AcDb2dPolyline
62
9
6
CONTINUOUS
66
1
70
0
0
VERTEX
5
533
100
AcDbEntity
8
0
100
AcDbVertex
62
9
6
CONTINUOUS
100
AcDb2dVertex
10
387.6962055572
20
185.2739686961
0
VERTEX
5
534
100
AcDbEntity
8
0
100
AcDbVertex
62
9
6
CONTINUOUS
100
AcDb2dVertex
10
387.7318121273
20
185.2760514573
0
VERTEX
5
535
100
AcDbEntity
8
0
100
AcDbVertex
62
9
6
CONTINUOUS
100
AcDb2dVertex
10
387.7455028004
20
185.2698992415
0
SEQEND
5
536
100
AcDbEntity
8
0
0
LINE
5
537
100
AcDbEntity
8
0
100
AcDbLine
62
9
6
CONTINUOUS
10
387.6539826379
20
185.2919034492
11
387.6165586851
21
185.2898158753
0
LINE
5
538
100
AcDbEntity
8
0
100
AcDbLine
62
9
6
CONTINUOUS
10
387.6962055572
20
185.2739686961
11
387.6539826379
21
185.2919034492
0
LINE
5
539
100
AcDbEntity
8
0
100
AcDbLine
62
7
6
CONTINUOUS
10
398.2604081537
20
177.0564160462
11
387.6125964867
21
184.3909094385
0
LINE
5
53A
100
AcDbEntity
8
0
100
AcDbLine
62
7
6
CONTINUOUS
10
398.7196633145
20
177.1968327077
11
387.7199763994
21
184.7737070476
0
LINE
5
53B
100
AcDbEntity
8
0
100
AcDbLine
62
9
6
CONTINUOUS
10
399.7164882592
20
176.9940810715
11
387.6962055572
21
185.2739686961
0
LINE
5
53C
100
AcDbEntity
8
0
100
AcDbLine
62
7
6
CONTINUOUS
10
399.7657855024
20
176.9900116169
11
387.7455028004
21
185.2698992415
0
LINE
5
53D
100
AcDbEntity
8
0
100
AcDbLine
62
9
6
CONTINUOUS
10
399.7801944810
20
176.9063811178
11
399.7917422935
21
176.8492304377
0
LINE
5
53E
100
AcDbEntity
8
0
100
AcDbLine
62
9
6
CONTINUOUS
10
399.7164882592
20
176.9940810715
11
399.7534689362
21
176.9574582994
0
LINE
5
53F
100
AcDbEntity
8
0
100
AcDbLine
62
9
6
CONTINUOUS
10
399.7534689362
20
176.9574582994
11
399.7801944810
21
176.9063811178
0
ARC
5
540
100
AcDbEntity
8
0
100
AcDbCircle
62
7
6
CONTINUOUS
10
172.5644629483
20
191.6379601227
40
0.3000000000
100
AcDbArc
50
0.3908000000
51
90.0000000000
0
ARC
5
541
100
AcDbEntity
8
0
100
AcDbCircle
62
7
6
CONTINUOUS
10
95.2603213692
20
191.6379601227
40
0.3000000000
100
AcDbArc
50
90.0000000000
51
179.6092000000
0
ARC
5
542
100
AcDbEntity
8
0
100
AcDbCircle
62
7
6
CONTINUOUS
10
226.6525304374
20
191.6379601227
40
0.3000000000
100
AcDbArc
50
90.0000000000
51
179.6092000000
0
ARC
5
543
100
AcDbEntity
8
0
100
AcDbCircle
62
7
6
CONTINUOUS
10
260.8566720166
20
191.6379601227
40
0.3000000000
100
AcDbArc
50
0.3908000000
51
90.0000000000
0
SPLINE
5
544
100
AcDbEntity
8
0
100
AcDbSpline
62
7
6
CONTINUOUS
70
0
71
3
72
11
73
7
74
5
42
0.0000001000
43
0.0000001000
44
0.0000000001
40
0.0000000000
40
0.0000000000
40
0.0000000000
40
0.0000000000
40
0.2479727287
40
0.4987258268
40
0.7507175098
40
1.0000000000
40
1.0000000000
40
1.0000000000
40
1.0000000000
10
173.3623921587
20
54.5950275308
30
0.0000000000
10
173.3623921587
20
54.5563267147
30
0.0000000000
10
173.3469571974
20
54.4776570463
30
0.0000000000
10
173.2803879427
20
54.3776493258
30
0.0000000000
10
173.1803845928
20
54.3106334265
30
0.0000000000
10
173.1013043662
20
54.2950345092
30
0.0000000000
10
173.0623991371
20
54.2950345092
30
0.0000000000
11
173.3623921587
21
54.5950275308
31
0.0000000000
11
173.3399259869
21
54.4811194555
31
0.0000000000
11
173.2749567525
21
54.3833301254
31
0.0000000000
11
173.1768852682
21
54.3177386369
31
0.0000000000
11
173.0623991371
21
54.2950345092
31
0.0000000000
0
SPLINE
5
545
100
AcDbEntity
8
0
100
AcDbSpline
62
7
6
CONTINUOUS
70
0
71
3
72
11
73
7
74
5
42
0.0000001000
43
0.0000001000
44
0.0000000001
40
0.0000000000
40
0.0000000000
40
0.0000000000
40
0.0000000000
40
0.2479727287
40
0.4987258268
40
0.7507175098
40
1.0000000000
40
1.0000000000
40
1.0000000000
40
1.0000000000
10
173.0623991371
20
90.0950345092
30
0.0000000000
10
173.1010999532
20
90.0950345092
30
0.0000000000
10
173.1797696216
20
90.0795995479
30
0.0000000000
10
173.2797773421
20
90.0130302932
30
0.0000000000
10
173.3467932414
20
89.9130269432
30
0.0000000000
10
173.3623921587
20
89.8339467166
30
0.0000000000
10
173.3623921587
20
89.7950414876
30
0.0000000000
11
173.0623991371
21
90.0950345092
31
0.0000000000
11
173.1763072124
21
90.0725683374
31
0.0000000000
11
173.2740965425
21
90.0075991030
31
0.0000000000
11
173.3396880310
21
89.9095276187
31
0.0000000000
11
173.3623921587
21
89.7950414876
31
0.0000000000
0
SPLINE
5
546
100
AcDbEntity
8
0
100
AcDbSpline
62
7
6
CONTINUOUS
70
0
71
3
72
11
73
7
74
5
42
0.0000001000
43
0.0000001000
44
0.0000000001
40
0.0000000000
40
0.0000000000
40
0.0000000000
40
0.0000000000
40
0.2479727287
40
0.4987258268
40
0.7507175098
40
1.0000000000
40
1.0000000000
40
1.0000000000
40
1.0000000000
10
94.4623921587
20
89.7950414876
30
0.0000000000
10
94.4623921587
20
89.8337423037
30
0.0000000000
10
94.4778271201
20
89.9124119721
30
0.0000000000
10
94.5443963748
20
90.0124196926
30
0.0000000000
10
94.6443997247
20
90.0794355919
30
0.0000000000
10
94.7234799513
20
90.0950345092
30
0.0000000000
10
94.7623851804
20
90.0950345092
30
0.0000000000
11
94.4623921587
21
89.7950414876
31
0.0000000000
11
94.4848583305
21
89.9089495629
31
0.0000000000
11
94.5498275649
21
90.0067388930
31
0.0000000000
11
94.6478990492
21
90.0723303815
31
0.0000000000
11
94.7623851804
21
90.0950345092
31
0.0000000000
0
SPLINE
5
547
100
AcDbEntity
8
0
100
AcDbSpline
62
7
6
CONTINUOUS
70
0
71
3
72
11
73
7
74
5
42
0.0000001000
43
0.0000001000
44
0.0000000001
40
0.0000000000
40
0.0000000000
40
0.0000000000
40
0.0000000000
40
0.2479727287
40
0.4987258268
40
0.7507175098
40
1.0000000000
40
1.0000000000
40
1.0000000000
40
1.0000000000
10
94.7623851804
20
54.2950345092
30
0.0000000000
10
94.7236843643
20
54.2950345092
30
0.0000000000
10
94.6450146959
20
54.3104694705
30
0.0000000000
10
94.5450069754
20
54.3770387253
30
0.0000000000
10
94.4779910761
20
54.4770420752
30
0.0000000000
10
94.4623921587
20
54.5561223018
30
0.0000000000
10
94.4623921587
20
54.5950275308
30
0.0000000000
11
94.7623851804
21
54.2950345092
31
0.0000000000
11
94.6484771050
21
54.3175006810
31
0.0000000000
11
94.5506877750
21
54.3824699154
31
0.0000000000
11
94.4850962865
21
54.4805413997
31
0.0000000000
11
94.4623921587
21
54.5950275308
31
0.0000000000
0
SPLINE
5
548
100
AcDbEntity
8
0
100
AcDbSpline
62
7
6
CONTINUOUS
70
0
71
3
72
11
73
7
74
5
42
0.0000001000
43
0.0000001000
44
0.0000000001
40
0.0000000000
40
0.0000000000
40
0.0000000000
40
0.0000000000
40
0.2479727287
40
0.4987258268
40
0.7507175098
40
1.0000000000
40
1.0000000000
40
1.0000000000
40
1.0000000000
10
173.3623921587
20
245.2083516741
30
0.0000000000
10
173.3623921587
20
245.2470524902
30
0.0000000000
10
173.3469571974
20
245.3257221586
30
0.0000000000
10
173.2803879427
20
245.4257298791
30
0.0000000000
10
173.1803845928
20
245.4927457784
30
0.0000000000
10
173.1013043662
20
245.5083446957
30
0.0000000000
10
173.0623991371
20
245.5083446957
30
0.0000000000
11
173.3623921587
21
245.2083516741
31
0.0000000000
11
173.3399259869
21
245.3222597494
31
0.0000000000
11
173.2749567525
21
245.4200490795
31
0.0000000000
11
173.1768852682
21
245.4856405680
31
0.0000000000
11
173.0623991371
21
245.5083446957
31
0.0000000000
0
SPLINE
5
549
100
AcDbEntity
8
0
100
AcDbSpline
62
7
6
CONTINUOUS
70
0
71
3
72
11
73
7
74
5
42
0.0000001000
43
0.0000001000
44
0.0000000001
40
0.0000000000
40
0.0000000000
40
0.0000000000
40
0.0000000000
40
0.2479727287
40
0.4987258268
40
0.7507175098
40
1.0000000000
40
1.0000000000
40
1.0000000000
40
1.0000000000
10
94.7623851804
20
245.5083446957
30
0.0000000000
10
94.7236843643
20
245.5083446957
30
0.0000000000
10
94.6450146959
20
245.4929097344
30
0.0000000000
10
94.5450069754
20
245.4263404797
30
0.0000000000
10
94.4779910761
20
245.3263371298
30
0.0000000000
10
94.4623921587
20
245.2472569032
30
0.0000000000
10
94.4623921587
20
245.2083516741
30
0.0000000000
11
94.7623851804
21
245.5083446957
31
0.0000000000
11
94.6484771050
21
245.4858785239
31
0.0000000000
11
94.5506877750
21
245.4209092895
31
0.0000000000
11
94.4850962865
21
245.3228378052
31
0.0000000000
11
94.4623921587
21
245.2083516741
31
0.0000000000
0
SPLINE
5
54A
100
AcDbEntity
8
0
100
AcDbSpline
62
7
6
CONTINUOUS
70
0
71
3
72
11
73
7
74
5
42
0.0000001000
43
0.0000001000
44
0.0000000001
40
0.0000000000
40
0.0000000000
40
0.0000000000
40
0.0000000000
40
0.2479727287
40
0.4987258268
40
0.7507175098
40
1.0000000000
40
1.0000000000
40
1.0000000000
40
1.0000000000
10
173.0623991371
20
209.7083446957
30
0.0000000000
10
173.1010999532
20
209.7083446957
30
0.0000000000
10
173.1797696216
20
209.7237796571
30
0.0000000000
10
173.2797773421
20
209.7903489118
30
0.0000000000
10
173.3467932414
20
209.8903522617
30
0.0000000000
10
173.3623921587
20
209.9694324883
30
0.0000000000
10
173.3623921587
20
210.0083377174
30
0.0000000000
11
173.0623991371
21
209.7083446957
31
0.0000000000
11
173.1763072124
21
209.7308108675
31
0.0000000000
11
173.2740965425
21
209.7957801019
31
0.0000000000
11
173.3396880310
21
209.8938515862
31
0.0000000000
11
173.3623921587
21
210.0083377174
31
0.0000000000
0
SPLINE
5
54B
100
AcDbEntity
8
0
100
AcDbSpline
62
7
6
CONTINUOUS
70
0
71
3
72
11
73
7
74
5
42
0.0000001000
43
0.0000001000
44
0.0000000001
40
0.0000000000
40
0.0000000000
40
0.0000000000
40
0.0000000000
40
0.2479727287
40
0.4987258268
40
0.7507175098
40
1.0000000000
40
1.0000000000
40
1.0000000000
40
1.0000000000
10
94.4623921587
20
210.0083377174
30
0.0000000000
10
94.4623921587
20
209.9696369013
30
0.0000000000
10
94.4778271201
20
209.8909672329
30
0.0000000000
10
94.5443963748
20
209.7909595124
30
0.0000000000
10
94.6443997247
20
209.7239436131
30
0.0000000000
10
94.7234799513
20
209.7083446957
30
0.0000000000
10
94.7623851804
20
209.7083446957
30
0.0000000000
11
94.4623921587
21
210.0083377174
31
0.0000000000
11
94.4848583305
21
209.8944296420
31
0.0000000000
11
94.5498275649
21
209.7966403119
31
0.0000000000
11
94.6478990492
21
209.7310488235
31
0.0000000000
11
94.7623851804
21
209.7083446957
31
0.0000000000
0
SPLINE
5
54C
100
AcDbEntity
8
0
100
AcDbSpline
62
7
6
CONTINUOUS
70
0
71
3
72
10
73
6
74
4
42
0.0000001000
43
0.0000001000
44
0.0000000001
40
0.0000000000
40
0.0000000000
40
0.0000000000
40
0.0000000000
40
0.2487173976
40
0.7672927219
40
1.0000000000
40
1.0000000000
40
1.0000000000
40
1.0000000000
10
341.5796074427
20
167.1727524257
30
0.0000000000
10
341.5860626785
20
167.1653845424
30
0.0000000000
10
341.6038169776
20
167.1406867495
30
0.0000000000
10
341.6163852800
20
167.1025727402
30
0.0000000000
10
341.6170772058
20
167.0729148732
30
0.0000000000
10
341.6164592539
20
167.0637800148
30
0.0000000000
11
341.5796074427
21
167.1727524257
31
0.0000000000
11
341.5967205486
21
167.1488952521
31
0.0000000000
11
341.6158090208
21
167.0911895286
31
0.0000000000
11
341.6164592539
21
167.0637800148
31
0.0000000000
0
SPLINE
5
54D
100
AcDbEntity
8
0
100
AcDbSpline
62
7
6
CONTINUOUS
70
0
71
3
72
8
73
4
74
2
42
0.0000001000
43
0.0000001000
44
0.0000000001
40
0.0000000000
40
0.0000000000
40
0.0000000000
40
0.0000000000
40
1.0000000000
40
1.0000000000
40
1.0000000000
40
1.0000000000
10
341.6164592539
20
167.0637800148
30
0.0000000000
10
341.6157060210
20
167.0526453702
30
0.0000000000
10
341.6137162280
20
167.0415873416
30
0.0000000000
10
341.6105030373
20
167.0308771518
30
0.0000000000
11
341.6164592539
21
167.0637800148
31
0.0000000000
11
341.6105030373
21
167.0308771518
31
0.0000000000
0
SPLINE
5
54E
100
AcDbEntity
8
0
100
AcDbSpline
62
7
6
CONTINUOUS
70
0
71
3
72
10
73
6
74
4
42
0.0000001000
43
0.0000001000
44
0.0000000001
40
0.0000000000
40
0.0000000000
40
0.0000000000
40
0.0000000000
40
0.0653928341
40
0.5755941984
40
1.0000000000
40
1.0000000000
40
1.0000000000
40
1.0000000000
10
326.0117308150
20
185.1207151716
30
0.0000000000
10
326.0100486415
20
185.1226635480
30
0.0000000000
10
325.9948016776
20
185.1394281140
30
0.0000000000
10
325.9618524909
20
185.1621989185
30
0.0000000000
10
325.9256925158
20
185.1709931209
30
0.0000000000
10
325.9090438277
20
185.1721928222
30
0.0000000000
11
326.0117308150
21
185.1207151716
31
0.0000000000
11
326.0065362552
21
185.1264255563
31
0.0000000000
11
325.9574266668
21
185.1604311862
31
0.0000000000
11
325.9090438277
21
185.1721928222
31
0.0000000000
0
SPLINE
5
54F
100
AcDbEntity
8
0
100
AcDbSpline
62
7
6
CONTINUOUS
70
0
71
3
72
10
73
6
74
4
42
0.0000001000
43
0.0000001000
44
0.0000000001
40
0.0000000000
40
0.0000000000
40
0.0000000000
40
0.0000000000
40
0.4713018615
40
0.9473458320
40
1.0000000000
40
1.0000000000
40
1.0000000000
40
1.0000000000
10
310.9746300396
20
186.2529679459
30
0.0000000000
10
310.9536892696
20
186.2544833916
30
0.0000000000
10
310.9104062617
20
186.2484690691
30
0.0000000000
10
310.8716716094
20
186.2238832506
30
0.0000000000
10
310.8551790266
20
186.2068296468
30
0.0000000000
10
310.8535775358
20
186.2050931328
30
0.0000000000
11
310.9746300396
21
186.2529679459
31
0.0000000000
11
310.9122534495
21
186.2442230706
31
0.0000000000
11
310.8585036282
21
186.2101862348
31
0.0000000000
11
310.8535775358
21
186.2050931328
31
0.0000000000
0
SPLINE
5
550
100
AcDbEntity
8
0
100
AcDbSpline
62
7
6
CONTINUOUS
70
0
71
3
72
9
73
5
74
3
42
0.0000001000
43
0.0000001000
44
0.0000000001
40
0.0000000000
40
0.0000000000
40
0.0000000000
40
0.0000000000
40
0.9027424555
40
1.0000000000
40
1.0000000000
40
1.0000000000
40
1.0000000000
10
310.8535775358
20
186.2050931328
30
0.0000000000
10
310.8402964108
20
186.1906922634
30
0.0000000000
10
310.8287110129
20
186.1718366198
30
0.0000000000
10
310.8216398107
20
186.1512427450
30
0.0000000000
10
310.8209949950
20
186.1492256143
30
0.0000000000
11
310.8535775358
21
186.2050931328
31
0.0000000000
11
310.8230579661
21
186.1552321224
31
0.0000000000
11
310.8209949950
21
186.1492256143
31
0.0000000000
0
SPLINE
5
551
100
AcDbEntity
8
0
100
AcDbSpline
62
7
6
CONTINUOUS
70
0
71
3
72
9
73
5
74
3
42
0.0000001000
43
0.0000001000
44
0.0000000001
40
0.0000000000
40
0.0000000000
40
0.0000000000
40
0.0000000000
40
0.2395752275
40
1.0000000000
40
1.0000000000
40
1.0000000000
40
1.0000000000
10
300.4951685908
20
154.0355285346
30
0.0000000000
10
300.4941152286
20
154.0325633831
30
0.0000000000
10
300.4917669375
20
154.0196601064
30
0.0000000000
10
300.5004287286
20
154.0078868224
30
0.0000000000
10
300.5067654171
20
154.0005813636
30
0.0000000000
11
300.4951685908
21
154.0355285346
31
0.0000000000
11
300.4936219817
21
154.0264456296
31
0.0000000000
11
300.5067654171
21
154.0005813636
31
0.0000000000
0
SPLINE
5
552
100
AcDbEntity
8
0
100
AcDbSpline
62
7
6
CONTINUOUS
70
0
71
3
72
11
73
7
74
5
42
0.0000001000
43
0.0000001000
44
0.0000000001
40
0.0000000000
40
0.0000000000
40
0.0000000000
40
0.0000000000
40
0.2017872864
40
0.4582068192
40
0.7378119621
40
1.0000000000
40
1.0000000000
40
1.0000000000
40
1.0000000000
10
316.2758360810
20
135.8206918756
30
0.0000000000
10
316.2851284759
20
135.8099788339
30
0.0000000000
10
316.3111311901
20
135.7901140761
30
0.0000000000
10
316.3576079961
20
135.7668617300
30
0.0000000000
10
316.4111416089
20
135.7494120320
30
0.0000000000
10
316.4488594930
20
135.7428895986
30
0.0000000000
10
316.4672379958
20
135.7415595795
30
0.0000000000
11
316.2758360810
21
135.8206918756
31
0.0000000000
11
316.3085857300
21
135.7935345328
31
0.0000000000
11
316.3566472163
21
135.7687766682
31
0.0000000000
11
316.4126776626
21
135.7504486125
31
0.0000000000
11
316.4672379958
21
135.7415595795
31
0.0000000000
0
SPLINE
5
553
100
AcDbEntity
8
0
100
AcDbSpline
62
7
6
CONTINUOUS
70
0
71
3
72
10
73
6
74
4
42
0.0000001000
43
0.0000001000
44
0.0000000001
40
0.0000000000
40
0.0000000000
40
0.0000000000
40
0.0000000000
40
0.4971503200
40
0.8482582973
40
1.0000000000
40
1.0000000000
40
1.0000000000
40
1.0000000000
10
331.8365593868
20
134.6293095152
30
0.0000000000
10
331.8516000080
20
134.6282210526
30
0.0000000000
10
331.8768733710
20
134.6287997338
30
0.0000000000
10
331.9085407480
20
134.6364391464
30
0.0000000000
10
331.9173460603
20
134.6504523822
30
0.0000000000
10
331.9188682636
20
134.6549487914
30
0.0000000000
11
331.8365593868
21
134.6293095152
31
0.0000000000
11
331.8817703447
21
134.6309264987
31
0.0000000000
11
331.9113835856
21
134.6429212677
31
0.0000000000
11
331.9188682636
21
134.6549487914
31
0.0000000000
0
SPLINE
5
554
100
AcDbEntity
8
0
100
AcDbSpline
62
7
6
CONTINUOUS
70
0
71
3
72
9
73
5
74
3
42
0.0000001000
43
0.0000001000
44
0.0000000001
40
0.0000000000
40
0.0000000000
40
0.0000000000
40
0.0000000000
40
0.2310486782
40
1.0000000000
40
1.0000000000
40
1.0000000000
40
1.0000000000
10
331.9188682636
20
134.6549487914
30
0.0000000000
10
331.9198292563
20
134.6577874505
30
0.0000000000
10
331.9220307763
20
134.6705352576
30
0.0000000000
10
331.9134650318
20
134.6821779930
30
0.0000000000
10
331.9071283433
20
134.6894834518
30
0.0000000000
11
331.9188682636
21
134.6549487914
31
0.0000000000
11
331.9202717787
21
134.6636191858
31
0.0000000000
11
331.9071283433
21
134.6894834518
31
0.0000000000
0
SPLINE
5
555
100
AcDbEntity
8
0
100
AcDbSpline
62
7
6
CONTINUOUS
70
0
71
3
72
10
73
6
74
4
42
0.0000001000
43
0.0000001000
44
0.0000000001
40
0.0000000000
40
0.0000000000
40
0.0000000000
40
0.0000000000
40
0.4994724013
40
0.8522203277
40
1.0000000000
40
1.0000000000
40
1.0000000000
40
1.0000000000
10
300.5773343737
20
154.0607553002
30
0.0000000000
10
300.5622937524
20
154.0618437629
30
0.0000000000
10
300.5370203894
20
154.0612650816
30
0.0000000000
10
300.5055002362
20
154.0536611852
30
0.0000000000
10
300.4967111267
20
154.0398706810
30
0.0000000000
10
300.4951685908
20
154.0355285346
30
0.0000000000
11
300.5773343737
21
154.0607553002
31
0.0000000000
11
300.5321234158
21
154.0591383168
31
0.0000000000
11
300.5025101749
21
154.0471435477
31
0.0000000000
11
300.4951685908
21
154.0355285346
31
0.0000000000
0
SPLINE
5
556
100
AcDbEntity
8
0
100
AcDbSpline
62
7
6
CONTINUOUS
70
0
71
3
72
11
73
7
74
5
42
0.0000001000
43
0.0000001000
44
0.0000000001
40
0.0000000000
40
0.0000000000
40
0.0000000000
40
0.0000000000
40
0.2017872864
40
0.4582068192
40
0.7378119621
40
1.0000000000
40
1.0000000000
40
1.0000000000
40
1.0000000000
10
316.1380576794
20
152.8693729399
30
0.0000000000
10
316.1287652845
20
152.8800859816
30
0.0000000000
10
316.1027625703
20
152.8999507394
30
0.0000000000
10
316.0562857643
20
152.9232030855
30
0.0000000000
10
316.0027521516
20
152.9406527834
30
0.0000000000
10
315.9650342675
20
152.9471752168
30
0.0000000000
10
315.9466557646
20
152.9485052359
30
0.0000000000
11
316.1380576794
21
152.8693729399
31
0.0000000000
11
316.1053080304
21
152.8965302826
31
0.0000000000
11
316.0572465441
21
152.9212881473
31
0.0000000000
11
316.0012160978
21
152.9396162029
31
0.0000000000
11
315.9466557646
21
152.9485052359
31
0.0000000000
0
SPLINE
5
557
100
AcDbEntity
8
0
100
AcDbSpline
62
7
6
CONTINUOUS
70
0
71
3
72
9
73
5
74
3
42
0.0000001000
43
0.0000001000
44
0.0000000001
40
0.0000000000
40
0.0000000000
40
0.0000000000
40
0.0000000000
40
0.4960646044
40
1.0000000000
40
1.0000000000
40
1.0000000000
40
1.0000000000
10
387.7455028004
20
185.2698992415
30
0.0000000000
10
387.7305418317
20
185.2802047512
30
0.0000000000
10
387.6962433268
20
185.2955774993
30
0.0000000000
10
387.6588438511
20
185.2975034259
30
0.0000000000
10
387.6404603758
20
185.2950366468
30
0.0000000000
11
387.7455028004
21
185.2698992415
31
0.0000000000
11
387.6957501960
21
185.2921475085
31
0.0000000000
11
387.6404603758
21
185.2950366468
31
0.0000000000
0
SPLINE
5
558
100
AcDbEntity
8
0
100
AcDbSpline
62
7
6
CONTINUOUS
70
0
71
3
72
8
73
4
74
2
42
0.0000001000
43
0.0000001000
44
0.0000000001
40
0.0000000000
40
0.0000000000
40
0.0000000000
40
0.0000000000
40
1.0000000000
40
1.0000000000
40
1.0000000000
40
1.0000000000
10
387.6404603758
20
185.2950366468
30
0.0000000000
10
387.6323376870
20
185.2939467072
30
0.0000000000
10
387.6243054760
20
185.2921857025
30
0.0000000000
10
387.6164668852
20
185.2897839317
30
0.0000000000
11
387.6404603758
21
185.2950366468
31
0.0000000000
11
387.6164668852
21
185.2897839317
31
0.0000000000
0
SPLINE
5
559
100
AcDbEntity
8
0
100
AcDbSpline
62
7
6
CONTINUOUS
70
0
71
3
72
9
73
5
74
3
42
0.0000001000
43
0.0000001000
44
0.0000000001
40
0.0000000000
40
0.0000000000
40
0.0000000000
40
0.0000000000
40
0.4959200923
40
1.0000000000
40
1.0000000000
40
1.0000000000
40
1.0000000000
10
399.7657855024
20
176.9900116169
30
0.0000000000
10
399.7825467338
20
176.9784660388
30
0.0000000000
10
399.8118764704
20
176.9478411595
30
0.0000000000
10
399.8262836449
20
176.9081677649
30
0.0000000000
10
399.8292079765
20
176.8875503865
30
0.0000000000
11
399.7657855024
21
176.9900116169
31
0.0000000000
11
399.8079671389
21
176.9458656905
31
0.0000000000
11
399.8292079765
21
176.8875503865
31
0.0000000000
0
SPLINE
5
55A
100
AcDbEntity
8
0
100
AcDbSpline
62
7
6
CONTINUOUS
70
0
71
3
72
8
73
4
74
2
42
0.0000001000
43
0.0000001000
44
0.0000000001
40
0.0000000000
40
0.0000000000
40
0.0000000000
40
0.0000000000
40
1.0000000000
40
1.0000000000
40
1.0000000000
40
1.0000000000
10
399.8292079765
20
176.8875503865
30
0.0000000000
10
399.8320385421
20
176.8675940853
30
0.0000000000
10
399.8308048023
20
176.8470580143
30
0.0000000000
10
399.8255559688
20
176.8275498133
30
0.0000000000
11
399.8292079765
21
176.8875503865
31
0.0000000000
11
399.8255559688
21
176.8275498133
31
0.0000000000
0
SPLINE
5
55B
100
AcDbEntity
8
0
100
AcDbSpline
62
7
6
CONTINUOUS
70
0
71
3
72
11
73
7
74
5
42
0.0000001000
43
0.0000001000
44
0.0000000001
40
0.0000000000
40
0.0000000000
40
0.0000000000
40
0.0000000000
40
0.1586864858
40
0.5580047449
40
0.9633959680
40
1.0000000000
40
1.0000000000
40
1.0000000000
40
1.0000000000
10
361.7155497930
20
177.3705959797
30
0.0000000000
10
361.7080106583
20
177.3683118490
30
0.0000000000
10
361.6821001364
20
177.3582085983
30
0.0000000000
10
361.6433980538
20
177.3287299703
30
0.0000000000
10
361.6221616857
20
177.2918952455
30
0.0000000000
10
361.6156348237
20
177.2709324424
30
0.0000000000
10
361.6151261725
20
177.2691867582
30
0.0000000000
11
361.7155497930
21
177.3705959797
31
0.0000000000
11
361.6935562621
21
177.3620017222
31
0.0000000000
11
361.6466005618
21
177.3263034063
31
0.0000000000
11
361.6167476277
21
177.2743934798
31
0.0000000000
11
361.6151261725
21
177.2691867582
31
0.0000000000
0
SPLINE
5
55C
100
AcDbEntity
8
0
100
AcDbSpline
62
7
6
CONTINUOUS
70
0
71
3
72
9
73
5
74
3
42
0.0000001000
43
0.0000001000
44
0.0000000001
40
0.0000000000
40
0.0000000000
40
0.0000000000
40
0.0000000000
40
0.3295214723
40
1.0000000000
40
1.0000000000
40
1.0000000000
40
1.0000000000
10
391.4569606189
20
145.7077930722
30
0.0000000000
10
391.4553330299
20
145.7021583990
30
0.0000000000
10
391.4465267277
20
145.6859093778
30
0.0000000000
10
391.4293750359
20
145.6785996089
30
0.0000000000
10
391.4182425543
20
145.6751958673
30
0.0000000000
11
391.4569606189
21
145.7077930722
31
0.0000000000
11
391.4486231194
21
145.6924202596
31
0.0000000000
11
391.4182425543
21
145.6751958673
31
0.0000000000
0
SPLINE
5
55D
100
AcDbEntity
8
0
100
AcDbSpline
62
7
6
CONTINUOUS
70
0
71
3
72
10
73
6
74
4
42
0.0000001000
43
0.0000001000
44
0.0000000001
40
0.0000000000
40
0.0000000000
40
0.0000000000
40
0.0000000000
40
0.5003238241
40
0.8725014548
40
1.0000000000
40
1.0000000000
40
1.0000000000
40
1.0000000000
10
352.6070435343
20
146.2167285114
30
0.0000000000
10
352.5949246079
20
146.2250763474
30
0.0000000000
10
352.5753251805
20
146.2415799724
30
0.0000000000
10
352.5601601975
20
146.2695580896
30
0.0000000000
10
352.5624845734
20
146.2844899787
30
0.0000000000
10
352.5636187074
20
146.2881675999
30
0.0000000000
11
352.6070435343
21
146.2167285114
31
0.0000000000
11
352.5745405386
21
146.2466040525
31
0.0000000000
11
352.5619430818
21
146.2769318425
31
0.0000000000
11
352.5636187074
21
146.2881675999
31
0.0000000000
0
SPLINE
5
55E
100
AcDbEntity
8
0
100
AcDbSpline
62
7
6
CONTINUOUS
70
0
71
3
72
11
73
7
74
5
42
0.0000001000
43
0.0000001000
44
0.0000000001
40
0.0000000000
40
0.0000000000
40
0.0000000000
40
0.0000000000
40
0.2157043078
40
0.4750731330
40
0.7486574145
40
1.0000000000
40
1.0000000000
40
1.0000000000
40
1.0000000000
10
365.1832441085
20
137.6538795914
30
0.0000000000
10
365.1684276817
20
137.6493494884
30
0.0000000000
10
365.1339187402
20
137.6457921183
30
0.0000000000
10
365.0802449543
20
137.6518803109
30
0.0000000000
10
365.0260168478
20
137.6681601550
30
0.0000000000
10
364.9921708368
20
137.6855263073
30
0.0000000000
10
364.9773033724
20
137.6957674087
30
0.0000000000
11
365.1832441085
21
137.6538795914
31
0.0000000000
11
365.1371831308
21
137.6476489118
31
0.0000000000
11
365.0815861045
21
137.6533583201
31
0.0000000000
11
365.0251441556
21
137.6703793332
31
0.0000000000
11
364.9773033724
21
137.6957674087
31
0.0000000000
0
ENDSEC
0
SECTION
2
OBJECTS
0
DICTIONARY
5
55F
100
AcDbDictionary
3
ACAD_GROUP
350
560
3
ACAD_MLINESTYLE
350
561
0
DICTIONARY
5
560
102
{ACAD_REACTORS
330
55F
102
}
100
AcDbDictionary
0
DICTIONARY
5
561
102
{ACAD_REACTORS
330
55F
102
}
100
AcDbDictionary
3
STANDARD
350
562
0
MLINESTYLE
5
562
102
{ACAD_REACTORS
330
561
102
}
100
AcDbMlineStyle
2
STANDARD
70
0
3

62
256
51
90.0
52
90.0
71
2
49
0.5
62
256
6
BYLAYER
49
-0.5
62
256
6
BYLAYER
0
ENDSEC
0
EOF
